osu file format v14

[General]
AudioFilename: audio.mp3
AudioLeadIn: 0
PreviewTime: 51590
Countdown: 0
SampleSet: Soft
StackLeniency: 0.4
Mode: 0
LetterboxInBreaks: 0
WidescreenStoryboard: 0

[Editor]
Bookmarks: 5105,14610,33620,43125,52630,68669
DistanceSpacing: 1
BeatDivisor: 4
GridSize: 8
TimelineZoom: 1

[Metadata]
Title:WIN (TV Size)
TitleUnicode:WIN (TV Size)
Artist:CIX
ArtistUnicode:CIX
Creator:- ascended -
Version:NORMAL
Source:THE GOD OF HIGH SCHOOL ゴッド・オブ・ハイスクール
Tags:tgohs gohs goh naver line webtoon crunchyroll crunchy onigiri llc original mappa anime animation ending ed english eng kpop k-pop k pop Sunghoo Yongje Park highschool warner music japan ゴッドオブハイスクール goddo obu haisukuuru 갓 오브 하이 스쿨 Gat Obeu Hai Seukul male vocalist manhwa comic jin mori mo-ri Han Dae-Wi daewi Yu Mi-Ra mira clx boyband boy band
BeatmapID:2530871
BeatmapSetID:1216307

[Difficulty]
HPDrainRate:4
CircleSize:3.5
OverallDifficulty:4
ApproachRate:5
SliderMultiplier:2
SliderTickRate:1

[Events]
//Background and Video events
0,0,"i can honestly vibe to this song its super calm and i really enjoy it despite its origins from kpop group.jpg",0,0
Video,64,"the op is banger but the ed is very chill and i really enjoy taking the time to sit back and relax to the song.mp4"
//Break Periods
2,33778,41883
//Storyboard Layer 0 (Background)
//Storyboard Layer 1 (Fail)
//Storyboard Layer 2 (Pass)
//Storyboard Layer 3 (Foreground)
//Storyboard Layer 4 (Overlay)
//Storyboard Sound Samples

[TimingPoints]
311,594.059405940594,4,2,1,55,1,0
311,-111.111111111111,4,2,1,55,0,0
5063,-111.111111111111,4,2,1,65,0,0
14568,-111.111111111111,4,2,1,55,0,0
15459,-111.111111111111,4,2,2,55,0,0
16202,-111.111111111111,4,2,1,55,0,0
17835,-111.111111111111,4,2,2,55,0,0
17984,-111.111111111111,4,2,1,55,0,0
20211,-111.111111111111,4,2,2,55,0,0
20954,-111.111111111111,4,2,1,55,0,0
22588,-111.111111111111,4,2,2,55,0,0
22736,-111.111111111111,4,2,1,55,0,0
24073,-100,4,2,1,65,0,0
24370,-100,4,2,1,65,0,0
24964,-100,4,2,2,65,0,0
25261,-100,4,2,1,65,0,0
27340,-100,4,2,2,65,0,0
27637,-100,4,2,1,65,0,0
29716,-100,4,2,2,65,0,0
30608,-100,4,2,1,65,0,0
34469,-100,4,2,2,65,0,0
34766,-100,4,2,1,65,0,0
35657,-100,4,2,2,65,0,0
35954,-100,4,2,1,65,0,0
39221,-100,4,2,2,65,0,0
39518,-100,4,2,1,65,0,0
40410,-100,4,2,2,65,0,0
40707,-100,4,2,1,65,0,0
43083,-100,4,2,1,70,0,0
52588,-90.9090909090909,4,2,1,75,0,1
53033,-90.9090909090909,4,2,1,75,0,1
53182,-90.9090909090909,4,2,1,75,0,1
53479,-90.9090909090909,4,2,1,75,0,1
53776,-90.9090909090909,4,2,1,75,0,1
54964,-90.9090909090909,4,2,1,75,0,1
55410,-90.9090909090909,4,2,1,75,0,1
55855,-90.9090909090909,4,2,1,75,0,1
56449,-90.9090909090909,4,2,1,75,0,1
57340,-90.9090909090909,4,2,1,75,0,1
57785,-90.9090909090909,4,2,1,75,0,1
57934,-90.9090909090909,4,2,1,75,0,1
58231,-90.9090909090909,4,2,1,75,0,1
58528,-90.9090909090909,4,2,1,75,0,1
59716,-90.9090909090909,4,2,1,75,0,1
60162,-90.9090909090909,4,2,1,75,0,1
60608,-90.9090909090909,4,2,1,75,0,1
61202,-90.9090909090909,4,2,1,75,0,1
62093,-90.9090909090909,4,2,1,75,0,1
62538,-90.9090909090909,4,2,1,5,0,1
62687,-90.9090909090909,4,2,1,75,0,1
62984,-90.9090909090909,4,2,1,75,0,1
63132,-90.9090909090909,4,2,1,75,0,1
63281,-90.9090909090909,4,2,1,75,0,1
64469,-90.9090909090909,4,2,1,75,0,1
64766,-90.9090909090909,4,2,1,75,0,1
65360,-90.9090909090909,4,2,1,75,0,1
65657,-90.9090909090909,4,2,1,75,0,1
66845,-90.9090909090909,4,2,1,75,0,1
67290,-90.9090909090909,4,2,1,75,0,1
67439,-90.9090909090909,4,2,1,75,0,1
67736,-90.9090909090909,4,2,1,75,0,1
68033,-90.9090909090909,4,2,1,75,0,1
69221,-90.9090909090909,4,2,1,75,0,1
69667,-90.9090909090909,4,2,1,75,0,1
70112,-90.9090909090909,4,2,1,75,0,1
70707,-90.9090909090909,4,2,1,75,0,1
71598,-90.9090909090909,4,2,1,75,0,1
72043,-90.9090909090909,4,2,1,75,0,1
72192,-90.9090909090909,4,2,1,75,0,1
72489,-90.9090909090909,4,2,1,75,0,1
72786,-90.9090909090909,4,2,1,75,0,1
73974,-90.9090909090909,4,2,1,75,0,1
74271,-90.9090909090909,4,2,1,75,0,1
74865,-90.9090909090909,4,2,1,75,0,1
75162,-90.9090909090909,4,2,1,75,0,1
76350,-90.9090909090909,4,2,1,75,0,1
76795,-90.9090909090909,4,2,1,75,0,1
76944,-90.9090909090909,4,2,1,75,0,1
77241,-90.9090909090909,4,2,1,75,0,1
77538,-90.9090909090909,4,2,1,75,0,1
78726,-90.9090909090909,4,2,1,75,0,1
79023,-90.9090909090909,4,2,1,75,0,1
79617,-90.9090909090909,4,2,1,75,0,1
79914,-90.9090909090909,4,2,1,75,0,1
81103,-100,4,2,1,55,0,0
84964,-100,4,2,1,10,0,0
89419,-100,4,2,1,5,0,0

[Colours]
Combo1 : 255,128,64
Combo2 : 221,221,221
Combo3 : 255,79,255
Combo4 : 56,227,208

[HitObjects]
88,48,311,6,0,P|104:95|98:144,1,89.9999972534181,0|0,3:0|3:0,0:0:0:0:
86,177,756,1,2,3:2:0:0:
112,309,1202,2,0,P|159:293|208:299,1,89.9999972534181,0|0,3:0|3:0,0:0:0:0:
241,310,1647,1,2,3:2:0:0:
423,52,2687,6,0,L|435:155,1,89.9999972534181,0|0,3:0|3:0,0:0:0:0:
429,186,3132,1,2,3:2:0:0:
325,136,3578,2,0,L|222:124,1,89.9999972534181,0|0,3:0|3:0,0:0:0:0:
191,130,4023,1,2,3:2:0:0:
199,336,5063,6,0,B|134:358|134:358|68:349,1,134.999995880127,6|2,3:2|3:2,0:0:0:0:
24,337,5657,1,10,0:1:0:0:
15,245,5954,1,2,3:2:0:0:
15,245,6103,2,0,B|0:200|0:200|6:155,1,89.9999972534181,2|2,0:2|3:2,0:0:0:0:
41,27,6845,1,8,0:1:0:0:
206,96,7439,6,0,L|305:91,1,89.9999972534181,2|2,3:2|3:2,0:0:0:0:
373,45,8033,2,0,B|384:-1,2,44.999998626709,10|2|2,0:1|0:2|3:2,0:0:0:0:
400,80,8479,2,0,B|405:122|405:122|390:167,1,89.9999972534181,2|2,0:2|3:2,0:0:0:0:
321,283,9221,2,0,L|370:275,1,44.999998626709,8|0,3:1|3:0,0:0:0:0:
405,297,9518,2,0,L|454:305,1,44.999998626709,2|2,3:2|3:2,0:0:0:0:
488,329,9815,6,0,P|493:262|504:222,1,89.9999972534181,2|2,3:2|3:2,0:0:0:0:
494,149,10410,2,0,B|483:103,2,44.999998626709,10|2|2,0:1|0:2|3:2,0:0:0:0:
454,169,10855,2,0,B|408:146|408:146|361:149,1,89.9999972534181,2|2,0:2|3:2,0:0:0:0:
237,175,11598,1,8,0:1:0:0:
86,273,12192,5,2,3:2:0:0:
42,194,12489,2,0,L|36:145,1,44.999998626709,2|2,3:2|3:2,0:0:0:0:
58,109,12786,2,0,L|64:60,2,44.999998626709,10|2|2,0:1|0:2|3:2,0:0:0:0:
149,126,13380,1,0,3:0:0:0:
149,126,13528,2,0,B|221:139|206:78|287:91,1,134.999995880127,0|8,3:0|0:1,0:0:0:0:
226,250,14568,6,0,B|273:261|309:226|309:226|305:279|347:299,1,179.999994506836,2|10,3:3|0:1,0:0:0:0:
427,341,15459,2,0,B|471:198|382:221|433:68,1,269.999991760254,2|2,3:3|0:2,0:0:0:0:
254,38,16944,2,0,B|266:106|266:106|251:132|251:132|265:218,1,179.999994506836,2|10,3:3|0:1,0:0:0:0:
188,261,17835,2,0,P|87:241|152:330,1,269.999991760254,2|0,3:3|3:0,0:0:0:0:
326,344,19320,6,0,B|380:367|410:347|410:347|429:299|391:257,1,179.999994506836,2|10,3:3|0:1,0:0:0:0:
328,199,20211,2,0,B|174:156|213:264|54:204,1,269.999991760254,2|2,3:3|0:2,0:0:0:0:
135,41,21697,6,0,B|181:53|196:98|196:98|222:59|277:51,1,179.999994506836,2|10,3:3|0:1,0:0:0:0:
355,87,22588,2,0,B|392:216|392:216|340:347,1,269.999991760254,2|0,3:3|3:0,0:0:0:0:
305,366,23627,1,8,0:2:0:0:
305,366,23776,2,0,P|258:343|237:340,1,44.999998626709,10|8,0:2|0:2,0:0:0:0:
215,352,24073,5,14,3:3:0:0:
121,317,24370,2,0,P|104:267|128:214,2,100,2|10|2,0:2|0:2|3:3,0:0:0:0:
215,352,25261,2,0,P|220:270|341:257,1,200,2|10,0:2|0:2,0:0:0:0:
354,148,26152,1,2,0:2:0:0:
293,68,26449,5,2,3:3:0:0:
384,28,26746,2,0,B|418:59|418:59|490:57,2,100,2|10|2,0:2|0:2|3:3,0:0:0:0:
293,68,27637,2,0,L|237:51,1,50,2|0,0:2|3:0,0:0:0:0:
196,65,27934,1,2,3:2:0:0:
110,13,28231,2,0,P|94:63|107:113,1,100,10|2,0:2|0:2,0:0:0:0:
187,163,28825,5,2,3:3:0:0:
304,324,29419,2,0,L|251:316,1,50,10|2,0:2|0:2,0:0:0:0:
208,337,29716,2,0,P|101:328|109:240,1,200,2|0,3:3|0:0,0:0:0:0:
158,174,30608,2,0,L|211:166,1,50,10|2,0:2|0:2,0:0:0:0:
254,187,30905,2,0,P|361:178|353:90,1,200,2|0,0:2|0:0,0:0:0:0:
283,45,31796,5,10,0:2:0:0:
283,45,31944,2,0,P|225:58|174:57,1,100,2|2,0:2|0:2,0:0:0:0:
139,36,32390,2,0,B|157:90|157:90|148:140,1,100,2|2,0:2|0:2,0:0:0:0:
54,99,32984,2,0,B|36:153|36:153|45:203,1,100,10|2,0:2|0:2,0:0:0:0:
70,291,33578,5,2,0:3:0:0:
437,52,43083,5,12,3:2:0:0:
479,142,43380,1,2,0:2:0:0:
458,239,43677,2,0,L|403:229,1,50,2|2,0:2|0:2,0:0:0:0:
359,219,43974,1,10,3:2:0:0:
359,219,44122,2,0,L|204:247,1,150,2|2,0:2|0:2,0:0:0:0:
122,293,44865,2,0,P|109:231|123:195,1,100,8|2,0:2|0:2,0:0:0:0:
211,156,45459,5,10,3:2:0:0:
211,156,45608,2,0,P|221:77|154:68,1,150,2|2,0:2|0:2,0:0:0:0:
72,28,46350,1,10,3:2:0:0:
72,28,46499,2,0,P|8:55|27:121,1,150,2|2,0:2|0:2,0:0:0:0:
51,218,47241,1,10,0:2:0:0:
22,313,47538,1,10,0:2:0:0:
121,326,47835,6,0,P|180:322|259:402,2,150,10|10|10,3:2|0:2|0:2,0:0:0:0:
150,230,49023,2,0,P|146:171|226:92,2,150,10|10|10,0:2|0:2|0:2,0:0:0:0:
241,189,50211,2,0,L|298:178,1,50,10|8,0:2|0:2,0:0:0:0:
330,210,50509,2,0,L|387:221,1,50,8|8,0:2|0:2,0:0:0:0:
425,201,50806,2,0,L|436:144,1,50,8|8,0:2|0:2,0:0:0:0:
437,101,51103,2,0,L|323:79,1,100,8|0,0:2|3:0,0:0:0:0:
141,47,51994,1,2,0:2:0:0:
97,262,52588,6,0,P|73:309|97:357,1,110.000003356934,6|2,3:2|0:0,0:0:0:0:
203,326,53182,2,0,B|250:300|250:300|317:314,1,110.000003356934,10|2,0:2|3:2,0:0:0:0:
310,201,53776,1,2,0:2:0:0:
510,94,54370,2,0,B|463:68|463:68|396:82,1,110.000003356934,10|2,0:2|0:2,0:0:0:0:
294,86,54964,2,0,P|238:49|137:56,2,165.000005035401,2|2|2,3:2|0:2|3:2,0:0:0:0:
323,310,56449,2,0,P|298:316|268:316,1,55.0000016784669,2|2,0:2|0:2,0:0:0:0:
219,286,56746,2,0,P|194:280|164:280,1,55.0000016784669,10|2,0:2|0:2,0:0:0:0:
113,305,57043,1,2,0:2:0:0:
68,200,57340,6,0,P|43:118|63:93,1,110.000003356934,6|2,3:2|0:0,0:0:0:0:
162,126,57934,2,0,L|301:117,1,110.000003356934,10|2,0:2|3:2,0:0:0:0:
385,115,58528,1,2,0:2:0:0:
444,333,59122,2,0,L|305:342,1,110.000003356934,10|2,0:2|0:2,0:0:0:0:
220,338,59716,2,0,B|196:252|196:252|222:171,2,165.000005035401,2|2|2,3:2|0:2|3:2,0:0:0:0:
436,322,61202,2,0,P|457:255|436:206,1,110.000003356934,2|8,3:2|3:2,0:0:0:0:
373,136,61796,1,2,0:2:0:0:
277,189,62093,6,0,B|183:196|217:141|106:153,1,165.000005035401,6|0,3:2|2:0,0:0:0:0:
65,145,62687,2,0,P|45:108|103:62,1,110.000003356934,10|0,0:2|3:0,0:0:0:0:
175,0,63281,1,2,0:2:0:0:
279,33,63578,1,2,3:2:0:0:
382,69,63875,2,0,P|374:110|375:187,1,110.000003356934,10|2,0:2|0:2,0:0:0:0:
386,287,64469,5,0,3:0:0:0:
475,223,64766,2,0,L|491:86,2,110.000003356934,2|10|2,0:2|0:2|3:2,0:0:0:0:
373,178,65657,1,2,0:2:0:0:
312,85,65954,2,0,P|267:93|240:94,1,55.0000016784668,2|2,0:2|0:2,0:0:0:0:
211,63,66251,2,0,P|166:55|139:54,1,55.0000016784668,10|2,0:2|0:2,0:0:0:0:
100,55,66548,1,2,0:2:0:0:
46,151,66845,6,0,B|68:191|68:191|60:268,1,110.000003356934,6|2,3:2|0:0,0:0:0:0:
52,364,67439,2,0,P|112:319|151:322,1,110.000003356934,10|2,0:2|3:2,0:0:0:0:
243,365,68033,1,2,0:2:0:0:
369,186,68627,2,0,P|309:141|270:144,1,110.000003356934,10|2,0:2|0:2,0:0:0:0:
170,163,69221,2,0,P|204:74|152:9,2,165.000005035401,2|2|2,3:2|0:2|3:2,0:0:0:0:
287,349,70707,2,0,L|348:338,1,55.0000016784668,2|2,3:2|3:2,0:0:0:0:
393,322,71004,2,0,L|454:333,1,55.0000016784668,10|2,3:2|0:2,0:0:0:0:
501,339,71301,1,2,0:2:0:0:
507,229,71598,6,0,P|457:178|413:178,1,110.000003356934,6|2,3:2|0:0,0:0:0:0:
335,231,72192,2,0,L|313:109,1,110.000003356934,10|2,0:2|3:2,0:0:0:0:
295,14,72786,2,0,P|232:77|107:49,1,220.000006713867,2|8,0:2|0:2,0:0:0:0:
13,8,73677,2,0,P|34:55|28:131,1,110.000003356934,2|0,0:2|3:0,0:0:0:0:
8,219,74271,5,2,0:2:0:0:
98,280,74568,2,0,B|154:298|154:298|206:287,2,110.000003356934,10|2|2,0:2|3:2|0:2,0:0:0:0:
8,219,75459,2,0,L|19:163,1,55.0000016784668,2|2,0:2|0:2,0:0:0:0:
29,111,75756,2,0,L|85:122,1,55.0000016784668,10|2,0:2|0:2,0:0:0:0:
132,145,76053,1,2,0:2:0:0:
240,126,76350,6,0,B|270:138|275:165|275:165|294:145|334:147,1,110.000003356934,6|2,3:2|0:0,0:0:0:0:
435,138,76944,2,0,P|426:177|423:252,1,110.000003356934,10|2,0:2|3:2,0:0:0:0:
331,308,77538,2,0,B|262:311|231:273|231:273|216:325|157:349,1,220.000006713867,2|8,0:2|0:2,0:0:0:0:
55,307,78429,2,0,L|65:193,1,110.000003356934,2|0,0:2|3:0,0:0:0:0:
134,112,79023,5,2,0:2:0:0:
226,171,79320,2,0,B|276:181|276:181|332:163,2,110.000003356934,10|2|2,0:2|3:2|0:2,0:0:0:0:
134,112,80211,2,0,P|124:50|179:19,1,110.000003356934,2|8,3:2|3:2,0:0:0:0:
258,61,80806,2,0,L|323:49,1,55.0000016784668,2|2,0:2|0:0,0:0:0:0:
352,21,81103,6,0,P|397:52|467:52,1,100,0|0,3:0|3:0,0:0:0:0:
489,44,81548,1,2,3:2:0:0:
458,191,81994,2,0,P|427:236|427:306,1,100,0|0,3:0|3:0,0:0:0:0:
431,328,82439,1,2,3:2:0:0:
213,194,83479,6,0,L|103:204,1,100,0|0,3:0|3:0,0:0:0:0:
63,206,83924,1,2,3:2:0:0:
52,355,84370,2,0,L|162:345,1,100,0|0,3:0|3:0,0:0:0:0:
202,343,84815,1,2,3:2:0:0:
256,192,84964,12,0,89419,0:0:0:0:
