osu file format v14

[General]
AudioFilename: audio.mp3
AudioLeadIn: 0
PreviewTime: 51590
Countdown: 0
SampleSet: Soft
StackLeniency: 0.4
Mode: 0
LetterboxInBreaks: 0
WidescreenStoryboard: 1

[Editor]
Bookmarks: 5105,14610,25261,33620,43125,52630,68669,84370
DistanceSpacing: 1.03
BeatDivisor: 4
GridSize: 8
TimelineZoom: 1

[Metadata]
Title:WIN (TV Size)
TitleUnicode:WIN (TV Size)
Artist:CIX
ArtistUnicode:CIX
Creator:- ascended -
Version:EASY
Source:THE GOD OF HIGH SCHOOL ゴッド・オブ・ハイスクール
Tags:tgohs gohs goh naver line webtoon crunchyroll crunchy onigiri llc original mappa anime animation ending ed english eng kpop k-pop k pop Sunghoo Yongje Park highschool warner music japan ゴッドオブハイスクール goddo obu haisukuuru 갓 오브 하이 스쿨 Gat Obeu Hai Seukul male vocalist manhwa comic jin mori mo-ri Han Dae-Wi daewi Yu Mi-Ra mira clx boyband boy band
BeatmapID:2569407
BeatmapSetID:1216307

[Difficulty]
HPDrainRate:3
CircleSize:3
OverallDifficulty:3
ApproachRate:3.5
SliderMultiplier:1.6
SliderTickRate:1

[Events]
//Background and Video events
0,0,"i can honestly vibe to this song its super calm and i really enjoy it despite its origins from kpop group.jpg",0,0
Video,64,"the op is banger but the ed is very chill and i really enjoy taking the time to sit back and relax to the song.mp4"
//Break Periods
2,33778,41703
//Storyboard Layer 0 (Background)
//Storyboard Layer 1 (Fail)
//Storyboard Layer 2 (Pass)
//Storyboard Layer 3 (Foreground)
//Storyboard Layer 4 (Overlay)
//Storyboard Sound Samples

[TimingPoints]
311,594.059405940594,4,2,1,55,1,0
311,-100,4,2,1,55,0,0
5063,-100,4,2,1,65,0,0
14568,-100,4,2,1,55,0,0
15459,-100,4,2,2,55,0,0
16202,-100,4,2,1,55,0,0
17835,-100,4,2,2,55,0,0
17984,-100,4,2,1,55,0,0
20211,-100,4,2,2,55,0,0
20954,-100,4,2,1,55,0,0
22588,-100,4,2,2,55,0,0
22736,-100,4,2,1,55,0,0
24073,-100,4,2,1,65,0,0
24370,-100,4,2,1,65,0,0
24964,-100,4,2,2,65,0,0
25261,-100,4,2,1,65,0,0
27340,-100,4,2,2,65,0,0
27637,-100,4,2,1,65,0,0
29716,-100,4,2,2,65,0,0
30608,-100,4,2,1,65,0,0
34469,-100,4,2,2,65,0,0
34766,-100,4,2,1,65,0,0
35657,-100,4,2,2,65,0,0
35954,-100,4,2,1,65,0,0
39221,-100,4,2,2,65,0,0
39518,-100,4,2,1,65,0,0
40410,-100,4,2,2,65,0,0
40707,-100,4,2,1,65,0,0
43083,-100,4,2,1,70,0,0
52588,-100,4,2,1,75,0,1
53033,-100,4,2,1,75,0,1
53182,-100,4,2,1,75,0,1
53479,-100,4,2,1,75,0,1
53776,-100,4,2,1,75,0,1
54964,-100,4,2,1,75,0,1
55410,-100,4,2,1,75,0,1
55855,-100,4,2,1,75,0,1
56449,-100,4,2,1,75,0,1
57340,-100,4,2,1,75,0,1
57785,-100,4,2,1,75,0,1
57934,-100,4,2,1,75,0,1
58231,-100,4,2,1,75,0,1
58528,-100,4,2,1,75,0,1
59716,-100,4,2,1,75,0,1
60162,-100,4,2,1,75,0,1
60608,-100,4,2,1,75,0,1
61202,-100,4,2,1,75,0,1
62093,-100,4,2,1,75,0,1
62538,-100,4,2,1,75,0,1
62687,-100,4,2,1,75,0,1
62984,-100,4,2,1,75,0,1
63132,-100,4,2,1,75,0,1
63281,-100,4,2,1,75,0,1
64469,-100,4,2,1,75,0,1
64766,-100,4,2,1,75,0,1
65360,-100,4,2,1,75,0,1
65657,-100,4,2,1,75,0,1
66845,-100,4,2,1,75,0,1
67290,-100,4,2,1,75,0,1
67439,-100,4,2,1,75,0,1
67736,-100,4,2,1,75,0,1
68033,-100,4,2,1,75,0,1
69221,-100,4,2,1,75,0,1
69667,-100,4,2,1,75,0,1
70112,-100,4,2,1,75,0,1
70707,-100,4,2,1,75,0,1
71598,-100,4,2,1,75,0,1
72043,-100,4,2,1,75,0,1
72192,-100,4,2,1,75,0,1
72489,-100,4,2,1,75,0,1
72786,-100,4,2,1,75,0,1
73974,-100,4,2,1,75,0,1
74271,-100,4,2,1,75,0,1
74865,-100,4,2,1,75,0,1
75162,-100,4,2,1,75,0,1
76350,-100,4,2,1,75,0,1
76795,-100,4,2,1,75,0,1
76944,-100,4,2,1,75,0,1
77241,-100,4,2,1,75,0,1
77538,-100,4,2,1,75,0,1
78726,-100,4,2,1,75,0,1
79023,-100,4,2,1,75,0,1
79617,-100,4,2,1,75,0,1
79914,-100,4,2,1,75,0,1
81103,-100,4,2,1,55,0,0
84964,-100,4,2,1,10,0,0
89419,-100,4,2,1,5,0,0

[Colours]
Combo1 : 255,128,64
Combo2 : 221,221,221
Combo3 : 255,79,255
Combo4 : 56,227,208

[HitObjects]
441,31,311,6,0,L|437:188,1,120,0|2,3:0|3:2,0:0:0:0:
317,177,1202,2,0,L|319:19,1,120,0|2,3:0|3:2,0:0:0:0:
54,189,2687,2,0,P|38:263|85:307,1,120,0|2,3:0|3:2,0:0:0:0:
184,280,3578,2,0,P|198:204|151:160,1,120,0|2,3:0|3:2,0:0:0:0:
401,352,5063,6,0,P|441:275|423:198,1,160,6|10,3:2|0:1,0:0:0:0:
346,199,5954,1,2,3:2:0:0:
291,260,6251,2,0,B|203:279|224:215|129:238,1,160,0|8,3:0|0:1,0:0:0:0:
39,104,7439,2,0,B|36:76|54:48|54:48|124:25|172:64,1,160,2|10,3:2|0:1,0:0:0:0:
303,115,8627,1,0,3:0:0:0:
165,205,9221,2,0,L|167:303,1,80,8|2,3:1|3:2,0:0:0:0:
227,341,9815,6,0,P|328:326|367:376,1,160,2|10,3:2|0:1,0:0:0:0:
436,327,10707,1,2,3:2:0:0:
483,257,11004,2,0,B|448:216|472:164|472:164|440:188|391:169,1,160,0|8,3:0|0:1,0:0:0:0:
283,76,12192,2,0,B|246:114|246:114|257:232,1,160,2|10,3:2|0:1,0:0:0:0:
129,326,13380,2,0,B|76:327|44:359|44:359|10:340|3:294,1,160,0|8,3:0|0:1,0:0:0:0:
63,152,14568,6,0,L|224:144,1,160,2|10,3:3|0:1,0:0:0:0:
283,200,15459,2,0,P|362:267|373:157,1,240,2|2,3:3|0:2,0:0:0:0:
292,40,16944,2,0,B|200:16|217:76|127:46,1,160,2|10,3:3|0:1,0:0:0:0:
62,12,17835,2,0,B|21:76|21:76|45:262,1,240,2|0,3:3|3:0,0:0:0:0:
206,258,19320,6,0,P|240:341|302:336,1,160,2|10,3:3|0:1,0:0:0:0:
355,277,20211,2,0,L|346:28,1,240,2|2,3:3|0:2,0:0:0:0:
494,109,21697,2,0,L|488:270,1,160,2|10,3:3|0:1,0:0:0:0:
482,351,22588,2,0,B|359:334|373:376|223:362,1,240,2|0,3:3|3:0,0:0:0:0:
181,309,23776,1,10,0:2:0:0:
199,228,24073,5,14,3:3:0:0:
188,69,24667,1,10,0:2:0:0:
121,20,24964,2,0,B|79:105|149:101|104:184,1,160,2|0,3:3|3:0,0:0:0:0:
68,246,25855,1,10,0:2:0:0:
199,344,26449,5,2,3:3:0:0:
344,267,27043,1,10,0:2:0:0:
421,295,27340,2,0,B|438:229|380:192|380:192|379:137,1,160,2|2,3:3|3:2,0:0:0:0:
405,73,28231,1,10,0:2:0:0:
250,15,28825,5,2,3:3:0:0:
257,179,29419,1,10,0:2:0:0:
262,261,29716,2,0,B|196:262|196:262|170:275|170:275|93:278,1,160,2|0,3:3|0:0,0:0:0:0:
22,280,30608,1,10,0:2:0:0:
14,115,31202,5,2,3:3:0:0:
152,25,31796,1,10,0:2:0:0:
206,86,32093,2,0,P|268:136|350:119,1,160,2|2,3:3|0:2,0:0:0:0:
380,50,32984,2,0,B|418:73|418:73|461:76,1,80,10|2,0:2|0:2,0:0:0:0:
496,145,33578,5,2,0:3:0:0:
435,328,43083,6,0,P|382:307|294:366,1,160,12|2,3:2|0:2,0:0:0:0:
216,358,43974,2,0,L|78:373,2,120,10|8|8,3:2|0:2|0:2,0:0:0:0:
303,218,45459,2,0,B|270:177|270:177|152:181,1,160,10|2,3:2|0:2,0:0:0:0:
87,147,46350,2,0,P|80:202|121:256,2,120,10|8|10,3:2|0:2|0:2,0:0:0:0:
149,93,47538,1,10,0:2:0:0:
224,61,47835,6,0,L|359:46,2,120,10|10|10,3:2|0:2|0:2,0:0:0:0:
249,139,49023,2,0,L|383:125,2,120,10|10|10,0:2|0:2|0:2,0:0:0:0:
173,172,50211,2,0,B|197:225|262:221|262:221|218:261|222:312|222:312|297:291|333:349,1,320,10|0,0:2|3:0,0:0:0:0:
479,43,52588,5,6,3:2:0:0:
306,28,53182,2,0,B|199:48|199:48,1,80,10|2,0:2|3:2,0:0:0:0:
147,62,53776,1,2,0:2:0:0:
136,226,54370,2,0,B|243:206|243:206,1,80,10|2,0:2|0:2,0:0:0:0:
298,213,54964,2,0,B|330:217|351:246|351:246|380:229|421:245,2,120,2|2|2,3:2|0:2|3:2,0:0:0:0:
236,63,56449,2,0,P|186:50|155:60,2,80,2|10|2,0:2|0:2|0:2,0:0:0:0:
304,106,57340,5,6,3:2:0:0:
454,38,57934,2,0,L|467:117,1,80,10|2,0:2|3:2,0:0:0:0:
481,198,58528,1,2,0:2:0:0:
393,337,59122,2,0,P|342:303|307:302,1,80,10|2,0:2|0:2,0:0:0:0:
247,328,59716,2,0,P|250:268|294:225,2,120,2|2|2,3:2|0:2|3:2,0:0:0:0:
104,244,61202,2,0,P|108:193|143:162,1,80,2|8,3:2|3:2,0:0:0:0:
185,115,61796,1,2,0:2:0:0:
266,100,62093,6,0,B|355:101|316:154|417:154,1,160,6|10,3:2|0:2,0:0:0:0:
493,296,63281,2,0,L|489:391,2,80,2|2|10,0:2|3:2|0:2,0:0:0:0:
422,254,64172,1,2,0:2:0:0:
276,331,64766,2,0,B|237:348|237:348|183:342,2,80,2|10|2,0:2|0:2|3:2,0:0:0:0:
295,250,65657,1,2,0:2:0:0:
249,181,65954,2,0,P|208:178|172:193,2,80,2|10|2,0:2|0:2|0:2,0:0:0:0:
268,100,66845,5,6,3:2:0:0:
122,23,67439,2,0,B|102:130|102:130,1,80,10|2,0:2|3:2,0:0:0:0:
92,182,68033,1,2,0:2:0:0:
61,343,68627,2,0,B|168:363|168:363,1,80,10|2,0:2|0:2,0:0:0:0:
220,373,69221,2,0,P|245:315|321:297,2,120,2|2|2,3:2|0:2|3:2,0:0:0:0:
121,240,70707,2,0,B|14:220,2,80,2|10|2,3:2|3:2|0:2,0:0:0:0:
189,194,71598,5,6,3:2:0:0:
341,256,72192,2,0,L|430:249,1,80,10|2,0:2|3:2,0:0:0:0:
488,296,72786,2,0,P|501:235|439:168,1,160,2|8,0:2|0:2,0:0:0:0:
357,157,73677,1,2,0:2:0:0:
225,255,74271,1,2,0:2:0:0:
167,196,74568,2,0,L|175:105,1,80,10|2,0:2|3:2,0:0:0:0:
182,34,75162,1,2,0:2:0:0:
249,81,75459,2,0,P|290:91|335:76,2,80,2|10|2,0:2|0:2|0:2,0:0:0:0:
288,8,76350,5,6,3:2:0:0:
447,50,76944,2,0,L|436:138,1,80,10|2,0:2|3:2,0:0:0:0:
425,210,77538,2,0,B|335:196|352:258|265:243,1,160,2|8,0:2|0:2,0:0:0:0:
203,201,78429,1,2,0:2:0:0:
267,49,79023,1,2,0:2:0:0:
187,25,79320,2,0,L|108:37,1,80,10|2,0:2|3:2,0:0:0:0:
56,101,79914,2,0,B|37:158|37:158|57:217,2,120,2|2|2,0:2|0:0|0:2,0:0:0:0:
137,116,81103,6,0,L|261:97,1,120,0|2,3:0|3:2,0:0:0:0:
258,221,81994,2,0,L|133:239,1,120,0|2,3:0|3:2,0:0:0:0:
403,122,83479,2,0,B|438:172|438:172|435:235,1,120,0|2,3:0|3:2,0:0:0:0:
316,265,84370,2,0,B|281:215|281:215|284:152,1,120,0|2,3:0|3:2,0:0:0:0:
256,192,84964,12,0,89419,0:0:0:0:
