osu file format v14

[General]
AudioFilename: audio.mp3
AudioLeadIn: 0
PreviewTime: 51590
Countdown: 0
SampleSet: Soft
StackLeniency: 0.3
Mode: 0
LetterboxInBreaks: 0
WidescreenStoryboard: 0

[Editor]
Bookmarks: 5105,8521,14610,24115,33620,52630,55897,81145
DistanceSpacing: 0.6
BeatDivisor: 4
GridSize: 8
TimelineZoom: 1

[Metadata]
Title:WIN (TV Size)
TitleUnicode:WIN (TV Size)
Artist:CIX
ArtistUnicode:CIX
Creator:- ascended -
Version:CHAMPIONS
Source:THE GOD OF HIGH SCHOOL ゴッド・オブ・ハイスクール
Tags:tgohs gohs goh naver line webtoon crunchyroll crunchy onigiri llc original mappa anime animation ending ed english eng kpop k-pop k pop Sunghoo Yongje Park highschool warner music japan ゴッドオブハイスクール goddo obu haisukuuru 갓 오브 하이 스쿨 Gat Obeu Hai Seukul male vocalist manhwa comic jin mori mo-ri Han Dae-Wi daewi Yu Mi-Ra mira clx boyband boy band
BeatmapID:2530869
BeatmapSetID:1216307

[Difficulty]
HPDrainRate:5.5
CircleSize:4
OverallDifficulty:8.7
ApproachRate:9
SliderMultiplier:2.7
SliderTickRate:1

[Events]
//Background and Video events
0,0,"i can honestly vibe to this song its super calm and i really enjoy it despite its origins from kpop group.jpg"
Video,64,"the op is banger but the ed is very chill and i really enjoy taking the time to sit back and relax to the song.mp4"
//Break Periods
//Storyboard Layer 0 (Background)
//Storyboard Layer 1 (Fail)
//Storyboard Layer 2 (Pass)
//Storyboard Layer 3 (Foreground)
//Storyboard Layer 4 (Overlay)
//Storyboard Sound Samples

[TimingPoints]
311,594.059405940594,4,2,1,55,1,0
311,-133.333333333333,4,2,1,55,0,0
5063,-117.647058823529,4,2,1,65,0,0
14568,-133.333333333333,4,2,1,55,0,0
15459,-133.333333333333,4,2,2,55,0,0
16202,-133.333333333333,4,2,1,55,0,0
17389,-133.333333333333,4,2,1,5,0,0
17538,-133.333333333333,4,2,1,55,0,0
17835,-133.333333333333,4,2,2,55,0,0
17984,-133.333333333333,4,2,1,55,0,0
19765,-133.333333333333,4,2,1,5,0,0
19914,-133.333333333333,4,2,1,55,0,0
20211,-133.333333333333,4,2,2,55,0,0
20954,-133.333333333333,4,2,1,55,0,0
22142,-133.333333333333,4,2,1,5,0,0
22291,-133.333333333333,4,2,1,55,0,0
22588,-133.333333333333,4,2,2,55,0,0
22736,-133.333333333333,4,2,1,55,0,0
24073,-100,4,2,1,65,0,0
24370,-117.647058823529,4,2,1,65,0,0
24964,-117.647058823529,4,2,2,65,0,0
25261,-117.647058823529,4,2,1,65,0,0
25707,-117.647058823529,4,2,1,5,0,0
25855,-117.647058823529,4,2,1,65,0,0
27340,-117.647058823529,4,2,2,65,0,0
27637,-117.647058823529,4,2,1,65,0,0
28083,-117.647058823529,4,2,1,5,0,0
28231,-117.647058823529,4,2,1,65,0,0
29716,-117.647058823529,4,2,2,65,0,0
30459,-117.647058823529,4,2,2,5,0,0
30608,-117.647058823529,4,2,1,65,0,0
32835,-117.647058823529,4,2,1,65,0,0
32984,-117.647058823529,4,2,1,65,0,0
33578,-200,4,2,1,65,0,0
34469,-200,4,2,2,65,0,0
34766,-200,4,2,1,65,0,0
35657,-200,4,2,2,65,0,0
35954,-200,4,2,1,65,0,0
39221,-200,4,2,2,65,0,0
39518,-200,4,2,1,65,0,0
40410,-200,4,2,2,65,0,0
40707,-200,4,2,1,65,0,0
43083,-133.333333333333,4,2,1,70,0,0
45310,-133.333333333333,4,2,1,5,0,0
45459,-133.333333333333,4,2,1,70,0,0
51103,-133.333333333333,4,2,1,70,0,0
52439,-133.333333333333,4,2,1,5,0,0
52588,-50,4,2,1,75,0,1
53033,-50,4,2,1,5,0,1
53182,-66.6666666666667,4,2,1,75,0,1
53479,-66.6666666666667,4,2,1,75,0,1
53776,-133.333333333333,4,2,1,75,0,1
54221,-200,4,2,1,75,0,1
54370,-66.6666666666667,4,2,1,75,0,1
54964,-76.9230769230769,4,2,1,75,0,1
55410,-76.9230769230769,4,2,1,75,0,1
55707,-66.6666666666667,4,2,1,75,0,1
55855,-115.385502965407,4,2,1,75,0,1
56300,-100,4,2,1,5,0,1
56449,-66.6666666666667,4,2,1,75,0,1
57043,-74.0740740740741,4,2,1,75,0,1
57340,-50,4,2,1,75,0,1
57785,-50,4,2,1,5,0,1
57934,-66.6666666666667,4,2,1,75,0,1
58231,-66.6666666666667,4,2,1,75,0,1
58528,-133.333333333333,4,2,1,75,0,1
58973,-200,4,2,1,75,0,1
59122,-66.6666666666667,4,2,1,75,0,1
59716,-76.9230769230769,4,2,1,75,0,1
60162,-76.9230769230769,4,2,1,75,0,1
60459,-66.6666666666667,4,2,1,75,0,1
60608,-115.384624260356,4,2,1,75,0,1
61053,-100,4,2,1,5,0,1
61202,-74.0740740740741,4,2,1,75,0,1
62093,-66.6666666666667,4,2,1,75,0,1
62538,-66.6666666666667,4,2,1,5,0,1
62687,-66.6666666666667,4,2,1,75,0,1
62984,-66.6666666666667,4,2,1,75,0,1
63132,-66.6666666666667,4,2,1,5,0,1
63281,-66.6666666666667,4,2,1,75,0,1
64469,-66.6666666666667,4,2,1,75,0,1
64766,-66.6666666666667,4,2,1,75,0,1
65360,-66.6666666666667,4,2,1,75,0,1
65657,-66.6666666666667,4,2,1,75,0,1
66548,-74.0740740740741,4,2,1,75,0,1
66845,-50,4,2,1,75,0,1
67290,-50,4,2,1,5,0,1
67439,-66.6666666666667,4,2,1,75,0,1
67736,-66.6666666666667,4,2,1,75,0,1
68033,-133.333333333333,4,2,1,75,0,1
68478,-200,4,2,1,75,0,1
68627,-66.6666666666667,4,2,1,75,0,1
69221,-76.9230769230769,4,2,1,75,0,1
69667,-76.9230769230769,4,2,1,75,0,1
69964,-115.393491807062,4,2,1,75,0,1
70112,-114.942528735632,4,2,1,75,0,1
70557,-100,4,2,1,5,0,1
70707,-50,4,2,1,75,0,1
70855,-100,4,2,1,75,0,1
71301,-74.0740740740741,4,2,1,75,0,1
71598,-50,4,2,1,75,0,1
72043,-50,4,2,1,5,0,1
72192,-66.6666666666667,4,2,1,75,0,1
72489,-66.6666666666667,4,2,1,75,0,1
72786,-133.333333333333,4,2,1,75,0,1
73677,-131.578947368421,4,2,1,75,0,1
73974,-131.578947368421,4,2,1,75,0,1
74271,-74.0740740740741,4,2,1,75,0,1
74568,-66.6666666666667,4,2,1,75,0,1
74865,-66.6666666666667,4,2,1,75,0,1
75162,-66.6666666666667,4,2,1,75,0,1
76053,-74.0740740740741,4,2,1,75,0,1
76350,-50,4,2,1,75,0,1
76795,-50,4,2,1,5,0,1
76944,-66.6666666666667,4,2,1,75,0,1
77241,-66.6666666666667,4,2,1,75,0,1
77538,-133.333333333333,4,2,1,75,0,1
78429,-131.578947368421,4,2,1,75,0,1
78726,-131.578947368421,4,2,1,75,0,1
79023,-74.0740740740741,4,2,1,75,0,1
79320,-66.6666666666667,4,2,1,75,0,1
79617,-66.6666666666667,4,2,1,75,0,1
79914,-66.6666666666667,4,2,1,75,0,1
80211,-74.0740740740741,4,2,1,75,0,1
80509,-200,4,2,1,75,0,1
81103,-133.333333333333,4,2,1,55,0,0
84964,-133.333333333333,4,2,1,10,0,0
89419,-133.333333333333,4,2,1,5,0,0

[Colours]
Combo1 : 255,128,64
Combo2 : 221,221,221
Combo3 : 255,79,255
Combo4 : 56,227,208

[HitObjects]
68,74,311,6,0,P|170:58|185:62,1,101.250003862381,0|0,3:0|3:0,0:0:0:0:
165,57,756,1,2,3:2:0:0:
420,142,1202,2,0,P|317:126|302:130,1,101.250003862381,0|0,3:0|3:0,0:0:0:0:
323,125,1647,1,2,3:2:0:0:
142,253,2687,6,0,L|130:130,1,101.250003862381,0|0,3:0|3:0,0:0:0:0:
131,151,3132,1,2,3:2:0:0:
356,212,3578,2,0,L|344:335,1,101.250003862381,0|0,3:0|3:0,0:0:0:0:
345,314,4023,1,2,3:2:0:0:
7,314,5063,6,0,B|103:297|55:379|177:362,1,172.125003283024,6|2,3:2|3:2,0:0:0:0:
160,234,5657,2,0,P|142:276|138:315,1,57.3750010943413,10|2,0:1|0:2,0:0:0:0:
220,322,5954,1,2,3:2:0:0:
269,256,6103,2,0,P|255:200|228:148,1,114.750002188683,2|2,0:2|3:2,0:0:0:0:
172,85,6548,1,2,0:2:0:0:
313,15,6845,1,8,0:1:0:0:
389,60,6994,1,2,0:2:0:0:
417,51,7142,2,0,L|412:115,1,57.3750010943413,2|0,0:2|0:0,0:0:0:0:
383,197,7439,5,2,3:2:0:0:
502,290,7736,1,2,3:2:0:0:
337,274,8033,2,0,L|351:340,1,57.3750010943413,10|2,0:1|0:2,0:0:0:0:
264,294,8330,1,2,3:2:0:0:
223,223,8479,2,0,P|240:172|247:109,1,114.750002188683,2|2,0:2|3:2,0:0:0:0:
216,40,8924,1,2,0:0:0:0:
216,40,9221,1,8,3:1:0:0:
141,6,9370,1,0,3:0:0:0:
62,17,9518,1,2,3:2:0:0:
10,81,9667,1,2,3:2:0:0:
0,160,9815,5,2,3:2:0:0:
145,90,10112,1,2,3:2:0:0:
67,262,10410,2,0,L|133:248,1,57.3750010943413,10|2,0:1|0:2,0:0:0:0:
199,287,10707,1,2,3:2:0:0:
263,234,10855,2,0,P|317:289|366:296,1,114.750002188683,2|2,0:2|3:2,0:0:0:0:
434,272,11301,1,0,0:0:0:0:
434,272,11598,1,8,0:1:0:0:
472,131,11895,1,2,0:2:0:0:
444,50,12043,1,2,0:2:0:0:
458,22,12192,6,0,P|394:47|336:48,1,114.750002188683,2|2,3:2|3:2,0:0:0:0:
271,31,12637,1,2,3:2:0:0:
222,105,12786,2,0,L|227:170,1,57.3750010943413,10|2,0:1|0:2,0:0:0:0:
309,195,13083,1,2,3:2:0:0:
312,273,13231,1,2,0:2:0:0:
250,324,13380,1,0,3:0:0:0:
250,324,13528,2,0,B|210:279|183:267|141:262|91:284,1,172.125003283024,0|8,3:0|0:1,0:0:0:0:
415,55,14568,6,0,B|410:173|410:173|377:128,1,151.875005793572,2|2,3:3|0:2,0:0:0:0:
391,145,15162,1,10,0:1:0:0:
463,248,15459,2,0,B|354:291|384:207|259:250,1,202.500007724762,2|0,3:3|0:0,0:0:0:0:
268,247,16350,1,2,0:2:0:0:
79,341,16944,6,0,P|114:275|39:258,1,151.875005793572,2|0,3:3|2:0,0:0:0:0:
59,248,17538,1,10,0:1:0:0:
38,131,17835,2,0,B|124:118|124:118|154:140|154:140|239:126,1,202.500007724762,2|2,3:3|0:2,0:0:0:0:
231,127,18726,1,0,3:0:0:0:
254,268,19320,6,0,B|274:303|274:303|348:321|376:255,1,151.875005793572,2|0,3:3|2:0,0:0:0:0:
370,267,19914,1,10,0:1:0:0:
461,157,20211,2,0,B|408:181|370:156|370:156|351:83|263:94,1,202.500007724762,2|0,3:3|0:0,0:0:0:0:
293,92,21103,1,2,0:2:0:0:
260,192,21697,6,0,L|246:354,1,151.875005793572,2|0,3:3|2:0,0:0:0:0:
246,343,22291,1,10,0:1:0:0:
124,383,22588,2,0,B|76:361|76:361|76:206,1,202.500007724762,2|2,3:3|0:2,0:0:0:0:
76,212,23479,1,0,3:0:0:0:
72,208,23627,5,8,0:2:0:0:
44,132,23776,1,10,0:2:0:0:
38,55,23924,1,8,0:2:0:0:
171,96,24073,5,14,3:3:0:0:
171,96,24370,2,0,P|213:81|246:81,1,57.3750010943413,2|0,0:2|0:0,0:0:0:0:
296,115,24667,2,0,P|338:130|371:130,1,57.3750010943413,10|0,0:2|0:0,0:0:0:0:
415,91,24964,1,2,3:3:0:0:
461,195,25261,1,2,0:2:0:0:
461,195,25410,2,0,L|454:317,1,114.750002188683,0|0,3:0|2:0,0:0:0:0:
404,373,25855,1,10,0:2:0:0:
352,238,26152,1,2,0:2:0:0:
279,347,26449,5,2,3:3:0:0:
279,347,26746,2,0,P|254:326|224:325,1,57.3750010943413,2|0,0:2|0:0,0:0:0:0:
93,355,27043,2,0,P|123:343|139:318,1,57.3750010943413,10|0,0:2|0:0,0:0:0:0:
179,189,27340,2,0,P|173:221|187:247,1,57.3750010943413,2|0,3:3|0:0,0:0:0:0:
247,117,27637,1,2,0:2:0:0:
247,117,27786,2,0,L|125:80,1,114.750002188683,0|0,3:0|2:0,0:0:0:0:
258,30,28231,2,0,B|283:33|283:33|311:50,1,57.3750010943413,10|0,0:2|0:0,0:0:0:0:
386,127,28528,2,0,B|358:144|358:144|312:149,1,57.3750010943413,2|0,0:2|0:0,0:0:0:0:
438,46,28825,1,2,3:3:0:0:
475,271,29419,5,10,0:2:0:0:
408,307,29568,1,2,0:2:0:0:
338,266,29716,2,0,B|258:255|287:297|219:289,1,114.750002188683,2|0,3:3|0:0,0:0:0:0:
156,267,30162,2,0,L|151:142,1,114.750002188683,0|0,3:0|2:0,0:0:0:0:
149,68,30608,5,10,0:2:0:0:
231,50,30756,1,2,0:2:0:0:
293,105,30905,2,0,B|373:94|344:136|412:128,1,114.750002188683,2|2,0:2|3:3,0:0:0:0:
115,291,31796,5,10,0:2:0:0:
190,334,31944,2,0,P|235:319|253:317,1,57.3750010943413,2|2,0:2|3:3,0:0:0:0:
308,372,32241,1,2,0:2:0:0:
388,341,32390,1,2,0:2:0:0:
422,273,32538,1,0,3:0:0:0:
376,325,32687,2,0,P|378:286|386:254,1,57.3750010943413,2|0,0:2|0:0,0:0:0:0:
383,128,32984,2,0,P|385:167|393:199,1,57.3750010943413,10|0,0:2|0:0,0:0:0:0:
276,87,33281,2,0,P|274:126|266:158,1,57.3750010943413,2|0,0:2|0:0,0:0:0:0:
112,123,33578,6,0,B|110:118|144:185|109:253,1,135,2|2,0:3|0:2,0:0:0:0:
192,351,34469,2,0,B|247:342|266:294|266:294|287:343|354:353,1,202.5,2|0,0:3|0:0,0:0:0:0:
295,184,35657,2,0,B|341:199|383:171|383:171|506:258|537:29|369:101|385:138,1,337.5,2|2,0:3|0:2,0:0:0:0:
195,113,37439,5,2,0:2:0:0:
191,84,37588,1,2,0:2:0:0:
187,55,37736,1,2,0:2:0:0:
386,125,38330,6,0,B|401:97|497:84|474:174,1,135,2|2,0:3|0:2,0:0:0:0:
477,308,39221,2,0,B|422:299|403:251|403:251|382:300|315:310,1,202.5,2|0,0:3|0:0,0:0:0:0:
188,359,40410,2,0,B|247:223|137:244|162:76|259:64|276:138,1,337.5,2|2,0:3|0:2,0:0:0:0:
424,267,42192,1,0,3:0:0:0:
420,242,42340,1,0,3:0:0:0:
482,174,42489,1,0,3:0:0:0:
478,149,42637,1,0,3:0:0:0:
406,113,42786,1,0,3:0:0:0:
402,88,42934,1,0,3:0:0:0:
450,21,43083,6,0,B|398:17|355:43|389:55|342:81|295:65,1,151.875005793572,12|8,3:2|0:2,0:0:0:0:
243,26,43677,1,2,0:2:0:0:
73,26,43974,2,0,B|104:58|104:58|114:169,1,151.875005793572,10|8,3:2|0:2,0:0:0:0:
87,236,44568,1,2,0:2:0:0:
184,366,44865,2,0,L|335:358,1,151.875005793572,8|0,0:2|2:0,0:0:0:0:
386,280,45459,5,10,3:2:0:0:
293,273,45608,2,0,L|142:281,1,151.875005793572,2|2,0:2|0:2,0:0:0:0:
19,141,46350,1,10,3:2:0:0:
36,216,46499,2,0,B|48:288|48:288|28:364,1,151.875005793572,2|2,0:2|0:2,0:0:0:0:
149,26,47241,1,10,0:2:0:0:
220,49,47390,1,0,0:0:0:0:
289,41,47538,5,10,0:2:0:0:
287,57,47637,5,8,0:2:0:0:
285,73,47736,5,8,0:2:0:0:
283,89,47835,5,10,3:2:0:0:
165,263,48281,1,10,0:2:0:0:
373,300,48726,1,10,0:2:0:0:
283,89,49023,5,10,0:2:0:0:
373,300,49469,1,10,0:2:0:0:
283,89,49914,1,10,0:2:0:0:
475,124,50211,5,10,0:2:0:0:
393,148,50360,1,8,0:2:0:0:
308,150,50509,1,8,0:2:0:0:
225,130,50657,1,8,0:2:0:0:
151,90,50806,1,8,0:2:0:0:
233,110,50954,1,8,0:2:0:0:
315,123,51103,1,8,0:2:0:0:
393,148,51252,2,0,L|386:198,1,50.6250019311906,0|0,0:0|3:0,0:0:0:0:
191,78,51994,1,2,0:2:0:0:
191,78,52142,6,0,P|148:42|93:38,1,101.250003862381,2|0,0:2|2:0,0:0:0:0:
379,37,52588,6,0,P|277:141|24:175,1,405,6|0,3:2|2:0,0:0:0:0:
493,316,53182,6,0,P|461:284|384:273,1,101.250003862381,10|0,0:2|0:0,0:0:0:0:
186,350,53479,2,0,P|229:338|277:277,1,101.250003862381,2|0,3:2|0:0,0:0:0:0:
309,66,53776,6,0,B|295:111|295:111|327:186,1,101.25,2|0,0:2|0:0,0:0:0:0:
185,348,54370,6,0,B|223:312|223:312|234:221,1,101.250003862381,10|0,0:2|0:0,0:0:0:0:
25,145,54667,2,0,B|36:193|36:193|109:248,1,101.250003862381,2|0,0:2|0:0,0:0:0:0:
238,21,54964,6,0,P|168:-2|136:101,1,175.499991966248,2|0,3:2|0:0,0:0:0:0:
393,169,55410,2,0,P|359:103|264:153,1,175.499991966248,2|0,0:2|0:0,0:0:0:0:
397,383,55855,6,0,P|420:313|316:281,1,175.498645876842,2|0,3:2|2:0,0:0:0:0:
508,221,56449,1,2,0:2:0:0:
488,107,56598,1,2,0:2:0:0:
398,82,56746,1,10,0:2:0:0:
396,199,56895,1,2,0:2:0:0:
329,132,57043,6,0,P|314:126|230:116,1,91.1250003476143,2|0,0:2|0:0,0:0:0:0:
0,308,57340,6,0,B|157:299|157:299|212:270|212:270|404:255,1,405,6|0,3:2|2:0,0:0:0:0:
82,46,57934,6,0,L|192:54,1,101.250003862381,10|0,0:2|0:0,0:0:0:0:
429,124,58231,2,0,L|318:132,1,101.250003862381,2|0,3:2|0:0,0:0:0:0:
71,186,58528,6,0,B|119:175|119:175|173:190,1,101.25,2|0,0:2|0:0,0:0:0:0:
254,365,59122,6,0,B|206:376|206:376|152:361,1,101.25,10|0,0:2|0:0,0:0:0:0:
432,210,59419,2,0,B|465:246|465:246|479:300,1,101.25,2|0,0:2|0:0,0:0:0:0:
302,242,59716,6,0,L|291:30,1,175.499991966248,2|0,3:2|0:0,0:0:0:0:
97,285,60162,2,0,L|286:381,1,175.499991966248,2|0,0:2|0:0,0:0:0:0:
168,120,60608,6,0,L|-11:235,1,175.499991966248,2|0,3:2|2:0,0:0:0:0:
125,38,61202,5,2,3:2:0:0:
135,35,61301,5,0,3:0:0:0:
145,31,61400,5,0,3:0:0:0:
155,26,61499,6,0,L|252:29,1,91.1250003476143,8|0,3:2|0:0,0:0:0:0:
411,117,61796,2,0,L|319:119,1,91.1250003476143,2|0,0:2|0:0,0:0:0:0:
222,308,62093,6,0,B|270:351|338:355|456:352|410:227|364:213|293:250|359:296,1,303.750011587143,6|0,3:2|2:0,0:0:0:0:
438,77,62687,2,0,B|396:132|427:192|427:192|362:147|304:160|254:224,1,303.750011587143,10|0,0:2|2:0,0:0:0:0:
82,33,63281,2,0,L|91:141,1,101.250003862381,2|0,0:2|0:0,0:0:0:0:
72,336,63578,2,0,L|80:235,1,101.250003862381,2|0,3:2|0:0,0:0:0:0:
265,210,63875,2,0,P|212:167|176:200,1,101.250003862381,10|0,0:2|0:0,0:0:0:0:
333,83,64172,2,0,P|385:40|421:73,1,101.250003862381,2|0,0:2|0:0,0:0:0:0:
483,161,64469,1,0,3:0:0:0:
251,360,64766,6,0,B|215:329|215:329|150:331,1,101.250003862381,2|0,0:2|0:0,0:0:0:0:
283,238,65063,2,0,B|267:192|267:192|209:161,1,101.250003862381,10|0,0:2|0:0,0:0:0:0:
371,147,65360,2,0,B|380:99|380:99|345:44,1,101.250003862381,2|0,3:2|0:0,0:0:0:0:
128,186,65657,2,0,B|175:195|175:195|230:160,1,101.250003862381,2|0,0:2|0:0,0:0:0:0:
72,320,65954,1,2,0:2:0:0:
39,235,66103,1,2,0:2:0:0:
184,280,66251,1,10,0:2:0:0:
152,365,66400,1,2,0:2:0:0:
335,349,66548,6,0,B|285:345|285:345|331:319,1,91.1250003476143,2|0,0:2|0:0,0:0:0:0:
442,74,66845,6,0,B|209:118|312:10|40:52,1,405,6|0,3:2|2:0,0:0:0:0:
362,318,67439,6,0,P|384:268|380:187,1,101.250003862381,10|0,0:2|0:0,0:0:0:0:
151,138,67736,2,0,P|145:204|169:267,1,101.250003862381,2|0,3:2|0:0,0:0:0:0:
284,347,68033,6,0,L|180:358,1,101.25,2|0,0:2|0:0,0:0:0:0:
31,151,68627,6,0,P|101:146|166:167,1,101.250003862381,10|0,0:2|0:0,0:0:0:0:
436,76,68924,2,0,P|366:71|301:92,1,101.250003862381,2|0,0:2|0:0,0:0:0:0:
257,263,69221,6,0,B|253:303|254:345|254:345|218:240|228:202,1,175.499991966248,2|0,3:2|0:0,0:0:0:0:
355,72,69667,2,0,B|392:54|427:34|427:34|354:117|317:128,1,175.499991966248,2|0,0:2|0:0,0:0:0:0:
141,83,70112,6,0,B|107:59|71:38|71:38|181:60|208:87,1,176.175001478519,2|0,3:2|2:0,0:0:0:0:
380,274,70707,5,2,3:2:0:0:
443,358,70855,6,0,P|465:351|491:343,2,33.75,2|0|10,3:2|3:0|3:2,0:0:0:0:
283,322,71152,1,2,0:2:0:0:
193,156,71301,6,0,P|229:178|220:220,1,91.1250003476143,2|0,0:2|0:0,0:0:0:0:
135,356,71598,6,0,B|77:322|77:322|64:69|64:69|126:11,1,405,6|0,3:2|2:0,0:0:0:0:
325,288,72192,6,0,L|184:277,1,101.250003862381,10|0,0:2|0:0,0:0:0:0:
424,104,72489,2,0,L|484:231,1,101.250003862381,2|0,3:2|0:0,0:0:0:0:
216,111,72786,6,0,L|296:-5,2,101.250003862381,2|0|8,0:2|0:0|0:2,0:0:0:0:
482,225,73677,6,0,P|488:290|493:368,1,102.599998747559,2|0,0:2|3:0,0:0:0:0:
95,293,74271,6,0,L|205:314,1,91.1250003476143,2|0,0:2|0:0,0:0:0:0:
217,36,74568,6,0,P|182:79|174:177,1,101.250003862381,10|0,0:2|0:0,0:0:0:0:
430,265,74865,2,0,P|410:214|329:158,1,101.250003862381,2|0,3:2|0:0,0:0:0:0:
125,335,75162,2,0,P|179:344|268:302,1,101.250003862381,2|0,0:2|0:0,0:0:0:0:
229,109,75459,1,2,0:2:0:0:
178,233,75608,1,2,0:2:0:0:
53,180,75756,1,10,0:2:0:0:
104,56,75905,1,2,0:2:0:0:
266,193,76053,6,0,B|310:198|310:198|333:146,1,91.1250003476143,2|0,0:2|0:0,0:0:0:0:
464,41,76350,6,0,B|407:109|399:244|462:323|462:323|445:252|487:205,1,405,6|0,3:2|2:0,0:0:0:0:
354,25,76944,2,0,P|328:90|323:133,1,101.250003862381,10|0,0:2|0:0,0:0:0:0:
351,360,77241,2,0,P|308:305|273:279,1,101.250003862381,2|0,3:2|0:0,0:0:0:0:
62,190,77538,6,0,P|131:180|171:163,2,101.250003862381,2|0|8,0:2|0:0|0:2,0:0:0:0:
351,360,78429,6,0,P|301:315|283:286,1,102.599998747559,2|0,0:2|3:0,0:0:0:0:
354,25,79023,6,0,P|328:90|323:133,1,91.1250003476143,2|0,0:2|0:0,0:0:0:0:
147,348,79320,6,0,L|142:240,1,101.250003862381,10|0,0:2|0:0,0:0:0:0:
234,25,79617,2,0,L|229:126,1,101.250003862381,2|0,3:2|0:0,0:0:0:0:
292,355,79914,2,0,L|287:247,1,101.250003862381,2|0,0:2|0:0,0:0:0:0:
446,165,80211,5,2,3:2:0:0:
436,168,80310,5,0,3:0:0:0:
426,172,80409,5,0,3:0:0:0:
416,177,80509,6,0,B|409:175|409:175|406:184|406:184|402:180|402:180|393:180|393:180|388:180|388:180|385:182|385:182|381:183|381:183|377:181|377:181|370:179|370:179|365:181|365:181|356:186|356:186|349:182|349:182|344:175|344:175|336:182|336:182|332:171|332:171|325:178|325:178|319:174,1,101.25,8|2,3:2|0:0,0:0:0:0:
101,330,81103,5,0,3:0:0:0:
123,218,81400,1,0,3:0:0:0:
123,218,81548,1,2,3:2:0:0:
286,61,81994,1,0,3:0:0:0:
308,173,82291,1,0,3:0:0:0:
308,173,82439,1,2,3:2:0:0:
458,304,83479,5,0,3:0:0:0:
346,282,83776,1,0,3:0:0:0:
346,282,83924,1,2,3:2:0:0:
118,138,84370,1,0,3:0:0:0:
230,116,84667,1,0,3:0:0:0:
230,116,84815,1,2,3:2:0:0:
256,192,84964,12,0,89419,0:0:0:0:
