osu file format v14

[General]
AudioFilename: audio.mp3
AudioLeadIn: 0
PreviewTime: 55124
Countdown: 0
SampleSet: Soft
StackLeniency: 0.7
Mode: 0
LetterboxInBreaks: 0
WidescreenStoryboard: 1

[Editor]
Bookmarks: 11345,33671,55996,81113,92276,136927,184374,209505,231830,262528
DistanceSpacing: 1.1
BeatDivisor: 8
GridSize: 4
TimelineZoom: 2

[Metadata]
Title:Shirube
TitleUnicode:導
Artist:CIVILIAN
ArtistUnicode:CIVILIAN
Creator:AirinCat
Version:Normal
Source:「魔道祖師」羨雲編
Tags:灯命 羡云篇 modao zushi tomo kumo-hen envy cloud mdzs Grandmaster of Demonic Cultivation The Founder of Diabolism 2 Mo Dao Zu Shi 2nd Season Xian Yun Pian opening op anime japanese anime rock jrock j-rock folk Mo Xiang Tong Xiu 墨香铜臭 wei wuxian lan zhan しるべ
BeatmapID:3389337
BeatmapSetID:1634614

[Difficulty]
HPDrainRate:3
CircleSize:3.6
OverallDifficulty:4
ApproachRate:5.4
SliderMultiplier:1.8
SliderTickRate:1

[Events]
//Background and Video events
0,0,"wei.jpg",0,0
//Break Periods
2,81113,90439
2,209683,229019
//Storyboard Layer 0 (Background)
//Storyboard Layer 1 (Fail)
//Storyboard Layer 2 (Pass)
//Storyboard Layer 3 (Foreground)
//Storyboard Layer 4 (Overlay)
//Storyboard Sound Samples

[TimingPoints]
183,697.674418604651,4,2,1,30,1,0
183,-111.111111111111,4,2,1,30,0,0
11345,-111.111111111111,4,2,1,30,0,0
33671,-100,4,2,1,40,0,0
44136,-100,4,2,1,40,0,0
44659,-100,4,2,1,40,0,0
49717,-100,4,2,1,40,0,0
50415,-100,4,2,1,40,0,0
53555,-90.9090909090909,4,2,1,40,0,0
53903,-90.9090909090909,4,2,1,60,0,0
54252,-90.9090909090909,4,2,1,60,0,0
54601,-90.9090909090909,4,2,1,60,0,0
54950,-90.9090909090909,4,2,1,60,0,0
55996,-86.9565217391304,4,2,1,70,0,1
66113,-86.9565217391304,4,2,1,70,0,0
66462,-86.9565217391304,4,2,1,70,0,1
66985,-86.9565217391304,4,2,1,70,0,0
67159,-86.9565217391304,4,2,1,70,0,1
76578,-86.9565217391304,4,2,1,60,0,1
78322,-86.9565217391304,4,2,1,60,0,0
80415,-86.9565217391304,4,2,1,5,0,0
81113,-90.9090909090909,4,2,1,60,0,0
92276,-100,4,2,1,40,0,0
114601,-90.9090909090909,4,2,1,50,0,0
135531,674.157303370787,4,2,2,70,1,0
135531,-90.9090909090909,4,2,2,70,0,1
136766,-90.9090909090909,4,2,2,70,0,0
136927,697.674418604651,4,2,1,70,1,0
136927,-86.9565217391304,4,2,1,70,0,1
147043,-86.9565217391304,4,2,1,70,0,0
147392,-86.9565217391304,4,2,1,70,0,1
147915,-86.9565217391304,4,2,1,70,0,0
148089,-86.9565217391304,4,2,1,70,0,1
156461,-86.9565217391304,4,2,1,60,0,1
159252,-90.9090909090909,4,2,1,60,0,0
162043,-100,4,2,1,50,0,0
173206,693.64161849711,4,2,1,60,1,0
173206,-95.2380952380952,4,2,1,60,0,0
175980,697.674418604651,4,2,1,60,1,0
175980,-95.2380952380952,4,2,1,60,0,0
178770,693.64161849711,4,2,1,60,1,0
178770,-90.9090909090909,4,2,1,60,0,0
181544,705.882352941176,4,2,1,70,1,0
181544,-90.9090909090909,4,2,1,70,0,0
184368,697.674418604651,4,2,1,70,1,0
184368,-90.9090909090909,4,2,1,70,0,0
208088,-90.9090909090909,4,2,1,70,0,0
209484,-90.9090909090909,4,2,2,30,0,0
226926,-90.9090909090909,4,2,2,30,0,0
229019,710.059171597633,4,2,1,30,1,0
230261,-100,4,2,1,50,0,0
230439,684.931506849315,4,2,1,50,1,0
231809,697.674418604651,4,2,1,70,1,0
231809,-86.9565217391304,4,2,1,70,0,1
241925,-86.9565217391304,4,2,1,70,0,0
242274,-86.9565217391304,4,2,1,70,0,1
242797,-86.9565217391304,4,2,1,70,0,0
242971,-86.9565217391304,4,2,1,70,0,1
259715,-86.9565217391304,4,2,1,70,0,0
259804,-86.9565217391304,4,2,1,40,0,0
261809,-86.9565217391304,4,2,1,5,0,0
262507,-86.9565217391304,4,2,1,30,0,0

[Colours]
Combo1 : 193,106,104
Combo2 : 193,171,155
Combo3 : 239,80,80
Combo4 : 148,115,101

[HitObjects]
126,189,11345,6,0,P|116:144|108:104,2,80.9999975280763,6|0|2,1:2|1:2|0:3,0:2:0:0:
81,266,12392,2,0,P|41:274|3:287,2,80.9999975280763,2|2|0,0:2|0:3|0:2,0:2:0:0:
151,321,13438,1,2,0:3:0:0:
230,281,13787,1,2,0:2:0:0:
308,323,14136,2,0,L|316:365,2,40.4999987640381,2|2|0,0:3|0:2|0:2,0:0:0:0:
327,282,14659,2,0,P|371:273|419:260,1,80.9999975280763,2|2,0:2|0:2,0:2:0:0:
449,275,15182,2,0,P|439:235|428:179,1,80.9999975280763,2|2,0:2|0:3,0:2:0:0:
483,123,15880,1,0,0:2:0:0:
409,72,16229,2,0,B|343:65|356:38|295:30,1,121.499996292114,8|0,0:2|0:2,0:2:0:0:
253,44,16927,22,0,P|246:81|241:124,2,80.9999975280763,2|0|0,1:2|1:2|0:0,0:2:0:0:
165,26,17973,2,0,P|160:66|152:106,1,80.9999975280763,2|2,0:2|0:3,0:2:0:0:
73,147,18671,1,2,0:2:0:0:
127,217,19020,2,0,P|168:224|206:233,1,80.9999975280763,2|0,0:3|0:2,0:2:0:0:
273,174,19717,1,2,0:3:0:0:
336,236,20066,2,0,P|328:272|322:321,1,80.9999975280763,2|2,0:2|0:3,0:2:0:0:
253,373,20764,2,0,P|212:363|163:360,1,80.9999975280763,2|2,0:2|0:3,0:0:0:0:
99,310,21462,1,2,0:2:0:0:
15,341,21810,2,0,B|-5:308|-5:308|12:270,1,80.9999975280763,8|2,0:2|3:2,0:0:0:0:
43,237,22334,1,0,3:2:0:0:
43,237,22508,22,0,P|33:196|23:158,2,80.9999975280763,2|0|2,1:2|1:2|0:3,0:2:0:0:
129,213,23555,2,0,P|119:172|109:134,2,80.9999975280763,2|2|0,0:2|0:3|0:2,0:2:0:0:
210,248,24601,1,2,0:3:0:0:
284,198,24950,1,2,0:2:0:0:
349,258,25299,2,0,P|388:247|427:238,1,80.9999975280763,2|0,0:3|0:2,0:2:0:0:
471,230,25822,2,0,P|460:190|450:151,1,80.9999975280763,2|0,0:2|0:2,0:2:0:0:
429,112,26345,2,0,P|469:101|510:93,2,80.9999975280763,2|2|0,0:2|0:3|0:2,0:2:0:0:
357,57,27392,2,0,B|317:44|317:44|288:70,1,80.9999975280763,8|0,0:2|0:2,0:2:0:0:
253,152,28089,22,0,P|264:190|272:230,2,80.9999975280763,2|0|0,1:2|1:2|0:0,0:2:0:0:
171,114,29136,2,0,P|136:125|86:135,1,80.9999975280763,2|2,0:2|0:3,0:2:0:0:
18,183,29834,1,2,0:2:0:0:
81,244,30182,1,2,0:3:0:0:
16,305,30531,2,0,P|27:337|35:387,2,80.9999975280763,2|2|0,0:2|0:3|0:2,0:0:0:0:
81,244,31578,2,0,P|119:238|163:223,1,80.9999975280763,2|0,0:3|0:2,0:0:0:0:
233,274,32276,2,0,P|271:280|315:295,1,80.9999975280763,2|0,0:3|0:2,0:0:0:0:
384,343,32973,2,0,B|412:315|412:315|400:275,1,80.9999975280763,10|0,0:2|0:2,0:2:0:0:
363,182,33671,21,2,1:2:0:0:
433,111,34020,1,2,1:2:0:0:
349,57,34369,2,0,P|305:66|261:74,1,90,10|0,0:2|0:2,0:2:0:0:
178,130,35066,2,0,P|154:93|164:50,2,90,2|0|2,0:3|0:2|0:3,0:2:0:0:
257,189,36113,1,2,0:2:0:0:
185,257,36462,21,0,1:2:0:0:
105,198,36810,1,0,1:2:0:0:
30,263,37159,2,0,P|42:302|55:358,1,90,10|0,0:2|0:2,0:2:0:0:
148,377,37857,1,2,0:3:0:0:
237,335,38206,1,2,0:2:0:0:
332,360,38555,2,0,P|389:328|451:351,1,135,2|0,0:3|0:2,0:0:0:0:
484,315,39252,22,0,P|489:270|503:227,1,90,2|0,1:2|1:2,0:2:0:0:
458,139,39950,1,10,0:2:0:0:
374,192,40299,2,0,P|368:226|354:288,2,90,2|2|0,0:2|0:3|0:2,0:2:0:0:
318,109,41345,2,0,P|275:104|223:91,1,90,2|2,0:3|0:2,0:0:0:0:
132,112,42043,21,2,1:2:0:0:
77,194,42392,1,2,1:2:0:0:
110,287,42741,2,0,P|156:296|204:310,1,90,10|0,0:2|0:2,0:2:0:0:
289,272,43438,2,0,P|298:225|312:178,1,90,2|0,0:3|0:2,0:0:0:0:
300,85,44136,2,0,B|345:76|345:76|375:112,1,90,2|0,3:3|0:2,0:2:0:0:
471,121,44834,21,6,1:2:0:0:
422,206,45182,1,2,1:2:0:0:
479,286,45531,1,10,0:2:0:0:
424,368,45880,1,2,0:2:0:0:
335,322,46229,2,0,P|290:330|246:335,1,90,2|0,0:3|0:2,0:2:0:0:
159,383,46927,2,0,P|116:371|57:364,1,90,2|2,0:3|0:2,0:2:0:0:
11,285,47624,21,2,1:2:0:0:
88,223,47973,1,2,1:2:0:0:
22,148,48322,2,0,P|35:105|45:61,1,90,10|0,0:2|0:2,0:2:0:0:
135,19,49020,1,2,0:3:0:0:
219,69,49369,1,2,0:2:0:0:
188,162,49717,2,0,B|158:195|158:195|171:239,1,90,10|0,0:2|3:2,0:2:0:0:
244,306,50415,22,0,B|313:305|299:334|374:334,2,135,2|2|2,3:2|0:2|0:2,0:2:0:0:
47,328,52159,2,0,P|35:284|28:240,2,90,0|0|0,0:2|0:2|0:2,0:0:0:0:
264,311,53555,21,8,1:2:0:0:
190,232,53903,1,8,1:2:0:0:
245,138,54252,1,8,1:2:0:0:
353,140,54601,1,8,1:2:0:0:
408,233,54950,2,0,B|459:220|443:197|494:186,2,99.0000030212403,8|0|0,1:2|3:2|0:2,0:2:0:0:
346,329,55996,38,0,B|293:328|303:307|246:304,1,103.500001974106,6|0,1:2|1:2,0:2:0:0:
147,361,56694,2,0,P|122:365|97:371,1,51.7500009870529,10|8,0:2|0:2,0:0:0:0:
40,359,57043,2,0,P|35:334|27:310,1,51.7500009870529,2|8,0:2|0:2,0:2:0:0:
33,252,57392,2,0,P|68:215|118:216,1,103.500001974106,2|0,0:2|1:2,0:2:0:0:
226,251,58089,1,10,0:2:0:0:
306,170,58438,1,2,0:2:0:0:
232,83,58787,22,0,P|184:94|127:101,1,103.500001974106,2|2,1:2|1:2,0:2:0:0:
34,163,59485,1,10,0:2:0:0:
114,244,59834,2,0,P|120:262|126:303,1,51.7500009870529,2|8,0:2|0:2,0:0:0:0:
100,345,60182,2,0,P|149:329|200:325,1,103.500001974106,2|0,0:2|1:2,0:2:0:0:
258,350,60706,1,2,0:2:0:0:
258,350,60880,1,10,0:2:0:0:
323,256,61229,1,2,0:2:0:0:
400,339,61578,22,0,P|449:349|491:317,1,103.500001974106,2|0,1:2|1:2,0:2:0:0:
512,270,62101,1,2,1:2:0:0:
512,270,62276,1,10,0:2:0:0:
428,193,62624,2,0,L|437:137,1,51.7500009870529,2|8,0:2|0:2,0:2:0:0:
478,103,62973,2,0,P|426:99|375:92,1,103.500001974106,2|0,0:2|1:2,0:2:0:0:
284,22,63671,1,10,0:2:0:0:
172,46,64020,1,2,0:2:0:0:
125,149,64369,22,0,P|134:193|140:259,1,103.500001974106,2|2,1:2|0:2,0:2:0:0:
110,302,64892,1,0,1:2:0:0:
110,302,65066,1,8,0:2:0:0:
214,347,65415,2,0,B|254:314|254:314|299:337,1,103.500001974106,6|0,1:2|0:2,0:2:0:0:
348,377,65938,1,8,0:2:0:0:
348,377,66113,1,0,1:2:0:0:
427,295,66462,38,0,L|418:243,1,51.7500009870529,12|12,2:3|2:3,0:0:0:0:
455,200,66810,2,0,L|446:148,1,51.7500009870529,12|12,2:3|2:3,0:0:0:0:
402,112,67159,6,0,P|351:126|300:133,1,103.500001974106,4|0,1:2|1:2,0:2:0:0:
255,108,67682,1,2,1:2:0:0:
255,108,67857,1,10,0:2:0:0:
206,210,68206,2,0,P|212:236|216:271,1,51.7500009870529,2|8,0:2|0:2,0:2:0:0:
186,310,68555,2,0,P|143:337|94:325,1,103.500001974106,2|0,0:2|1:2,0:2:0:0:
23,236,69252,1,10,0:2:0:0:
86,141,69601,1,0,1:2:0:0:
11,54,69950,22,0,P|62:48|112:36,1,103.500001974106,2|2,1:2|1:2,0:2:0:0:
208,99,70648,1,10,0:2:0:0:
296,28,70996,2,0,P|325:33|358:38,1,51.7500009870529,2|8,0:2|0:2,0:0:0:0:
399,15,71345,2,0,P|386:65|379:116,1,103.500001974106,2|2,0:2|1:2,0:2:0:0:
327,220,72043,1,10,0:2:0:0:
327,220,72217,2,0,P|367:249|417:240,1,103.500001974106,2|0,0:2|1:2,0:2:0:0:
473,228,72741,22,0,P|456:277|445:327,1,103.500001974106,6|0,1:2|1:2,0:2:0:0:
428,384,73264,1,0,1:2:0:0:
428,384,73438,1,8,0:2:0:0:
315,364,73787,2,0,P|289:358|262:354,1,51.7500009870529,2|8,0:2|0:2,0:0:0:0:
230,308,74136,2,0,P|185:325|114:339,1,103.500001974106,2|0,0:2|1:2,0:2:0:0:
88,308,74659,1,0,1:2:0:0:
88,308,74834,1,10,0:2:0:0:
161,221,75182,2,0,P|153:196|149:168,1,51.7500009870529,0|0,1:2|1:2,0:0:0:0:
179,122,75531,22,0,P|128:134|76:143,1,103.500001974106,14|0,0:2|1:2,0:2:0:0:
43,103,76055,1,8,0:2:0:0:
43,103,76229,1,2,0:2:0:0:
98,3,76578,2,0,B|178:1|151:44|243:46,1,155.250002961159,14|2,0:2|1:2,0:2:0:0:
294,21,77276,1,8,0:2:0:0:
357,115,77624,2,0,P|353:140|352:166,2,51.7500009870529,8|8|4,0:2|0:3|0:3,0:0:0:0:
454,55,78322,37,4,1:2:0:0:
256,192,78496,12,0,80415,0:2:0:0:
8,171,91578,53,8,0:2:0:0:
8,171,91752,2,0,P|4:146|-1:122,2,49.5000015106202,8|8|4,0:2|0:3|0:3,0:0:0:0:
47,202,92276,22,0,P|90:189|134:183,1,90,6|0,1:2|1:2,0:2:0:0:
165,144,92799,1,0,0:0:0:0:
165,144,92973,2,0,P|207:157|252:165,1,90,8|2,0:2|0:2,0:0:0:0:
301,148,93496,1,8,0:2:0:0:
301,148,93671,1,2,3:2:0:0:
284,245,94020,1,0,1:2:0:0:
349,319,94369,1,8,0:2:0:0:
447,320,94717,1,0,0:2:0:0:
494,235,95066,21,2,1:2:0:0:
494,235,95241,2,0,P|505:187|513:131,1,90,2|2,0:2|0:2,0:2:0:0:
486,103,95764,2,0,P|441:96|397:83,1,90,8|2,0:2|0:2,0:0:0:0:
360,114,96287,1,8,0:2:0:0:
360,114,96462,2,0,P|315:122|273:136,1,90,2|0,3:2|1:2,0:2:0:0:
194,76,97159,2,0,P|189:50|183:32,2,45,8|0|0,0:2|0:0|3:2,0:2:0:0:
118,140,97857,22,0,P|74:151|32:168,1,90,2|2,1:2|1:2,0:2:0:0:
15,217,98380,1,0,0:2:0:0:
15,217,98555,2,0,P|21:238|27:260,1,45,8|2,0:2|0:2,0:0:0:0:
69,285,98903,2,0,P|111:270|154:257,1,90,2|0,0:2|3:2,0:2:0:0:
233,316,99601,1,0,1:2:0:0:
294,238,99950,2,0,P|280:191|269:136,1,90,8|2,0:2|3:2,0:0:0:0:
189,94,100648,21,2,1:2:0:0:
266,32,100996,2,0,P|315:22|367:10,1,90,2|8,1:2|0:2,0:2:0:0:
450,54,101694,1,2,0:2:0:0:
450,54,101869,2,0,P|464:96|472:140,1,90,8|0,0:2|0:2,0:2:0:0:
455,187,102392,1,2,1:2:0:0:
499,275,102741,1,8,0:2:0:0:
417,336,103089,2,0,P|392:327|364:323,1,45,0|0,0:2|3:2,0:0:0:0:
361,275,103438,22,0,P|316:281|275:298,1,90,6|2,1:2|1:2,0:2:0:0:
237,329,103962,1,0,0:2:0:0:
237,329,104136,2,0,P|215:322|193:316,1,45,8|2,0:2|0:2,0:0:0:0:
159,280,104485,2,0,P|114:288|71:300,1,90,2|0,0:2|3:2,0:2:0:0:
2,242,105182,1,0,1:2:0:0:
54,157,105531,2,0,P|48:107|33:58,1,90,8|2,0:2|0:2,0:2:0:0:
129,33,106229,22,0,P|173:25|217:15,1,90,2|2,1:2|1:2,0:2:0:0:
263,44,106752,1,0,0:2:0:0:
263,44,106927,2,0,P|310:54|359:66,1,90,8|2,0:2|0:2,0:0:0:0:
402,55,107450,1,8,0:2:0:0:
402,55,107624,2,0,P|385:96|376:140,1,90,0|0,3:2|1:2,0:2:0:0:
294,196,108322,1,8,0:2:0:0:
229,121,108671,1,0,3:2:0:0:
159,191,109020,22,0,P|114:199|71:211,1,90,2|2,1:2|1:2,0:2:0:0:
25,299,109717,2,0,P|30:312|38:345,1,45,8|2,0:2|0:2,0:0:0:0:
80,366,110066,2,0,P|125:347|177:336,1,90,2|0,0:2|3:2,0:2:0:0:
246,280,110764,1,2,1:2:0:0:
330,332,111113,1,8,0:2:0:0:
419,290,111462,1,2,3:2:0:0:
391,195,111810,22,0,P|397:149|415:102,1,90,2|0,1:2|1:2,0:2:0:0:
352,28,112508,1,8,0:2:0:0:
263,73,112857,2,0,P|238:68|208:57,1,45,0|0,3:2|3:2,0:0:0:0:
186,32,113206,1,8,0:2:0:0:
186,32,113380,1,8,0:2:0:0:
94,62,113729,1,0,1:2:0:0:
94,62,113903,2,0,P|76:103|66:147,1,90,8|8,0:2|0:2,0:2:0:0:
93,195,114427,1,8,0:2:0:0:
93,195,114601,22,0,P|142:200|189:213,1,99.0000030212403,6|2,1:2|1:2,0:2:0:0:
274,144,115299,2,0,P|323:138|371:127,1,99.0000030212403,10|0,0:2|0:2,0:2:0:0:
474,161,115996,1,2,0:3:0:0:
503,265,116345,1,2,1:2:0:0:
419,335,116694,1,10,0:2:0:0:
328,274,117043,1,2,0:2:0:0:
247,347,117392,22,0,P|198:357|139:378,1,99.0000030212403,2|0,1:2|1:2,0:2:0:0:
51,330,118089,1,10,0:2:0:0:
86,227,118438,1,2,0:2:0:0:
12,146,118787,1,2,0:3:0:0:
69,53,119136,1,2,1:2:0:0:
173,84,119485,2,0,P|220:68|268:57,1,99.0000030212403,10|0,0:2|0:2,0:2:0:0:
326,67,120008,1,2,0:2:0:0:
326,67,120182,22,0,P|360:100|357:147,1,99.0000030212403,2|0,1:2|1:2,0:2:0:0:
281,225,120880,1,10,0:2:0:0:
369,288,121229,2,0,P|413:266|461:258,2,99.0000030212403,2|2|0,0:2|0:3|1:2,0:2:0:0:
299,372,122276,1,10,0:2:0:0:
208,311,122624,1,2,0:2:0:0:
120,375,122973,21,2,1:2:0:0:
31,311,123322,1,2,1:2:0:0:
74,210,123671,2,0,P|63:161|58:112,1,99.0000030212403,10|0,0:2|0:2,0:2:0:0:
166,96,124369,2,0,P|176:144|181:193,1,99.0000030212403,2|0,0:3|1:2,0:0:0:0:
168,301,125066,2,0,B|214:320|214:320|249:285,1,99.0000030212403,14|8,0:2|0:2,0:0:0:0:
296,256,125589,1,8,0:2:0:0:
296,256,125764,22,0,P|343:269|391:280,1,99.0000030212403,6|2,1:2|1:2,0:2:0:0:
487,227,126462,1,10,0:2:0:0:
499,118,126810,1,2,0:2:0:0:
407,58,127159,2,0,P|359:71|310:79,1,99.0000030212403,2|0,0:3|1:2,0:2:0:0:
210,124,127857,1,10,0:2:0:0:
145,36,128206,1,2,0:2:0:0:
39,63,128555,21,2,1:2:0:0:
4,165,128903,1,2,1:2:0:0:
70,251,129252,2,0,P|117:252|175:265,1,99.0000030212403,10|0,0:2|0:2,0:2:0:0:
222,245,129776,1,8,0:2:0:0:
222,245,129950,1,2,0:3:0:0:
292,328,130299,1,2,1:2:0:0:
399,309,130648,1,10,0:2:0:0:
433,205,130996,1,2,0:2:0:0:
360,123,131345,22,0,P|363:73|374:25,1,99.0000030212403,2|0,1:2|1:2,0:2:0:0:
425,2,131869,1,2,0:2:0:0:
425,2,132043,1,8,0:2:0:0:
505,75,132392,2,0,P|500:93|497:126,1,49.5000015106202,2|8,0:2|0:2,0:0:0:0:
451,153,132741,1,2,0:3:0:0:
497,251,133089,1,2,1:2:0:0:
431,338,133438,2,0,P|408:334|372:334,1,49.5000015106202,8|0,0:2|1:2,0:0:0:0:
338,299,133787,2,0,P|295:312|227:324,1,99.0000030212403,10|0,0:2|0:2,0:2:0:0:
71,370,135531,38,0,B|37:348|37:348|13:312|35:261|79:250,1,165.000005035401,8|8,0:1|0:1,0:0:0:0:
111,233,136205,1,8,0:1:0:0:
197,298,136542,1,8,0:1:0:0:
300,229,136927,22,0,P|316:180|325:129,1,103.500001974106,6|0,1:2|1:2,0:2:0:0:
260,34,137624,2,0,P|235:28|209:23,1,51.7500009870529,8|8,0:2|0:2,0:0:0:0:
169,64,137973,2,0,P|144:66|111:74,1,51.7500009870529,2|8,0:2|0:2,0:2:0:0:
62,56,138322,2,0,P|36:99|56:145,1,103.500001974106,2|0,0:2|1:2,0:2:0:0:
146,215,139020,1,10,0:2:0:0:
81,308,139368,1,2,0:2:0:0:
182,358,139717,22,0,P|233:343|292:333,1,103.500001974106,6|2,1:2|1:2,0:2:0:0:
390,371,140415,1,10,0:2:0:0:
483,305,140764,2,0,P|477:279|470:254,1,51.7500009870529,2|8,0:2|0:2,0:0:0:0:
415,239,141113,2,0,P|426:187|431:129,1,103.500001974106,2|0,0:2|1:2,0:0:0:0:
475,100,141636,1,2,0:2:0:0:
475,100,141810,1,10,0:2:0:0:
395,18,142159,2,0,P|373:26|336:35,1,51.7500009870529,10|8,0:2|0:2,0:0:0:0:
297,64,142508,22,0,P|248:47|197:36,1,103.500001974106,6|0,1:2|1:2,0:2:0:0:
150,67,143031,1,0,1:2:0:0:
150,67,143206,1,10,0:2:0:0:
48,15,143554,2,0,P|40:39|35:65,1,51.7500009870529,2|8,0:2|0:2,0:0:0:0:
1,110,143903,2,0,P|13:160|23:211,1,103.500001974106,2|0,0:2|1:2,0:2:0:0:
83,308,144601,1,10,0:2:0:0:
196,299,144950,1,2,0:2:0:0:
248,197,145299,22,0,P|233:141|225:92,1,103.500001974106,6|2,1:2|0:2,0:2:0:0:
260,51,145822,1,0,1:2:0:0:
260,51,145996,1,10,0:2:0:0:
369,20,146345,1,8,0:2:0:0:
471,70,146694,2,0,P|474:94|484:127,1,51.7500009870529,2|0,0:2|1:2,0:0:0:0:
442,161,147043,1,8,0:2:0:0:
443,274,147392,6,0,P|413:279|378:289,1,51.7500009870529,12|12,2:3|2:3,0:0:0:0:
345,252,147740,2,0,P|315:257|280:267,1,51.7500009870529,12|12,2:3|2:3,0:0:0:0:
250,299,148089,38,0,B|189:289|210:268|154:261,1,103.500001974106,4|0,1:2|1:2,0:2:0:0:
105,284,148613,1,0,1:2:0:0:
105,284,148787,1,10,0:2:0:0:
29,199,149136,2,0,P|38:168|44:137,1,51.7500009870529,2|8,0:2|0:2,0:2:0:0:
73,101,149485,2,0,P|121:89|162:119,1,103.500001974106,2|0,0:2|1:2,0:2:0:0:
233,208,150182,1,10,0:2:0:0:
338,165,150531,2,0,P|362:170|396:179,1,51.7500009870529,8|8,0:2|0:2,0:0:0:0:
441,155,150880,22,0,P|427:204|422:256,1,103.500001974106,6|2,1:2|1:2,0:2:0:0:
447,313,151403,1,0,1:2:0:0:
447,313,151578,1,10,0:2:0:0:
348,369,151927,2,0,P|317:361|281:359,1,51.7500009870529,2|8,0:2|0:2,0:0:0:0:
260,315,152275,2,0,P|210:328|159:337,1,103.500001974106,2|2,0:2|1:2,0:2:0:0:
58,294,152973,1,10,0:2:0:0:
58,294,153147,2,0,P|30:252|47:205,1,103.500001974106,2|0,0:2|1:2,0:2:0:0:
40,148,153671,22,0,P|88:165|139:175,1,103.500001974106,6|0,1:2|1:2,0:2:0:0:
241,125,154368,2,0,P|245:95|253:69,1,51.7500009870529,10|8,0:2|0:2,0:0:0:0:
292,34,154717,2,0,P|321:38|348:46,1,51.7500009870529,2|8,0:2|0:2,0:0:0:0:
387,79,155066,2,0,P|371:128|361:179,1,103.500001974106,2|0,0:2|1:2,0:2:0:0:
271,249,155764,1,10,0:2:0:0:
344,336,156113,2,0,P|372:340|401:349,1,51.7500009870529,2|0,0:2|1:2,0:0:0:0:
437,383,156461,22,0,P|444:328|458:273,1,103.500001974106,14|2,0:2|0:2,0:2:0:0:
501,245,156985,1,8,0:2:0:0:
501,245,157159,1,2,0:2:0:0:
480,132,157508,2,0,B|441:95|441:95|394:113,1,103.500001974106,14|0,0:2|0:2,0:2:0:0:
352,151,158031,1,0,1:2:0:0:
352,151,158206,1,10,0:2:0:0:
262,81,158554,2,0,P|266:55|276:23,2,51.7500009870529,8|8|8,0:2|0:2|0:3,0:0:0:0:
157,111,159252,22,0,P|113:98|50:88,2,99.0000030212403,6|8|8,1:2|1:2|1:2,0:2:0:0:
209,206,160299,2,0,P|205:226|199:259,1,49.5000015106202,8|0,1:2|1:2,0:0:0:0:
156,287,160647,1,14,0:2:0:0:
230,366,160996,2,0,P|254:368|278:373,1,49.5000015106202,8|8,0:3|0:3,0:0:0:0:
314,332,161345,2,0,P|335:327|363:318,1,49.5000015106202,2|4,0:2|0:3,0:0:0:0:
409,344,161694,2,0,P|430:349|458:358,1,49.5000015106202,4|4,0:3|0:3,0:0:0:0:
490,321,162043,38,0,P|496:270|517:217,1,90,6|4,1:2|0:3,0:2:0:0:
499,184,162566,1,8,0:3:0:0:
360,143,163090,1,14,0:3:0:0:
360,143,163264,2,0,P|351:191|339:236,1,90,4|8,0:3|0:3,0:2:0:0:
358,277,163787,1,8,0:3:0:0:
287,346,164136,2,0,P|265:339|243:334,1,45,8|4,0:3|0:3,0:0:0:0:
210,297,164485,2,0,P|187:300|156:303,1,45,4|8,0:3|0:3,0:0:0:0:
141,345,164833,22,0,P|98:331|54:321,1,90,4|4,1:2|0:3,0:2:0:0:
25,280,165357,1,8,0:3:0:0:
98,152,165880,1,14,0:3:0:0:
98,152,166054,2,0,P|144:164|194:174,1,90,4|8,0:3|0:3,0:2:0:0:
217,211,166578,1,8,0:3:0:0:
301,158,166927,2,0,P|310:114|318:69,1,90,8|4,0:3|0:3,0:2:0:0:
360,41,167450,1,8,0:3:0:0:
360,41,167624,22,0,P|404:43|449:52,1,90,4|4,1:2|0:3,0:2:0:0:
486,85,168147,1,8,0:3:0:0:
445,230,168671,1,14,0:3:0:0:
445,230,168845,2,0,P|400:224|356:215,1,90,4|8,0:3|0:3,0:2:0:0:
311,227,169368,1,8,0:3:0:0:
311,227,169543,2,0,P|281:259|285:303,1,90,4|0,0:3|0:2,0:2:0:0:
314,343,170066,1,8,0:3:0:0:
223,383,170415,22,0,P|179:372|134:365,1,90,4|4,1:2|0:3,0:2:0:0:
89,378,170938,1,8,0:3:0:0:
19,252,171461,1,14,0:3:0:0:
19,252,171636,2,0,P|28:208|35:163,1,90,4|8,0:3|0:3,0:2:0:0:
13,118,172159,1,4,0:3:0:0:
97,66,172508,2,0,P|121:69|156:81,1,45,8|2,0:2|0:2,0:0:0:0:
173,111,172857,2,0,P|197:107|232:99,1,45,8|2,0:3|0:2,0:0:0:0:
263,73,173206,38,0,B|313:77|307:95|360:100,1,94.499997116089,6|0,1:2|1:2,0:2:0:0:
406,87,173726,1,0,1:2:0:0:
406,87,173899,1,8,0:2:0:0:
497,146,174246,1,8,0:3:0:0:
497,146,174419,2,0,P|516:190|502:232,1,94.499997116089,4|4,0:3|0:3,0:2:0:0:
467,272,174940,1,8,0:3:0:0:
376,322,175286,2,0,P|353:314|319:310,1,47.2499985580445,8|0,0:2|0:2,0:2:0:0:
302,266,175633,2,0,P|279:273|248:279,1,47.2499985580445,4|2,0:3|0:2,0:0:0:0:
213,306,175980,38,0,B|165:302|171:279|124:272,1,94.499997116089,6|0,1:2|1:2,0:2:0:0:
77,275,176503,1,0,1:2:0:0:
77,275,176677,1,8,0:2:0:0:
16,197,177026,1,10,0:3:0:0:
16,197,177200,2,0,P|26:148|41:104,1,94.499997116089,4|4,0:3|0:3,0:0:0:0:
33,53,177724,1,8,0:3:0:0:
135,37,178073,2,0,B|182:21|182:21|213:57,1,94.499997116089,8|4,0:2|0:3,0:2:0:0:
267,55,178596,1,0,1:2:0:0:
267,55,178770,6,0,P|249:101|239:149,1,99.0000030212403,14|4,0:2|0:3,0:2:0:0:
145,205,179463,2,0,P|150:226|155:261,1,49.5000015106202,10|0,0:2|0:2,0:2:0:0:
203,277,179810,2,0,P|197:298|193:333,1,49.5000015106202,10|0,0:2|0:2,0:2:0:0:
156,365,180157,2,0,P|199:369|265:384,1,99.0000030212403,10|10,0:2|0:2,0:2:0:0:
357,348,180850,2,0,P|362:323|367:299,2,49.5000015106202,10|2|14,0:2|1:2|0:2,0:0:0:0:
459,380,181544,38,2,P|465:330|478:283,1,99.0000030212403,4|8,1:2|0:2,0:2:0:0:
396,211,182249,2,0,P|389:161|376:114,1,99.0000030212403,14|8,1:2|0:2,0:2:0:0:
281,59,182955,2,0,B|224:76|224:76|203:113|203:113|138:135,1,165.000005035401,14|8,1:2|0:2,0:2:0:0:
106,131,183661,2,0,P|113:162|121:201,1,66.0000020141602,14|8,1:2|0:2,0:2:0:0:
149,216,184014,2,0,P|140:249|132:292,1,66.0000020141602,8|12,0:3|0:3,0:0:0:0:
109,308,184368,38,2,P|155:317|213:331,1,99.0000030212403,6|2,1:1|1:1,0:1:0:0:
308,378,185065,1,8,0:2:0:0:
308,378,185240,2,2,P|349:360|420:345,1,99.0000030212403,8|10,0:2|0:2,0:1:0:0:
454,361,185763,1,2,0:2:0:0:
510,267,186112,1,2,1:0:0:0:
426,196,186461,2,2,B|382:174|382:174|347:211,1,99.0000030212403,8|2,0:0|0:0,0:1:0:0:
326,262,186984,1,2,0:0:0:0:
326,262,187158,22,0,P|274:249|224:245,1,99.0000030212403,2|2,1:2|1:2,0:0:0:0:
129,201,187856,2,0,P|134:175|137:153,1,49.5000015106202,10|8,0:0|0:0,0:0:0:0:
188,133,188205,2,0,P|191:108|196:84,1,49.5000015106202,2|8,0:0|0:0,0:0:0:0:
179,32,188554,2,0,P|156:28|113:24,2,49.5000015106202,2|10|0,0:0|0:0|1:2,0:0:0:0:
284,4,189251,2,0,B|340:8|327:25|383:31,1,99.0000030212403,10|10,0:0|0:0,0:0:0:0:
433,14,189774,1,10,0:0:0:0:
433,14,189949,21,2,1:2:0:0:
499,100,190298,1,2,1:2:0:0:
405,156,190647,2,0,P|400:176|394:211,1,49.5000015106202,10|10,0:0|0:0,0:0:0:0:
351,237,190995,2,0,P|355:257|362:292,1,49.5000015106202,2|10,0:0|0:0,0:0:0:0:
403,319,191344,2,0,L|450:306,2,49.5000015106202,2|8|2,0:0|0:0|1:2,0:0:0:0:
302,361,192042,2,0,P|273:367|235:380,1,49.5000015106202,10|0,0:0|0:0,0:0:0:0:
214,334,192391,2,0,P|185:328|147:315,1,49.5000015106202,2|0,0:0|1:0,0:0:0:0:
119,350,192740,21,6,1:1:0:0:
22,300,193088,1,2,0:1:0:0:
35,191,193437,1,10,0:1:0:0:
134,146,193786,2,0,P|157:152|200:162,1,49.5000015106202,14|0,1:1|0:1,0:0:0:0:
226,190,194135,22,0,P|247:182|283:172,1,49.5000015106202,2|0,0:1|1:0,0:0:0:0:
313,137,194484,2,0,P|334:144|370:155,1,49.5000015106202,10|10,0:1|0:1,0:0:0:0:
398,191,194833,1,14,0:3:0:0:
398,191,195007,2,0,P|419:183|455:173,2,49.5000015106202,14|6|6,0:3|0:3|0:3,0:0:0:0:
375,240,195530,22,2,B|318:241|293:299|311:301|294:353|229:366,1,198.000006042481,6|10,1:2|0:0,0:0:0:0:
181,364,196402,1,8,0:0:0:0:
89,315,196751,1,8,0:0:0:0:
89,315,196926,2,0,P|95:291|100:266,1,49.5000015106202,2|8,0:0|0:0,0:0:0:0:
79,216,197274,1,2,1:2:0:0:
125,117,197623,2,0,P|173:130|236:142,1,99.0000030212403,8|10,0:0|0:0,0:0:0:0:
259,187,198147,1,8,0:0:0:0:
259,187,198321,22,0,P|303:131|375:134,1,148.50000453186,6|2,1:2|0:0,0:0:0:0:
429,140,199019,2,0,P|422:164|419:194,1,49.5000015106202,10|10,0:0|0:0,0:0:0:0:
392,237,199368,1,2,0:0:0:0:
392,237,199542,2,0,P|398:293|405:351,1,99.0000030212403,10|2,0:0|0:0,0:0:0:0:
370,378,200065,1,2,1:2:0:0:
267,339,200414,2,0,B|216:336|219:358|173:366,1,99.0000030212403,10|8,0:0|0:0,0:0:0:0:
66,342,201112,21,6,1:2:0:0:
132,256,201461,1,2,1:2:0:0:
36,203,201809,2,0,L|27:151,1,49.5000015106202,10|10,0:0|0:0,0:0:0:0:
74,126,202158,2,0,L|82:74,1,49.5000015106202,2|10,0:0|0:0,0:0:0:0:
56,29,202507,2,0,P|26:22|0:14,2,49.5000015106202,2|8|2,0:0|0:0|1:2,0:0:0:0:
163,40,203205,2,0,P|213:34|261:22,1,99.0000030212403,8|0,0:0|1:2,0:0:0:0:
318,38,203728,1,2,1:2:0:0:
318,38,203902,22,0,P|347:75|340:123,1,99.0000030212403,12|0,0:0|1:0,0:0:0:0:
296,154,204426,1,8,0:0:0:0:
296,154,204600,1,2,0:0:0:0:
208,218,204949,1,12,0:0:0:0:
260,313,205298,2,0,P|284:318|315:327,1,49.5000015106202,2|8,1:2|0:0,0:0:0:0:
357,301,205647,2,0,P|381:295|412:287,1,49.5000015106202,0|2,0:0|1:2,0:0:0:0:
451,317,205995,2,0,B|497:290|497:290|515:238|475:204,1,148.50000453186,14|0,0:0|1:0,0:0:0:0:
475,150,206693,22,0,P|407:181|335:194,1,148.50000453186,14|4,0:0|0:3,0:0:0:0:
283,214,207391,2,0,P|279:183|269:152,1,49.5000015106202,4|12,0:3|0:3,0:0:0:0:
225,141,207740,2,0,P|229:110|239:79,1,49.5000015106202,12|12,0:3|0:3,0:0:0:0:
275,57,208088,6,0,P|176:49|83:17,2,198.000006042481,14|0|4,0:2|0:0|1:2,0:0:0:0:
21,359,230439,54,0,P|14:310|-2:266,1,90,8|8,0:2|0:2,0:2:0:0:
38,180,231123,2,0,P|30:158|26:132,2,45,8|8|8,0:2|0:2|0:3,0:0:0:0:
146,215,231809,6,0,P|195:197|246:193,1,103.500001974106,6|0,1:2|1:2,0:2:0:0:
347,246,232507,2,0,P|347:271|354:301,1,51.7500009870529,8|8,0:2|0:2,0:0:0:0:
397,332,232856,2,0,P|422:331|452:325,1,51.7500009870529,2|8,0:2|0:2,0:2:0:0:
494,292,233205,2,0,P|489:240|477:190,1,103.500001974106,2|0,0:2|1:2,0:2:0:0:
504,79,233902,1,10,0:2:0:0:
415,7,234251,1,2,0:2:0:0:
349,100,234600,22,0,P|298:108|248:124,1,103.500001974106,2|2,1:2|1:2,0:2:0:0:
150,66,235298,2,0,P|129:69|93:77,1,51.7500009870529,8|8,0:2|0:2,0:0:0:0:
55,112,235647,2,0,P|64:135|72:166,1,51.7500009870529,2|8,0:2|0:2,0:0:0:0:
109,202,235995,2,0,P|91:248|79:309,1,103.500001974106,2|0,0:2|1:2,0:2:0:0:
39,341,236519,1,2,0:2:0:0:
39,341,236693,1,10,0:2:0:0:
145,380,237042,1,2,0:2:0:0:
229,303,237391,22,0,P|280:309|329:324,1,103.500001974106,6|0,1:2|1:2,0:2:0:0:
371,370,237914,1,0,1:2:0:0:
371,370,238088,1,8,0:2:0:0:
465,306,238437,2,0,P|468:275|476:244,1,51.7500009870529,2|8,0:2|0:2,0:2:0:0:
504,207,238786,2,0,P|453:197|403:183,1,103.500001974106,2|0,0:2|1:2,0:2:0:0:
320,104,239484,1,10,0:2:0:0:
252,195,239833,2,0,P|254:220|258:246,1,51.7500009870529,2|0,0:2|1:2,0:0:0:0:
235,298,240181,22,0,P|190:322|142:308,1,103.500001974106,6|2,1:2|0:2,0:2:0:0:
96,283,240705,1,0,1:2:0:0:
96,283,240879,1,10,0:2:0:0:
119,171,241228,1,12,0:2:0:0:
21,113,241577,2,0,P|12:88|8:63,2,51.7500009870529,2|0|8,0:2|1:2|0:2,0:0:0:0:
122,60,242274,38,0,L|175:48,1,51.7500009870529,8|8,0:2|0:2,0:0:0:0:
215,10,242622,2,0,L|268:23,1,51.7500009870529,8|8,0:2|0:2,0:0:0:0:
307,61,242971,38,0,P|291:110|282:161,1,103.500001974106,6|0,1:2|1:2,0:2:0:0:
234,189,243495,1,0,1:2:0:0:
234,189,243669,1,8,0:2:0:0:
269,297,244019,2,0,P|294:300|323:307,1,51.7500009870529,2|8,0:2|0:2,0:2:0:0:
363,343,244368,2,0,P|411:354|452:325,1,103.500001974106,2|0,0:2|1:2,0:2:0:0:
504,223,245065,1,10,0:2:0:0:
424,140,245414,1,2,0:2:0:0:
333,208,245763,22,0,P|281:213|230:224,1,103.500001974106,2|2,1:2|0:2,0:2:0:0:
194,267,246286,1,0,1:2:0:0:
194,267,246461,1,10,0:2:0:0:
84,235,246809,2,0,P|79:209|74:184,1,51.7500009870529,2|8,0:2|0:2,0:0:0:0:
82,127,247158,2,0,B|137:117|116:95|174:84,1,103.500001974106,2|2,0:2|1:2,0:2:0:0:
248,0,247856,1,14,0:2:0:0:
248,0,248030,2,0,P|286:32|286:82,1,103.500001974106,2|0,0:2|1:2,0:2:0:0:
264,135,248554,22,0,P|315:136|366:145,1,103.500001974106,6|0,1:2|0:2,0:2:0:0:
452,220,249251,2,0,P|443:244|440:269,1,51.7500009870529,10|8,0:2|0:2,0:0:0:0:
387,293,249600,2,0,P|395:317|398:342,1,51.7500009870529,2|8,0:2|0:2,0:0:0:0:
352,376,249949,2,0,P|302:361|250:355,1,103.500001974106,2|0,0:2|1:2,0:2:0:0:
177,267,250647,1,10,0:2:0:0:
97,347,250995,2,0,P|75:338|43:331,1,51.7500009870529,0|0,1:2|1:2,0:0:0:0:
0,350,251344,22,0,P|14:300|21:249,1,103.500001974106,6|2,1:2|0:2,0:2:0:0:
64,211,251868,1,0,1:2:0:0:
64,211,252042,1,8,0:2:0:0:
20,105,252391,1,12,0:2:0:0:
126,64,252740,2,0,P|130:35|140:-1,2,51.7500009870529,2|0|8,0:2|1:2|0:2,0:0:0:0:
181,163,253437,2,0,P|207:168|235:175,1,51.7500009870529,10|10,0:2|0:2,0:0:0:0:
273,134,253786,2,0,P|299:128|327:122,1,51.7500009870529,8|8,0:2|0:2,0:0:0:0:
373,150,254135,22,0,P|412:180|461:167,1,103.500001974106,6|0,1:2|0:2,0:2:0:0:
509,135,254658,1,2,1:2:0:0:
509,135,254833,1,10,0:2:0:0:
467,29,255181,1,2,0:2:0:0:
355,6,255530,2,0,P|305:19|249:29,1,103.500001974106,10|0,0:2|1:2,0:2:0:0:
164,98,256228,1,10,0:2:0:0:
65,41,256577,1,2,1:2:0:0:
8,140,256926,22,0,P|18:185|28:247,1,103.500001974106,14|0,0:2|1:2,0:2:0:0:
72,284,257449,1,8,0:2:0:0:
72,284,257623,1,2,0:2:0:0:
163,216,257972,2,0,B|205:183|205:183|250:207,1,103.500001974106,14|0,0:2|0:2,0:2:0:0:
297,247,258495,1,2,1:2:0:0:
297,247,258670,1,10,0:2:0:0:
395,189,259019,2,0,P|398:158|405:126,2,51.7500009870529,8|8|4,0:2|0:3|0:3,0:0:0:0:
471,273,259715,5,4,1:2:0:0:
256,192,259890,12,0,261808,0:2:0:0:
196,243,262507,21,4,1:2:0:0:
