osu file format v14

[General]
AudioFilename: audio.mp3
AudioLeadIn: 0
PreviewTime: 55124
Countdown: 0
SampleSet: Soft
StackLeniency: 0.7
Mode: 0
LetterboxInBreaks: 0
WidescreenStoryboard: 0

[Editor]
Bookmarks: 11345,33671,55996,81113,92276,136927,184374,209505,231830,262528
DistanceSpacing: 0.6
BeatDivisor: 8
GridSize: 16
TimelineZoom: 2

[Metadata]
Title:Shirube
TitleUnicode:導
Artist:CIVILIAN
ArtistUnicode:CIVILIAN
Creator:AirinCat
Version:Insane
Source:「魔道祖師」羨雲編
Tags:灯命 羡云篇 modao zushi tomo kumo-hen envy cloud mdzs Grandmaster of Demonic Cultivation The Founder of Diabolism 2 Mo Dao Zu Shi 2nd Season Xian Yun Pian opening op anime japanese anime rock jrock j-rock folk Mo Xiang Tong Xiu 墨香铜臭 wei wuxian lan zhan しるべ
BeatmapID:3336339
BeatmapSetID:1634614

[Difficulty]
HPDrainRate:5
CircleSize:4
OverallDifficulty:8
ApproachRate:9
SliderMultiplier:1.8
SliderTickRate:1

[Events]
//Background and Video events
0,0,"wei.jpg",0,0
//Break Periods
2,81113,88885
//Storyboard Layer 0 (Background)
//Storyboard Layer 1 (Fail)
//Storyboard Layer 2 (Pass)
//Storyboard Layer 3 (Foreground)
//Storyboard Layer 4 (Overlay)
//Storyboard Sound Samples

[TimingPoints]
183,697.674418604651,4,2,1,30,1,0
183,-125,4,2,1,30,0,0
11345,-71.4285714285714,4,2,1,30,0,0
33496,-71.4285714285714,4,2,1,40,0,0
33671,-58.8235294117647,4,2,1,40,0,0
44136,-66.6666666666667,4,2,1,40,0,0
44659,-58.8235294117647,4,2,1,40,0,0
49717,-125,4,2,1,40,0,0
50415,-100,4,2,1,40,0,0
53903,-71.4285714285714,4,2,1,60,0,0
54252,-55.5555555555556,4,2,1,60,0,0
54601,-41.6666666666667,4,2,1,60,0,0
54950,-43.4782608695652,4,2,1,60,0,0
55996,-45.4545454545455,4,2,1,70,0,1
66113,-45.4545454545455,4,2,1,70,0,0
66462,-45.4545454545455,4,2,1,70,0,1
66985,-45.4545454545455,4,2,1,70,0,0
67159,-45.4545454545455,4,2,1,70,0,1
76578,-50,4,2,1,60,0,1
78322,-71.4285714285714,4,2,1,60,0,0
80415,-71.4285714285714,4,2,1,5,0,0
81113,-71.4285714285714,4,2,1,60,0,0
92276,-58.8235294117647,4,2,1,40,0,0
114601,-55.5555555555556,4,2,1,50,0,0
135531,674.157303370787,4,2,1,70,1,0
135531,-55.5555555555556,4,2,2,70,0,1
136766,-55.5555555555556,4,2,2,70,0,0
136927,697.674418604651,4,2,1,70,1,0
136927,-45.4545454545455,4,2,1,70,0,1
147043,-45.4545454545455,4,2,1,70,0,0
147392,-45.4545454545455,4,2,1,70,0,1
147915,-45.4545454545455,4,2,1,70,0,0
148089,-45.4545454545455,4,2,1,70,0,1
156461,-45.4545454545455,4,2,1,60,0,1
159252,-50,4,2,1,60,0,0
162043,-66.6666666666667,4,2,1,50,0,0
173206,693.64161849711,4,2,1,70,1,0
173206,-55.5555555555556,4,2,1,60,0,0
175980,697.674418604651,4,2,1,70,1,0
175980,-55.5555555555556,4,2,1,60,0,0
178770,693.64161849711,4,2,1,70,1,0
178770,-55.5555555555556,4,2,1,60,0,0
181544,705.882352941176,4,2,1,70,1,0
181544,-45.4545454545455,4,2,1,70,0,0
184368,697.674418604651,4,2,1,70,1,0
184368,-47.6190476190476,4,2,1,70,0,0
208088,-71.4285714285714,4,2,1,70,0,0
209484,-71.4285714285714,4,2,2,30,0,0
226926,-90.9090909090909,4,2,2,30,0,0
229019,710.059171597633,4,2,1,30,1,0
230261,-71.4285714285714,4,2,1,50,0,0
230439,684.931506849315,4,2,1,50,1,0
230439,-71.4285714285714,4,2,1,50,0,0
231809,697.674418604651,4,2,1,50,1,0
231809,-45.4545454545455,4,2,1,70,0,1
241925,-45.4545454545455,4,2,1,70,0,0
242274,-45.4545454545455,4,2,1,70,0,1
242797,-45.4545454545455,4,2,1,70,0,0
242971,-45.4545454545455,4,2,1,70,0,1
259715,-45.4545454545455,4,2,1,70,0,0
259804,-45.4545454545455,4,2,1,40,0,0
261809,-45.4545454545455,4,2,1,5,0,0
262507,-45.4545454545455,4,2,1,30,0,0

[Colours]
Combo1 : 193,106,104
Combo2 : 193,171,155
Combo3 : 239,80,80
Combo4 : 148,115,101

[HitObjects]
28,373,183,6,0,L|8:290,1,72,4|0,1:2|0:2,0:2:0:0:
57,217,881,1,2,0:3:0:0:
57,217,1229,1,2,0:2:0:0:
147,338,1578,2,0,L|236:315,1,72,2|0,0:3|0:2,0:2:0:0:
285,232,2188,1,2,0:3:0:0:
285,232,2276,2,0,L|363:245,1,72,2|0,0:3|0:2,0:2:0:0:
498,313,2973,21,2,0:3:0:0:
349,367,3322,1,2,0:2:0:0:
291,303,3496,1,0,0:2:0:0:
352,250,3671,1,2,0:3:0:0:
352,250,4020,1,0,0:2:0:0:
274,147,4369,2,0,P|281:111|288:76,1,72,2|0,0:3|0:2,0:2:0:0:
288,76,5066,1,2,0:3:0:0:
443,284,5415,22,0,L|461:289,4,12,2|0|0|0|0,0:2|0:2|0:2|0:2|0:2,0:2:0:0:
504,209,5764,2,0,P|470:203|428:193,1,72,2|0,3:3|0:2,0:2:0:0:
397,370,6462,2,0,P|431:376|473:386,1,72,2|0,0:3|0:2,0:2:0:0:
345,245,7159,1,2,0:3:0:0:
254,338,7508,1,2,0:2:0:0:
156,279,7857,1,2,0:3:0:0:
156,279,7944,1,2,0:3:0:0:
211,214,8206,1,0,0:2:0:0:
23,170,8555,22,0,P|32:201|46:248,1,72,2|0,0:3|0:2,0:2:0:0:
16,359,9252,1,2,0:3:0:0:
16,359,9601,1,2,0:2:0:0:
177,375,9950,2,0,L|245:352,1,72,2|0,0:3|0:2,0:2:0:0:
354,217,10648,1,2,0:3:0:0:
512,334,10996,1,0,3:2:0:0:
422,336,11171,21,0,3:2:0:0:
422,336,11258,1,0,3:2:0:0:
422,336,11345,2,0,P|438:270|454:207,2,125.999996154785,6|0|2,1:2|1:2|0:3,0:2:0:0:
308,375,12217,1,2,0:2:0:0:
235,329,12392,2,0,B|164:334|185:364|118:370,2,125.999996154785,2|2|0,0:2|0:3|0:2,0:2:0:0:
60,274,13438,1,2,0:3:0:0:
60,274,13787,1,2,0:2:0:0:
138,146,14136,21,2,0:3:0:0:
71,101,14310,2,0,P|62:70|57:39,1,62.9999980773926,2|0,0:2|0:2,0:2:0:0:
162,14,14659,2,0,P|169:48|178:85,1,62.9999980773926,2|2,0:2|0:3,0:2:0:0:
261,128,15008,1,2,0:2:0:0:
317,74,15182,2,0,P|386:60|455:53,2,125.999996154785,2|2|0,0:2|0:3|0:2,0:2:0:0:
377,288,16229,2,0,P|426:280|477:269,1,94.499997116089,8|0,0:2|0:2,0:2:0:0:
452,353,16578,2,0,L|427:358,4,20.9999993591309,2|0|0|0|0,0:2|0:2|0:2|0:2|0:2,0:2:0:0:
290,320,16927,22,0,P|276:251|266:189,1,125.999996154785,2|0,1:2|1:2,0:2:0:0:
63,215,17537,2,0,P|73:259|83:313,1,94.499997116089,2|2,0:2|0:2,0:2:0:0:
46,384,17973,2,0,P|90:342|150:355,1,125.999996154785,2|2,0:2|0:3,0:2:0:0:
377,172,18671,2,0,P|371:204|364:237,1,62.9999980773926,2|0,0:2|0:2,0:2:0:0:
390,322,19020,2,0,P|326:327|285:281,1,125.999996154785,2|0,0:3|0:2,0:2:0:0:
512,108,19717,21,2,0:3:0:0:
512,108,20066,2,0,P|495:164|483:233,1,125.999996154785,2|2,0:2|0:3,0:2:0:0:
387,351,20764,1,2,0:2:0:0:
329,266,21113,1,2,0:3:0:0:
329,266,21462,1,2,0:2:0:0:
56,370,21810,1,8,0:2:0:0:
56,370,22159,21,2,3:2:0:0:
75,264,22334,1,0,3:2:0:0:
75,264,22421,1,0,3:2:0:0:
75,263,22508,2,0,B|145:283|110:305|178:330,2,125.999996154785,2|0|2,1:2|1:2|0:3,0:2:0:0:
2,185,23380,1,2,0:2:0:0:
60,134,23555,2,0,P|77:69|85:0,2,125.999996154785,2|2|0,0:2|0:3|0:2,0:2:0:0:
253,99,24601,1,2,0:3:0:0:
253,99,24950,1,2,0:2:0:0:
179,203,25299,22,0,P|229:238|288:223,1,125.999996154785,2|0,0:3|0:2,0:2:0:0:
347,171,25822,2,0,P|329:223|314:297,1,125.999996154785,2|0,0:2|0:2,0:2:0:0:
389,346,26345,2,0,B|459:325|430:302|495:282,2,125.999996154785,2|2|0,0:2|0:3|0:2,0:2:0:0:
56,159,27392,2,0,P|71:110|80:54,1,94.499997116089,8|0,0:2|0:2,0:2:0:0:
6,24,27741,2,0,L|-1:52,4,20.9999993591309,2|0|0|0|0,0:2|0:2|0:2|0:2|0:2,0:2:0:0:
159,100,28089,22,0,B|228:85|205:56|271:46,1,125.999996154785,2|0,1:2|1:2,0:2:0:0:
405,0,28700,2,0,P|412:46|419:93,1,94.499997116089,2|2,0:2|0:2,0:2:0:0:
490,133,29136,2,0,P|422:142|359:164,1,125.999996154785,2|2,0:2|0:3,0:2:0:0:
297,317,29834,1,2,0:2:0:0:
353,379,30182,1,2,0:3:0:0:
430,320,30531,1,2,0:2:0:0:
238,234,30880,22,0,B|171:248|190:277|130:296,2,125.999996154785,2|0|2,0:3|0:2|0:3,0:2:0:0:
108,193,31927,1,0,0:2:0:0:
108,193,32276,1,2,0:3:0:0:
108,193,32624,1,0,0:2:0:0:
451,364,32973,2,0,P|482:312|458:256,1,125.999996154785,10|0,0:2|0:2,0:2:0:0:
461,153,33496,1,0,3:2:0:0:
461,153,33584,1,0,3:2:0:0:
461,153,33671,22,0,P|408:173|353:189,1,114.750002188683,2|0,1:2|0:2,0:2:0:0:
273,233,34020,2,0,P|268:195|257:158,1,76.5000014591217,2|0,1:2|0:2,0:2:0:0:
406,314,34369,2,0,P|332:315|296:378,1,153.000002918243,10|0,0:2|0:2,0:2:0:0:
6,330,35066,2,0,P|77:315|99:245,1,153.000002918243,2|0,0:3|0:2,0:2:0:0:
50,72,35764,1,2,0:3:0:0:
2,142,36113,1,2,0:2:0:0:
236,297,36462,22,0,P|292:278|366:262,1,114.750002188683,0|0,1:2|0:2,0:2:0:0:
424,190,36810,2,0,P|431:222|445:270,1,76.5000014591217,0|0,1:2|0:2,0:2:0:0:
272,168,37159,2,0,B|275:92|326:112|333:32,1,153.000002918243,10|0,0:2|0:2,0:2:0:0:
248,32,37857,1,2,0:3:0:0:
248,32,38206,1,2,0:2:0:0:
248,32,38555,1,2,0:3:0:0:
433,242,38903,2,0,L|437:268,4,25.5000004863739,2|0|0|0|0,0:2|0:2|0:2|0:2|0:2,0:2:0:0:
512,283,39252,22,0,B|465:277|436:310|451:316|429:346|380:347,1,153.000002918243,2|0,1:2|1:2,0:2:0:0:
150,212,39950,2,0,P|156:171|168:130,1,76.5000014591217,10|0,0:2|0:2,0:2:0:0:
118,55,40299,2,0,P|190:40|242:91,2,153.000002918243,2|2|0,0:2|0:3|0:2,0:2:0:0:
0,238,41345,1,2,0:3:0:0:
76,341,41694,2,0,P|116:333|160:320,1,76.5000014591217,2|0,0:2|0:2,0:2:0:0:
282,354,42043,22,0,P|272:293|252:234,1,114.750002188683,2|0,1:2|0:2,0:2:0:0:
259,146,42392,2,0,P|225:158|179:168,1,76.5000014591217,2|0,1:2|0:2,0:2:0:0:
368,255,42741,2,0,P|422:205|493:225,1,153.000002918243,10|0,0:2|0:2,0:2:0:0:
462,328,43438,1,2,0:3:0:0:
462,328,43787,1,0,0:2:0:0:
189,191,44136,2,0,B|190:120|235:141|237:68,1,135.000005149842,2|0,3:3|0:2,0:2:0:0:
192,9,44659,21,0,3:2:0:0:
192,9,44746,1,0,3:2:0:0:
192,9,44834,2,0,P|236:22|316:29,1,114.750002188683,6|0,1:2|0:2,0:2:0:0:
389,76,45182,2,0,P|394:38|405:-1,1,76.5000014591217,2|0,1:2|0:2,0:2:0:0:
259,146,45531,2,0,P|267:184|274:226,1,76.5000014591217,10|0,0:2|0:2,0:2:0:0:
415,314,45880,2,0,P|421:275|433:231,1,76.5000014591217,2|0,0:2|0:2,0:2:0:0:
270,368,46229,2,0,P|214:319|142:335,1,153.000002918243,2|0,0:3|0:2,0:2:0:0:
0,108,46927,2,0,P|55:106|89:149,1,114.750002188683,2|0,0:3|0:2,0:2:0:0:
140,224,47276,2,0,L|58:248,1,76.5000014591217,2|0,0:2|0:2,0:2:0:0:
231,82,47624,22,0,P|286:98|342:108,1,114.750002188683,2|0,1:2|0:2,0:2:0:0:
422,174,47973,2,0,P|426:140|442:100,1,76.5000014591217,2|0,1:2|0:2,0:2:0:0:
296,219,48322,2,0,B|300:270|333:295|337:274|372:307|372:345,1,153.000002918243,10|0,0:2|0:2,0:2:0:0:
287,368,49020,1,2,0:3:0:0:
287,368,49369,1,2,0:2:0:0:
491,91,49717,2,0,L|474:22,1,72,10|0,0:2|0:2,0:2:0:0:
379,81,50241,21,0,3:2:0:0:
379,81,50328,1,0,3:2:0:0:
379,81,50415,2,0,B|308:85|328:125|254:135,2,135,2|2|2,3:2|0:2|0:2,0:2:0:0:
283,195,52159,1,0,0:2:0:0:
214,146,52508,1,0,0:2:0:0:
261,85,52857,1,0,0:2:0:0:
329,128,53206,1,0,3:2:0:0:
40,341,53555,22,0,P|32:308|19:276,1,67.5,8|0,1:2|0:2,0:2:0:0:
76,197,53903,2,0,P|119:214|166:223,1,94.499997116089,8|0,1:2|0:2,0:2:0:0:
243,284,54252,2,0,B|307:273|280:244|349:230,1,121.499996292114,8|0,1:2|0:2,0:2:0:0:
460,257,54601,2,0,P|482:183|427:128,1,161.999995056153,8|0,1:2|0:2,0:2:0:0:
289,47,54950,2,0,P|300:86|314:150,2,103.500001974106,8|0|0,1:2|3:2|3:2,0:2:0:0:
289,47,55648,1,0,0:2:0:0:
221,346,55996,38,0,B|141:328|171:288|92:278,1,148.50000453186,6|0,1:2|0:2,0:2:0:0:
0,242,56345,2,0,P|13:287|27:352,1,99.0000030212403,0|0,1:2|0:2,0:2:0:0:
235,235,56694,1,10,0:2:0:0:
86,143,56869,1,8,0:2:0:0:
220,47,57043,2,0,P|208:97|201:152,1,99.0000030212403,2|8,0:2|0:2,0:2:0:0:
357,321,57392,2,0,P|425:254|518:274,1,198.000006042481,2|0,0:2|1:2,0:2:0:0:
458,353,57915,1,0,0:2:0:0:
330,208,58089,2,0,P|280:217|233:236,1,99.0000030212403,10|0,0:2|0:2,0:2:0:0:
176,24,58438,2,0,P|231:15|279:-1,1,99.0000030212403,2|0,0:2|0:2,0:2:0:0:
144,146,58787,22,0,B|59:164|84:116|-1:131,1,148.50000453186,2|0,1:2|0:2,0:2:0:0:
21,221,59136,2,0,P|32:260|43:326,1,99.0000030212403,2|0,1:2|0:2,0:2:0:0:
321,364,59485,2,0,P|328:312|338:263,1,99.0000030212403,10|0,0:2|0:2,0:2:0:0:
432,101,59834,1,2,0:2:0:0:
495,271,60008,21,8,0:2:0:0:
405,197,60182,2,0,B|352:188|309:235|336:247|293:279|234:285,1,198.000006042481,2|0,0:2|1:2,0:2:0:0:
33,203,60706,1,2,0:2:0:0:
104,360,60880,2,0,P|118:307|127:259,1,99.0000030212403,10|0,0:2|0:2,0:2:0:0:
230,161,61229,1,2,0:2:0:0:
96,64,61403,1,2,0:2:0:0:
230,161,61578,22,0,P|279:164|394:191,1,148.50000453186,2|0,1:2|0:2,0:2:0:0:
376,184,61927,1,0,1:2:0:0:
488,92,62101,1,2,1:2:0:0:
379,69,62276,21,10,0:2:0:0:
512,182,62450,1,8,0:2:0:0:
390,291,62624,2,0,P|344:299|289:318,1,99.0000030212403,2|8,0:2|0:2,0:2:0:0:
144,214,62973,2,0,B|131:163|182:108|192:139|238:102|233:51,1,198.000006042481,2|0,0:2|1:2,0:2:0:0:
37,22,63496,1,2,0:2:0:0:
37,22,63584,1,2,0:2:0:0:
37,22,63671,2,0,P|80:34|142:47,1,99.0000030212403,10|0,0:2|0:2,0:2:0:0:
263,204,64020,21,2,0:2:0:0:
432,112,64194,1,0,1:2:0:0:
432,112,64281,1,0,1:2:0:0:
432,112,64369,2,0,P|366:140|359:210,1,148.50000453186,2|0,1:2|0:2,0:2:0:0:
358,209,64717,1,2,0:2:0:0:
493,357,64892,1,0,1:2:0:0:
493,357,64979,1,0,1:2:0:0:
493,357,65066,2,0,P|503:313|512:254,1,99.0000030212403,8|0,0:2|0:2,0:2:0:0:
294,93,65415,22,0,B|237:95|207:139|228:141|189:195|134:195,1,198.000006042481,6|0,1:2|0:2,0:2:0:0:
13,181,65938,1,8,0:2:0:0:
151,349,66113,1,0,1:2:0:0:
151,349,66462,5,12,2:3:0:0:
134,194,66636,1,12,2:3:0:0:
287,114,66810,1,12,2:3:0:0:
428,206,66985,1,12,2:3:0:0:
449,343,67159,6,0,P|467:246|490:150,1,198.000006042481,4|0,1:2|1:2,0:2:0:0:
277,0,67682,1,2,1:2:0:0:
349,189,67857,1,10,0:2:0:0:
437,56,68031,1,8,0:2:0:0:
313,107,68206,2,0,P|265:89|218:75,1,99.0000030212403,2|8,0:2|0:2,0:2:0:0:
234,319,68555,2,0,P|292:245|384:267,1,198.000006042481,2|0,0:2|1:2,0:2:0:0:
326,341,69078,1,0,0:2:0:0:
152,180,69252,2,0,P|141:127|124:75,1,99.0000030212403,10|0,0:2|0:2,0:2:0:0:
365,22,69601,2,0,P|375:74|393:127,1,99.0000030212403,0|0,1:2|1:2,0:2:0:0:
169,307,69950,22,0,P|115:256|46:272,1,148.50000453186,2|0,1:2|0:2,0:2:0:0:
0,377,70299,2,0,P|44:357|103:347,1,99.0000030212403,2|0,1:2|0:2,0:2:0:0:
222,138,70648,2,0,P|206:85|195:36,1,99.0000030212403,10|0,0:2|0:2,0:2:0:0:
75,131,70996,1,2,0:2:0:0:
250,274,71171,1,8,0:2:0:0:
327,207,71345,22,0,P|420:207|449:279,1,148.50000453186,2|0,0:2|0:2,0:2:0:0:
366,287,71694,2,0,P|347:332|339:381,1,99.0000030212403,2|0,1:2|0:2,0:2:0:0:
512,117,72043,1,10,0:2:0:0:
286,121,72217,2,0,P|239:112|185:90,1,99.0000030212403,2|0,0:2|0:2,0:2:0:0:
420,78,72566,21,0,1:2:0:0:
420,78,72653,1,0,1:2:0:0:
420,78,72741,2,0,P|330:106|313:199,1,198.000006042481,6|0,1:2|1:2,0:2:0:0:
483,334,73264,1,0,1:2:0:0:
483,334,73351,1,0,1:2:0:0:
483,334,73438,1,8,0:2:0:0:
512,214,73613,1,8,0:2:0:0:
404,173,73787,1,2,0:2:0:0:
306,316,73962,1,8,0:2:0:0:
183,260,74136,22,0,P|151:159|168:65,1,198.000006042481,2|0,0:2|1:2,0:2:0:0:
297,15,74659,1,0,1:2:0:0:
297,15,74746,1,0,1:2:0:0:
297,15,74834,2,0,P|350:13|400:4,1,99.0000030212403,10|0,0:2|0:2,0:2:0:0:
147,169,75182,1,0,1:2:0:0:
147,169,75357,1,0,1:2:0:0:
291,205,75531,22,0,P|289:151|276:104,1,99.0000030212403,14|0,0:2|0:2,0:2:0:0:
44,177,75880,1,0,1:2:0:0:
180,317,76055,1,8,0:2:0:0:
207,227,76229,21,2,0:2:0:0:
47,320,76403,1,0,1:2:0:0:
246,383,76578,22,0,P|306:320|390:337,1,180,14|0,0:2|0:2,0:2:0:0:
463,120,77101,1,2,1:2:0:0:
512,242,77276,2,0,P|468:232|421:228,1,90,8|0,0:2|0:2,0:2:0:0:
195,142,77624,1,8,0:2:0:0:
293,0,77799,1,8,0:3:0:0:
354,73,77973,1,4,0:3:0:0:
354,73,78322,37,4,1:2:0:0:
256,192,78409,12,0,80415,0:2:0:0:
256,192,89485,12,0,91229,0:2:0:0:
112,150,91403,53,0,3:2:0:0:
112,150,91491,1,0,3:2:0:0:
112,150,91578,1,8,0:2:0:0:
15,262,91752,1,8,0:2:0:0:
28,179,91927,1,8,0:3:0:0:
94,236,92101,1,4,0:3:0:0:
174,290,92276,22,0,P|231:244|309:259,2,153.000002918243,6|0|8,1:2|1:2|0:2,0:2:0:0:
308,371,93148,1,2,0:2:0:0:
379,312,93322,2,0,P|386:273|396:225,1,76.5000014591217,2|8,0:2|0:2,0:2:0:0:
286,149,93671,2,0,P|271:65|252:-10,1,153.000002918243,2|0,3:2|1:2,0:2:0:0:
427,212,94369,2,0,P|464:201|504:195,1,76.5000014591217,8|0,0:2|0:2,0:2:0:0:
331,316,94717,2,0,P|294:327|254:333,1,76.5000014591217,0|0,0:2|0:2,0:2:0:0:
137,270,95066,21,2,1:2:0:0:
196,195,95241,2,0,P|188:157|182:119,1,76.5000014591217,2|0,0:2|1:2,0:2:0:0:
46,147,95589,2,0,P|53:184|59:222,1,76.5000014591217,2|8,0:2|0:2,0:2:0:0:
125,372,95938,1,2,0:2:0:0:
40,351,96113,1,2,0:2:0:0:
40,351,96287,1,8,0:2:0:0:
149,281,96462,2,0,B|232:287|203:330|284:342,1,153.000002918243,2|0,3:2|1:2,0:2:0:0:
440,259,96985,1,0,3:2:0:0:
450,340,97159,2,0,P|379:319|360:248,1,153.000002918243,8|0,0:2|3:2,0:2:0:0:
305,146,97682,21,0,3:2:0:0:
305,146,97770,1,0,3:2:0:0:
305,146,97857,2,0,P|354:156|431:165,1,114.750002188683,2|0,1:2|0:2,0:2:0:0:
505,208,98206,2,0,P|506:165|517:115,1,76.5000014591217,2|0,1:2|0:2,0:2:0:0:
407,5,98555,21,8,0:2:0:0:
317,67,98729,1,2,0:2:0:0:
258,15,98903,2,0,P|185:31|154:98,1,153.000002918243,2|0,0:2|3:2,0:2:0:0:
236,356,99601,2,0,P|270:343|319:336,1,76.5000014591217,0|0,1:2|3:2,0:2:0:0:
170,254,99950,1,8,0:2:0:0:
114,343,100124,1,0,3:2:0:0:
19,280,100299,2,0,P|11:243|-3:200,1,76.5000014591217,2|0,3:2|3:2,0:2:0:0:
137,87,100648,22,0,P|184:107|253:124,1,114.750002188683,2|0,1:2|0:2,0:2:0:0:
341,111,100996,2,0,P|330:147|324:185,1,76.5000014591217,2|0,1:2|0:2,0:2:0:0:
232,358,101345,1,8,0:2:0:0:
232,358,101694,1,2,0:2:0:0:
154,309,101869,2,0,P|211:263|283:282,1,153.000002918243,8|0,0:2|0:2,0:2:0:0:
449,252,102392,2,0,P|435:289|428:332,1,76.5000014591217,2|0,1:2|0:2,0:2:0:0:
305,180,102741,2,0,P|378:181|418:120,1,153.000002918243,8|0,0:2|0:2,0:2:0:0:
485,75,103264,21,0,3:2:0:0:
485,75,103351,1,0,3:2:0:0:
485,75,103438,2,0,P|427:70|369:58,1,114.750002188683,6|0,1:2|0:2,0:2:0:0:
291,0,103787,2,0,P|286:36|277:84,1,76.5000014591217,2|0,1:2|0:2,0:2:0:0:
168,251,104136,1,8,0:2:0:0:
104,170,104310,1,2,0:2:0:0:
185,142,104485,2,0,B|268:159|239:191|317:213,2,153.000002918243,2|0|0,0:2|3:2|1:2,0:2:0:0:
0,284,105531,2,0,P|7:321|18:358,1,76.5000014591217,8|0,0:2|0:2,0:2:0:0:
102,340,105880,2,0,P|95:303|84:266,1,76.5000014591217,2|0,0:2|0:2,0:2:0:0:
0,168,106229,22,0,P|46:126|100:140,1,114.750002188683,2|0,1:2|0:2,0:2:0:0:
190,114,106578,2,0,P|180:152|176:192,1,76.5000014591217,2|0,1:2|0:2,0:2:0:0:
242,332,106927,1,8,0:2:0:0:
330,271,107101,1,2,0:2:0:0:
381,337,107276,2,0,P|425:348|470:356,1,76.5000014591217,2|8,0:2|0:2,0:2:0:0:
379,187,107624,2,0,P|330:242|258:229,1,153.000002918243,0|0,3:2|1:2,0:2:0:0:
305,159,108148,1,0,3:2:0:0:
475,267,108322,2,0,P|487:191|510:118,1,153.000002918243,8|0,0:2|3:2,0:2:0:0:
415,11,108845,1,0,3:2:0:0:
415,11,108932,1,0,3:2:0:0:
415,11,109020,22,0,P|406:58|383:131,1,114.750002188683,2|0,1:2|0:2,0:2:0:0:
386,207,109369,2,0,P|350:194|313:188,1,76.5000014591217,2|0,1:2|0:2,0:2:0:0:
199,30,109717,1,8,0:2:0:0:
289,84,109892,1,2,0:2:0:0:
229,142,110066,2,0,B|146:159|183:194|99:217,1,153.000002918243,2|0,0:2|3:2,0:2:0:0:
407,379,110764,2,0,P|415:340|423:302,1,76.5000014591217,2|0,1:2|0:2,0:2:0:0:
249,266,111113,2,0,P|241:305|233:343,1,76.5000014591217,8|0,0:2|0:2,0:2:0:0:
331,330,111462,1,2,3:2:0:0:
331,330,111636,1,0,3:2:0:0:
187,183,111810,22,0,P|113:191|80:257,2,153.000002918243,2|0|8,1:2|1:2|0:2,0:2:0:0:
265,92,112682,1,0,0:2:0:0:
372,175,112857,1,0,3:2:0:0:
306,226,113031,1,0,3:2:0:0:
373,79,113206,21,8,0:2:0:0:
490,264,113380,2,0,P|493:225|500:188,1,76.5000014591217,8|0,0:2|0:2,0:2:0:0:
219,178,113729,1,0,1:2:0:0:
219,178,113816,1,0,1:2:0:0:
219,178,113903,2,0,P|216:215|208:253,1,76.5000014591217,8|0,0:2|0:2,0:2:0:0:
321,384,114252,1,8,0:2:0:0:
391,249,114427,1,8,0:2:0:0:
85,329,114601,22,0,P|146:337|212:351,1,121.499996292114,6|0,1:2|0:2,0:2:0:0:
281,312,114950,2,0,P|288:273|299:233,1,80.9999975280763,2|0,1:2|0:2,0:2:0:0:
193,123,115299,2,0,P|116:130|90:202,1,161.999995056153,10|0,0:2|0:2,0:2:0:0:
366,80,115996,2,0,P|370:39|379:0,1,80.9999975280763,2|0,0:3|0:2,0:2:0:0:
481,97,116345,2,0,P|490:57|495:17,1,80.9999975280763,2|0,1:2|0:2,0:2:0:0:
291,172,116694,2,0,P|251:165|210:160,1,80.9999975280763,10|0,0:2|0:2,0:2:0:0:
432,306,117043,2,0,P|473:311|513:318,1,80.9999975280763,2|0,0:2|0:2,0:2:0:0:
331,320,117392,22,0,B|330:229|390:253|387:173,1,161.999995056153,2|0,1:2|1:2,0:2:0:0:
116,22,118089,2,0,P|128:56|142:116,1,80.9999975280763,10|0,0:2|0:2,0:2:0:0:
229,147,118438,2,0,P|268:132|310:123,1,80.9999975280763,2|0,0:2|0:2,0:2:0:0:
57,142,118787,2,0,P|48:102|33:64,1,80.9999975280763,2|0,0:3|0:2,0:2:0:0:
233,245,119136,2,0,B|271:227|310:219,1,80.9999975280763,2|0,1:2|0:2,0:2:0:0:
40,296,119485,2,0,P|115:277|133:201,1,161.999995056153,10|0,0:2|0:2,0:2:0:0:
261,40,120008,21,2,0:2:0:0:
288,126,120182,2,0,P|209:130|169:64,1,161.999995056153,2|0,1:2|1:2,0:2:0:0:
476,367,120880,2,0,P|483:332|498:285,1,80.9999975280763,10|0,0:2|0:2,0:2:0:0:
372,214,121229,2,0,P|342:304|327:386,2,161.999995056153,2|2|0,0:2|0:3|1:2,0:2:0:0:
256,0,122276,2,0,P|292:14|339:19,1,80.9999975280763,10|0,0:2|0:2,0:2:0:0:
430,82,122624,2,0,P|437:42|449:3,1,80.9999975280763,2|0,0:2|0:2,0:2:0:0:
234,108,122973,22,0,P|245:160|255:241,1,121.499996292114,2|0,1:2|0:2,0:2:0:0:
224,324,123322,2,0,P|263:312|307:307,1,80.9999975280763,2|0,1:2|0:2,0:2:0:0:
146,223,123671,2,0,B|98:230|76:273|98:277|90:317|40:332,2,161.999995056153,10|0|2,0:2|0:2|0:3,0:2:0:0:
457,286,124717,2,0,P|447:325|441:365,1,80.9999975280763,0|0,1:2|0:2,0:2:0:0:
308,216,125066,1,14,0:2:0:0:
308,216,125415,1,8,0:2:0:0:
420,142,125589,1,8,0:2:0:0:
267,41,125764,22,0,P|210:61|149:67,1,121.499996292114,6|0,1:2|0:2,0:2:0:0:
72,118,126113,2,0,P|66:78|55:39,1,80.9999975280763,2|0,1:2|0:2,0:2:0:0:
201,172,126462,2,0,P|190:213|182:253,1,80.9999975280763,10|0,0:2|0:2,0:2:0:0:
33,299,126810,2,0,P|19:258|2:224,1,80.9999975280763,2|0,0:2|0:2,0:2:0:0:
219,363,127159,2,0,P|286:323|360:349,1,161.999995056153,2|0,0:3|1:2,0:2:0:0:
512,87,127857,2,0,P|503:126|497:166,1,80.9999975280763,10|0,0:2|0:2,0:2:0:0:
377,147,128206,2,0,P|385:107|391:67,1,80.9999975280763,2|0,0:2|0:2,0:2:0:0:
512,303,128555,22,0,P|480:253|421:252,1,121.499996292114,2|0,1:2|0:2,0:2:0:0:
325,241,128903,2,0,P|336:274|346:326,1,80.9999975280763,2|0,1:2|0:2,0:2:0:0:
187,216,129252,2,0,B|192:135|259:156|266:82,1,161.999995056153,10|0,0:2|0:2,0:2:0:0:
100,0,129776,1,8,0:2:0:0:
90,88,129950,2,0,P|131:74|175:63,1,80.9999975280763,2|0,0:3|0:2,0:2:0:0:
353,96,130299,2,0,P|343:56|329:15,1,80.9999975280763,2|0,1:2|0:2,0:2:0:0:
187,216,130648,2,0,P|196:255|211:297,1,80.9999975280763,10|0,0:2|0:2,0:2:0:0:
428,366,130996,2,0,P|471:327|459:270,1,121.499996292114,2|0,0:2|0:2,0:2:0:0:
512,212,131345,22,0,P|445:236|355:270,1,161.999995056153,2|0,1:2|1:2,0:2:0:0:
221,384,131869,1,2,0:2:0:0:
140,342,132043,2,0,P|132:302|116:264,1,80.9999975280763,8|0,0:2|0:2,0:2:0:0:
169,66,132392,1,2,0:2:0:0:
256,153,132566,1,8,0:2:0:0:
160,157,132741,21,2,0:3:0:0:
160,157,133089,2,0,P|120:170|68:189,1,80.9999975280763,2|0,1:2|0:2,0:2:0:0:
326,304,133438,1,8,0:2:0:0:
355,213,133613,1,0,1:2:0:0:
234,311,133787,2,0,P|299:322|401:357,1,161.999995056153,10|0,0:2|0:2,0:2:0:0:
236,23,135531,5,8,0:1:0:0:
286,51,135643,1,8,0:1:0:0:
304,100,135755,1,8,0:1:0:0:
287,150,135868,1,8,0:1:0:0:
243,183,135980,1,8,0:1:0:0:
191,187,136092,1,8,0:1:0:0:
149,157,136205,2,8,L|164:91,2,53.9999983520508,8|8|8,0:1|0:1|0:1,0:1:0:0:
376,179,136542,1,8,0:1:0:0:
371,172,136654,2,8,L|359:224,1,53.9999983520508,8|8,0:1|0:1,0:1:0:0:
260,342,136927,22,0,P|204:297|135:316,1,148.50000453186,6|0,1:2|0:2,0:2:0:0:
44,272,137276,2,0,P|55:317|66:375,1,99.0000030212403,0|0,1:2|0:2,0:2:0:0:
177,104,137624,1,8,0:2:0:0:
0,94,137799,1,8,0:2:0:0:
130,226,137973,2,0,P|178:211|230:201,1,99.0000030212403,2|8,0:2|0:2,0:2:0:0:
329,38,138322,22,0,P|414:76|412:169,1,198.000006042481,2|0,0:2|1:2,0:2:0:0:
332,128,138845,1,0,0:2:0:0:
491,307,139020,2,0,P|499:259|513:210,1,99.0000030212403,10|0,0:2|0:2,0:2:0:0:
307,352,139369,1,2,0:2:0:0:
207,272,139543,21,0,1:2:0:0:
207,272,139630,1,0,1:2:0:0:
207,272,139717,2,0,P|255:219|325:228,1,148.50000453186,6|0,1:2|0:2,0:2:0:0:
419,201,140066,2,0,P|408:247|400:303,1,99.0000030212403,2|0,1:2|0:2,0:2:0:0:
111,250,140415,2,0,P|131:151|144:54,1,198.000006042481,10|2,0:2|0:2,0:2:0:0:
295,0,140938,1,8,0:2:0:0:
324,176,141113,21,2,0:2:0:0:
409,81,141287,1,0,1:2:0:0:
247,111,141462,1,0,1:2:0:0:
411,245,141636,1,2,0:2:0:0:
495,194,141810,2,0,P|501:142|515:89,1,99.0000030212403,10|0,0:2|0:2,0:2:0:0:
268,255,142159,21,10,0:2:0:0:
421,377,142334,1,8,0:2:0:0:
344,189,142508,22,0,B|297:177|241:217|273:222|233:281|172:267,1,198.000006042481,6|0,1:2|1:2,0:2:0:0:
12,154,143031,1,0,1:2:0:0:
78,69,143206,2,0,P|122:79|181:87,1,99.0000030212403,10|0,0:2|0:2,0:2:0:0:
122,374,143555,1,2,0:2:0:0:
8,298,143729,1,8,0:2:0:0:
151,190,143903,2,0,P|242:210|258:302,1,198.000006042481,2|0,0:2|1:2,0:2:0:0:
55,210,144427,1,2,0:2:0:0:
55,210,144514,1,2,0:2:0:0:
55,210,144601,2,0,P|68:158|76:113,1,99.0000030212403,10|0,0:2|0:2,0:2:0:0:
260,182,144950,21,2,0:2:0:0:
330,71,145124,1,0,1:2:0:0:
330,71,145212,1,0,1:2:0:0:
330,71,145299,2,0,P|280:67|232:57,1,99.0000030212403,6|0,1:2|0:2,0:2:0:0:
195,275,145648,2,0,P|244:278|291:292,1,99.0000030212403,2|0,0:2|1:2,0:2:0:0:
512,164,145996,21,10,0:2:0:0:
349,189,146171,1,0,1:2:0:0:
422,363,146345,2,0,P|430:314|442:266,1,99.0000030212403,8|0,0:2|0:2,0:2:0:0:
224,172,146694,1,2,0:2:0:0:
291,292,146869,1,0,1:2:0:0:
206,372,147043,1,8,0:2:0:0:
206,372,147392,5,12,2:3:0:0:
105,258,147566,1,12,2:3:0:0:
143,111,147741,1,12,2:3:0:0:
299,80,147915,1,12,2:3:0:0:
453,215,148089,38,0,P|347:223|250:248,1,198.000006042481,4|0,1:2|1:2,0:2:0:0:
65,150,148613,1,0,1:2:0:0:
130,366,148787,1,10,0:2:0:0:
192,186,148961,1,8,0:2:0:0:
98,251,149136,2,0,P|51:236|-3:225,1,99.0000030212403,2|8,0:2|0:2,0:2:0:0:
185,42,149485,2,0,P|278:50|313:137,1,198.000006042481,2|0,0:2|1:2,0:2:0:0:
231,117,150008,1,0,0:2:0:0:
432,231,150182,2,0,P|440:182|454:135,1,99.0000030212403,10|0,0:2|0:2,0:2:0:0:
297,257,150531,1,8,0:2:0:0:
446,354,150706,1,8,0:2:0:0:
297,257,150880,22,0,P|223:273|134:306,1,148.50000453186,6|0,1:2|0:2,0:2:0:0:
80,354,151229,2,0,P|68:305|52:259,1,99.0000030212403,2|0,1:2|1:2,0:2:0:0:
230,83,151578,2,0,P|217:130|211:180,1,99.0000030212403,10|0,0:2|0:2,0:2:0:0:
113,86,151927,1,2,0:2:0:0:
288,0,152101,1,8,0:2:0:0:
332,97,152275,22,0,P|375:153|446:145,1,148.50000453186,2|0,0:2|0:2,0:2:0:0:
512,24,152624,2,0,P|464:40|416:48,1,99.0000030212403,2|0,1:2|0:2,0:2:0:0:
280,235,152973,1,10,0:2:0:0:
487,332,153147,2,0,P|473:281|465:230,1,99.0000030212403,2|0,0:2|0:2,0:2:0:0:
257,334,153496,21,0,1:2:0:0:
257,334,153584,1,0,1:2:0:0:
257,334,153671,2,0,P|346:303|365:211,1,198.000006042481,6|0,1:2|1:2,0:2:0:0:
233,123,154194,1,0,1:2:0:0:
233,123,154281,1,0,1:2:0:0:
233,123,154368,1,10,0:2:0:0:
145,194,154543,1,8,0:2:0:0:
70,106,154718,1,2,0:2:0:0:
216,0,154892,1,8,0:2:0:0:
303,83,155066,22,0,P|273:180|261:278,1,198.000006042481,2|0,0:2|1:2,0:2:0:0:
20,374,155764,2,0,P|10:312|0:278,1,99.0000030212403,10|0,0:2|0:2,0:2:0:0:
172,150,156113,1,2,0:2:0:0:
172,150,156287,1,0,1:2:0:0:
163,272,156461,22,0,P|209:255|257:243,1,99.0000030212403,14|0,0:2|0:2,0:2:0:0:
192,41,156810,2,0,P|145:57|97:69,1,99.0000030212403,2|8,0:2|0:2,0:2:0:0:
376,159,157159,2,0,P|363:111|354:62,1,99.0000030212403,2|0,0:2|1:2,0:2:0:0:
212,305,157508,2,0,P|299:270|366:335,1,198.000006042481,14|0,0:2|0:2,0:2:0:0:
91,340,158031,1,0,1:2:0:0:
107,263,158206,2,0,B|108:188|54:202|55:128,1,148.50000453186,10|0,0:2|0:2,0:2:0:0:
54,128,158555,5,8,0:2:0:0:
240,223,158729,1,8,0:2:0:0:
257,87,158903,21,8,0:3:0:0:
176,129,159078,1,4,0:3:0:0:
340,225,159252,38,0,P|426:196|537:172,2,180,6|8|8,1:2|1:2|1:2,0:2:0:0:
7,119,160299,1,8,1:2:0:0:
105,67,160473,1,0,1:2:0:0:
120,285,160648,2,0,P|107:217|87:153,1,135,14|0,0:2|0:2,0:2:0:0:
88,154,160996,21,8,0:3:0:0:
29,238,161171,1,8,0:3:0:0:
207,317,161345,1,2,0:2:0:0:
283,228,161520,1,4,0:3:0:0:
221,132,161694,1,4,0:3:0:0:
293,68,161869,1,4,0:3:0:0:
229,10,162043,6,0,P|172:23|85:38,1,135.000005149842,6|4,1:2|0:3,0:2:0:0:
1,0,162566,2,0,P|12:53|26:142,1,135.000005149842,8|0,0:3|0:2,0:2:0:0:
117,297,163089,1,14,0:3:0:0:
167,223,163264,2,0,P|106:200|50:234,1,135.000005149842,4|8,0:3|0:3,0:2:0:0:
49,234,163787,1,8,0:3:0:0:
245,306,164136,21,8,0:3:0:0:
292,227,164310,1,4,0:3:0:0:
245,306,164485,1,4,0:3:0:0:
343,337,164659,21,8,0:3:0:0:
343,337,164746,1,8,0:3:0:0:
343,337,164834,2,0,P|405:312|472:304,1,135.000005149842,4|4,1:2|0:3,0:2:0:0:
512,223,165357,2,0,P|502:190|497:157,2,67.5000025749208,8|4|4,0:3|0:3|0:3,0:2:0:0:
364,39,165880,1,14,0:3:0:0:
333,117,166055,2,0,P|397:122|441:74,1,135.000005149842,4|8,0:3|0:3,0:2:0:0:
241,17,166578,21,8,0:3:0:0:
241,17,166752,1,4,0:3:0:0:
206,101,166927,2,0,P|214:130|223:181,1,67.5000025749208,8|4,0:3|0:3,0:2:0:0:
325,295,167275,1,4,0:3:0:0:
356,206,167450,21,8,0:3:0:0:
356,206,167537,1,8,0:3:0:0:
356,206,167624,2,0,B|287:218|325:246|239:268,1,135.000005149842,4|4,1:2|0:3,0:2:0:0:
157,332,168147,2,0,B|78:323|104:293|30:287,1,135.000005149842,8|4,0:3|0:3,0:2:0:0:
127,132,168671,1,14,0:3:0:0:
79,55,168845,2,0,P|27:93|33:157,1,135.000005149842,4|8,0:3|0:3,0:2:0:0:
171,207,169369,21,8,0:3:0:0:
228,136,169543,2,0,P|220:100|218:60,2,67.5000025749208,4|8|0,0:3|0:3|0:2,0:2:0:0:
168,303,170066,1,8,0:3:0:0:
81,260,170240,1,4,0:3:0:0:
264,235,170415,22,0,B|340:230|310:191|386:187,1,135.000005149842,4|4,1:2|0:3,0:2:0:0:
474,227,170938,2,0,P|469:260|465:293,2,67.5000025749208,8|4|4,0:3|0:3|0:3,0:2:0:0:
417,106,171461,1,14,0:3:0:0:
490,70,171636,2,0,P|494:36|502:3,1,67.5000025749208,4|8,0:3|0:3,0:2:0:0:
278,113,171985,21,8,0:3:0:0:
370,213,172159,1,4,0:3:0:0:
231,288,172333,1,0,1:2:0:0:
231,288,172421,1,0,1:2:0:0:
231,288,172508,21,8,0:2:0:0:
194,204,172682,1,2,0:2:0:0:
285,198,172857,1,8,0:3:0:0:
372,322,173031,1,2,0:2:0:0:
302,363,173206,38,0,P|235:339|136:323,1,161.999995056153,6|0,1:2|1:2,0:2:0:0:
23,150,173726,1,0,1:2:0:0:
0,252,173899,2,0,P|77:247|116:180,1,161.999995056153,8|8,0:2|0:3,0:2:0:0:
270,104,174419,2,0,P|258:65|250:25,1,80.9999975280763,4|4,0:3|0:3,0:2:0:0:
125,79,174766,1,4,0:3:0:0:
125,79,174940,1,8,0:3:0:0:
236,181,175113,1,0,1:2:0:0:
355,88,175286,2,0,P|395:83|437:73,1,80.9999975280763,8|0,0:2|0:0,0:2:0:0:
404,293,175633,1,4,0:3:0:0:
385,208,175807,37,2,0:2:0:0:
385,208,175893,1,2,0:2:0:0:
385,208,175980,2,0,P|461:219|486:292,1,161.999995056153,6|0,1:2|1:2,0:2:0:0:
390,380,176503,1,0,1:2:0:0:
276,231,176677,2,0,P|290:160|306:60,1,161.999995056153,8|10,0:2|0:3,0:2:0:0:
156,3,177200,1,4,0:3:0:0:
128,116,177376,1,4,0:3:0:0:
221,88,177550,1,4,0:3:0:0:
128,116,177724,1,8,0:3:0:0:
221,88,177899,1,0,1:2:0:0:
46,17,178073,6,0,P|32:96|23:177,1,161.999995056153,8|4,0:2|0:3,0:2:0:0:
133,333,178596,1,0,1:2:0:0:
229,303,178770,2,0,P|183:240|106:247,1,161.999995056153,14|4,0:2|0:3,0:2:0:0:
468,224,179463,2,0,L|491:136,1,80.9999975280763,10|0,0:2|0:2,0:2:0:0:
301,39,179810,2,0,L|318:117,1,80.9999975280763,10|0,0:2|0:2,0:2:0:0:
203,224,180157,2,0,P|145:236|96:202,1,121.499996292114,10|0,0:2|0:2,0:2:0:0:
1,206,180504,2,0,P|10:166|18:126,1,80.9999975280763,10|0,0:2|0:2,0:2:0:0:
169,149,180850,37,10,0:2:0:0:
42,292,181024,1,2,1:2:0:0:
183,371,181197,2,0,P|226:352|286:335,1,107.999996704102,14|8,0:2|0:2,0:2:0:0:
312,250,181544,6,2,B|381:273|346:306|407:335,1,132.00000402832,4|10,1:2|0:2,0:2:0:0:
497,301,181896,1,8,0:2:0:0:
493,278,182014,1,8,0:2:0:0:
476,262,182132,1,8,0:2:0:0:
453,257,182249,2,0,P|468:186|488:115,1,132.00000402832,14|8,1:2|0:2,0:2:0:0:
452,32,182602,37,8,0:2:0:0:
399,34,182720,1,8,0:2:0:0:
357,65,182838,1,8,0:2:0:0:
350,115,182955,2,0,B|274:111|303:79|228:71,1,132.00000402832,14|8,1:2|0:2,0:2:0:0:
126,125,183308,5,8,0:2:0:0:
88,191,183426,1,8,0:2:0:0:
141,245,183544,1,8,0:2:0:0:
213,223,183661,2,0,P|219:189|226:158,2,66.0000020141602,14|8|8,1:2|0:2|0:2,0:2:0:0:
12,126,184014,1,8,0:3:0:0:
20,123,184132,2,0,P|13:158|6:190,1,66.0000020141602,12|12,0:3|0:3,0:2:0:0:
158,334,184368,22,2,P|114:346|61:367,1,94.499997116089,6|0,1:1|0:2,0:1:0:0:
239,148,184716,2,2,B|288:174|288:174|294:210|294:210|337:234,1,141.749995674133,2|0,1:1|0:2,0:1:0:0:
337,234,185065,1,8,0:2:0:0:
136,161,185240,2,2,P|153:109|162:62,1,94.499997116089,8|0,0:2|0:2,0:1:0:0:
345,18,185588,1,10,0:2:0:0:
345,18,185676,1,2,0:2:0:0:
345,18,185763,2,2,P|330:69|321:117,1,94.499997116089,2|0,0:2|0:2,0:1:0:0:
454,237,186112,2,0,P|461:188|478:128,1,94.499997116089,2|0,1:0|1:0,0:0:0:0:
258,279,186461,2,2,B|307:246|355:277|355:277|367:327|409:336,1,188.999994232178,8|2,0:0|0:0,0:1:0:0:
454,237,186984,1,2,0:0:0:0:
241,380,187158,22,0,P|194:367|135:358,1,94.499997116089,2|0,1:2|0:0,0:0:0:0:
184,138,187507,2,0,P|230:150|290:160,1,94.499997116089,2|0,1:2|0:0,0:0:0:0:
402,134,187856,1,10,0:0:0:0:
258,279,188030,1,8,0:0:0:0:
276,158,188205,1,2,0:0:0:0:
450,217,188379,1,8,0:0:0:0:
312,71,188554,21,2,0:0:0:0:
350,208,188728,1,10,0:0:0:0:
185,351,188902,1,0,1:2:0:0:
159,254,189077,1,2,0:0:0:0:
371,336,189251,22,0,L|470:311,1,94.499997116089,10|0,0:0|0:0,0:0:0:0:
245,171,189600,1,10,0:0:0:0:
185,351,189774,1,10,0:0:0:0:
245,170,189949,22,0,L|222:79,1,94.499997116089,2|0,1:2|0:0,0:0:0:0:
90,15,190298,2,0,L|-3:46,1,94.499997116089,2|0,1:2|0:0,0:0:0:0:
24,211,190647,1,10,0:0:0:0:
142,134,190821,1,10,0:0:0:0:
46,117,190995,1,2,0:0:0:0:
205,253,191170,1,10,0:0:0:0:
128,323,191344,2,0,L|28:307,1,94.499997116089,2|8,0:0|0:0,0:0:0:0:
245,173,191693,2,0,L|262:81,1,94.499997116089,2|0,1:2|0:0,0:0:0:0:
394,345,192042,2,0,L|497:361,1,94.499997116089,10|0,0:0|0:0,0:0:0:0:
349,190,192391,1,2,0:0:0:0:
277,270,192565,21,0,1:0:0:0:
277,270,192652,1,0,1:0:0:0:
277,270,192740,1,6,1:1:0:0:
352,91,192914,1,2,0:2:0:0:
484,241,193088,1,2,0:1:0:0:
352,91,193263,1,2,1:2:0:0:
152,211,193437,1,10,0:1:0:0:
81,124,193612,1,2,1:2:0:0:
81,124,193699,1,0,1:0:0:0:
81,124,193786,22,0,P|93:70|108:21,1,94.499997116089,14|0,1:1|0:1,0:0:0:0:
299,217,194135,2,0,P|287:271|272:320,1,94.499997116089,2|0,0:1|1:0,0:0:0:0:
386,377,194484,1,10,0:1:0:0:
386,377,194571,1,8,0:0:0:0:
386,377,194658,1,10,0:1:0:0:
386,377,194745,1,8,0:0:0:0:
386,377,194833,21,14,0:3:0:0:
299,217,195007,1,14,0:3:0:0:
181,270,195181,1,6,0:3:0:0:
93,196,195356,1,6,0:3:0:0:
194,85,195530,22,2,L|207:146,2,62.9999980773926,6|2|2,1:2|0:0|0:0,0:0:0:0:
313,155,195879,2,2,L|298:216,2,62.9999980773926
391,280,196228,1,10,0:0:0:0:
368,289,196344,1,2,0:0:0:0:
353,306,196461,1,2,0:0:0:0:
352,332,196577,1,2,0:0:0:0:
365,349,196693,1,2,0:0:0:0:
380,356,196809,1,2,0:0:0:0:
394,356,196926,22,0,P|439:341|490:335,1,94.499997116089,2|8,0:0|0:0,0:0:0:0:
313,155,197274,2,0,P|248:217|164:186,1,188.999994232178,2|8,1:2|0:0,0:0:0:0:
94,43,197798,1,2,0:0:0:0:
94,43,197885,1,2,0:0:0:0:
94,43,197972,1,10,0:0:0:0:
222,107,198147,1,8,0:0:0:0:
41,224,198321,22,0,P|33:185|24:151,2,62.9999980773926,6|2|2,1:2|0:0|0:0,0:0:0:0:
137,328,198670,2,0,P|90:336|45:351,1,94.499997116089,2|2,1:2|0:0,0:0:0:0:
164,186,199019,1,10,0:0:0:0:
293,303,199193,1,10,0:0:0:0:
387,241,199368,1,2,0:0:0:0:
387,241,199455,1,2,0:0:0:0:
387,241,199542,2,0,P|376:200|363:129,1,94.499997116089,10|0,0:0|0:0,0:0:0:0:
192,54,199891,21,2,0:0:0:0:
192,54,199978,1,2,0:0:0:0:
192,54,200065,1,2,1:2:0:0:
439,87,200240,1,2,1:2:0:0:
439,87,200327,1,2,0:0:0:0:
439,87,200414,2,0,B|389:78|340:112|371:122|332:168|276:160,1,188.999994232178,10|8,0:0|0:0,0:0:0:0:
288,71,200937,1,4,0:3:0:0:
114,264,201112,22,0,P|103:217|91:172,1,94.499997116089,6|0,1:2|0:0,0:0:0:0:
311,279,201461,1,2,1:2:0:0:
225,335,201635,1,2,1:2:0:0:
276,160,201809,1,10,0:0:0:0:
421,287,201984,1,10,0:0:0:0:
476,167,202158,1,2,0:0:0:0:
476,167,202333,1,10,0:0:0:0:
288,261,202507,22,0,L|191:239,1,94.499997116089,2|8,0:0|0:0,0:0:0:0:
253,13,202856,2,0,L|350:35,1,94.499997116089,2|0,1:2|0:0,0:0:0:0:
134,157,203205,1,8,0:0:0:0:
52,79,203379,1,2,0:0:0:0:
141,47,203554,1,0,1:2:0:0:
38,206,203728,1,2,1:2:0:0:
163,299,203902,22,0,P|251:265|344:254,1,188.999994232178,12|0,0:0|1:0,0:0:0:0:
448,77,204426,1,8,0:0:0:0:
509,177,204600,1,2,0:0:0:0:
461,249,204774,1,0,1:0:0:0:
288,352,204949,1,12,0:0:0:0:
218,224,205123,1,2,0:0:0:0:
360,73,205298,21,2,1:2:0:0:
218,224,205472,1,8,0:0:0:0:
151,41,205647,1,0,0:0:0:0:
364,189,205821,1,2,1:2:0:0:
128,312,205995,2,0,P|80:242|106:129,1,188.999994232178,14|0,0:0|1:0,0:0:0:0:
95,143,206519,1,0,1:0:0:0:
296,257,206693,22,0,B|322:212|385:222|385:222|410:263|458:261,1,188.999994232178,14|4,0:0|0:3,0:0:0:0:
455,177,207216,1,4,0:3:0:0:
356,334,207391,1,4,0:3:0:0:
455,177,207565,1,12,0:3:0:0:
232,125,207740,1,12,0:3:0:0:
356,334,207914,1,12,0:3:0:0:
367,48,208088,2,0,P|239:88|113:112,2,251.999992309571,14|0|4,0:2|0:0|1:2,0:0:0:0:
367,48,210181,37,8,0:2:0:0:
425,97,210530,1,2,0:2:0:0:
376,156,210879,1,8,3:2:0:0:
376,156,211577,1,8,0:2:0:0:
335,224,211926,1,2,0:2:0:0:
384,287,212274,1,8,3:2:0:0:
458,293,212623,1,2,0:2:0:0:
495,222,212972,1,8,0:2:0:0:
453,156,213321,1,2,0:2:0:0:
376,156,213670,1,8,3:2:0:0:
335,380,214193,21,2,0:2:0:0:
335,380,214281,1,2,0:2:0:0:
335,380,214368,1,8,0:2:0:0:
380,315,214716,1,2,0:2:0:0:
333,252,215065,1,8,1:2:0:0:
87,361,215588,1,2,0:2:0:0:
87,361,215763,1,8,0:2:0:0:
37,303,216112,1,2,0:2:0:0:
72,235,216461,1,8,3:2:0:0:
72,235,217158,21,8,0:2:0:0:
124,178,217507,1,2,0:2:0:0:
94,105,217856,1,8,3:2:0:0:
146,45,218205,1,2,0:2:0:0:
225,57,218554,1,8,0:2:0:0:
257,128,218902,1,2,0:2:0:0:
205,185,219251,1,8,3:2:0:0:
205,185,219949,21,8,0:2:0:0:
247,249,220298,1,2,0:2:0:0:
210,314,220647,1,12,1:2:0:0:
409,374,221170,1,2,0:2:0:0:
409,374,221344,1,8,0:2:0:0:
446,306,221693,1,2,0:2:0:0:
395,249,222042,1,8,3:2:0:0:
395,249,222740,21,8,0:2:0:0:
336,197,223088,1,2,0:2:0:0:
363,122,223437,1,8,3:2:0:0:
439,105,223786,1,2,0:2:0:0:
497,157,224135,1,8,0:2:0:0:
470,230,224484,1,2,0:2:0:0:
395,249,224833,1,8,3:2:0:0:
219,370,225530,21,8,0:2:0:0:
171,310,225763,1,2,0:2:0:0:
214,244,226228,1,8,3:2:0:0:
35,347,226809,1,2,0:0:0:0:
44,348,226926,2,0,P|40:298|29:250,1,99.0000030212403,8|0,0:2|0:2,0:2:0:0:
89,201,227623,2,0,P|97:150|111:98,1,99.0000030212403,8|2,0:2|0:2,0:2:0:0:
91,27,228321,1,8,0:2:0:0:
15,45,228670,1,2,0:2:0:0:
109,104,229019,21,2,3:2:0:0:
192,22,230261,21,0,3:2:0:0:
192,22,230350,1,0,3:2:0:0:
192,22,230439,2,0,P|181:62|173:133,1,94.499997116089,8|0,0:2|3:2,0:2:0:0:
101,177,230781,2,0,P|93:139|82:110,1,62.9999980773926,8|0,0:2|3:2,0:2:0:0:
84,116,231038,1,0,3:2:0:0:
84,116,231123,1,8,0:2:0:0:
223,245,231295,1,8,0:2:0:0:
327,141,231466,1,8,0:3:0:0:
327,141,231637,1,4,0:3:0:0:
226,333,231809,38,0,B|137:325|175:276|91:275,1,148.50000453186,6|0,1:2|0:2,0:2:0:0:
0,248,232158,2,0,P|11:296|18:345,1,99.0000030212403,0|0,1:2|0:2,0:2:0:0:
229,181,232507,1,8,0:2:0:0:
62,72,232681,1,8,0:2:0:0:
229,181,232856,2,0,P|274:167|344:153,1,99.0000030212403,2|8,0:2|0:2,0:2:0:0:
512,59,233205,2,0,P|418:43|306:8,1,198.000006042481,2|0,0:2|1:2,0:2:0:0:
245,62,233728,1,0,0:2:0:0:
402,235,233902,2,0,P|410:183|423:131,1,99.0000030212403,10|0,0:2|0:2,0:2:0:0:
153,53,234251,2,0,P|164:101|171:150,1,99.0000030212403,2|0,0:2|0:2,0:2:0:0:
77,382,234600,22,0,P|17:343|19:272,1,148.50000453186,2|0,1:2|0:2,0:2:0:0:
0,184,234949,2,0,P|45:200|107:214,1,99.0000030212403,2|0,1:2|0:2,0:2:0:0:
246,357,235298,1,8,0:2:0:0:
330,237,235472,1,8,0:2:0:0:
235,255,235647,1,2,0:2:0:0:
397,379,235821,21,8,0:2:0:0:
467,275,235995,2,0,P|453:176|426:81,1,198.000006042481,2|0,0:2|1:2,0:2:0:0:
241,0,236518,1,2,0:2:0:0:
212,100,236693,2,0,P|262:96|315:79,1,99.0000030212403,10|0,0:2|0:2,0:2:0:0:
349,287,237042,2,0,P|299:291|246:308,1,99.0000030212403,2|0,0:2|0:2,0:2:0:0:
55,149,237391,22,0,B|107:135|154:160|130:176|179:219|236:194,1,198.000006042481,6|0,1:2|1:2,0:2:0:0:
212,100,237914,1,0,1:2:0:0:
85,232,238088,1,8,0:2:0:0:
252,305,238263,1,8,0:2:0:0:
125,384,238437,2,0,P|77:368|16:354,1,99.0000030212403,2|8,0:2|0:2,0:2:0:0:
235,195,238786,2,0,P|327:209|356:298,1,198.000006042481,2|0,0:2|1:2,0:2:0:0:
140,213,239309,1,2,0:2:0:0:
140,213,239397,1,2,0:2:0:0:
140,213,239484,2,0,P|153:168|159:106,1,99.0000030212403,10|0,0:2|0:2,0:2:0:0:
329,12,239833,21,2,0:2:0:0:
382,122,240007,1,0,1:2:0:0:
382,122,240094,1,0,1:2:0:0:
382,122,240181,2,0,P|442:159|510:135,1,148.50000453186,6|0,1:2|0:2,0:2:0:0:
510,135,240530,1,2,0:2:0:0:
360,270,240705,1,0,1:2:0:0:
478,354,240879,2,0,P|465:303|458:257,1,99.0000030212403,10|0,0:2|1:2,0:2:0:0:
223,170,241228,2,0,P|239:117|243:70,1,99.0000030212403,12|0,0:2|0:2,0:2:0:0:
403,149,241577,21,2,0:2:0:0:
257,281,241751,1,0,1:2:0:0:
334,351,241925,1,8,0:2:0:0:
334,351,242274,37,8,0:2:0:0:
314,182,242449,1,8,0:2:0:0:
134,125,242623,1,8,0:2:0:0:
12,236,242797,1,8,0:2:0:0:
145,383,242971,38,0,P|165:293|195:186,1,198.000006042481,6|0,1:2|1:2,0:2:0:0:
60,26,243495,1,0,1:2:0:0:
90,214,243670,1,8,0:2:0:0:
207,77,243844,1,8,0:2:0:0:
108,121,244019,2,0,P|66:108|9:97,1,99.0000030212403,2|8,0:2|0:2,0:2:0:0:
180,302,244368,2,0,P|230:222|325:229,1,198.000006042481,2|0,0:2|1:2,0:2:0:0:
279,315,244891,1,0,0:2:0:0:
326,113,245065,2,0,P|369:126|436:135,1,99.0000030212403,10|0,0:2|0:2,0:2:0:0:
491,306,245414,2,0,P|442:313|394:327,1,99.0000030212403,2|0,0:2|0:2,0:2:0:0:
201,175,245763,22,0,P|146:129|157:59,1,148.50000453186,2|0,1:2|0:2,0:2:0:0:
278,0,246112,2,0,P|265:44|255:98,1,99.0000030212403,2|0,0:2|1:2,0:2:0:0:
66,235,246461,2,0,P|57:186|43:138,1,99.0000030212403,10|0,0:2|0:2,0:2:0:0:
285,197,246809,1,2,0:2:0:0:
181,380,246984,1,8,0:2:0:0:
97,329,247158,22,0,P|150:280|221:291,1,148.50000453186,2|0,0:2|0:2,0:2:0:0:
299,354,247507,2,0,P|342:339|405:328,1,99.0000030212403,2|0,1:2|1:2,0:2:0:0:
500,146,247856,1,14,0:2:0:0:
327,98,248030,2,0,P|338:146|347:200,1,99.0000030212403,2|0,0:2|0:2,0:2:0:0:
391,0,248379,21,0,1:2:0:0:
391,0,248466,1,0,1:2:0:0:
391,0,248554,2,0,P|330:71|241:44,1,198.000006042481,6|0,1:2|0:2,0:2:0:0:
87,144,249077,1,0,1:2:0:0:
87,144,249164,1,0,1:2:0:0:
87,144,249251,1,10,0:2:0:0:
115,45,249426,1,8,0:2:0:0:
199,140,249600,1,2,0:2:0:0:
95,260,249774,1,8,0:2:0:0:
188,332,249949,22,0,P|281:303|387:284,1,198.000006042481,2|0,0:2|1:2,0:2:0:0:
451,16,250647,2,0,P|398:26|344:35,1,99.0000030212403,10|0,0:2|0:2,0:2:0:0:
301,197,250995,1,0,1:2:0:0:
301,197,251170,1,0,1:2:0:0:
456,219,251344,22,0,P|449:170|435:114,1,99.0000030212403,6|0,1:2|0:2,0:2:0:0:
191,158,251693,2,0,P|197:206|212:263,1,99.0000030212403,2|0,0:2|1:2,0:2:0:0:
333,384,252042,1,8,0:2:0:0:
372,248,252216,1,0,1:2:0:0:
217,367,252391,2,0,P|174:371|110:388,1,99.0000030212403,12|0,0:2|0:2,0:2:0:0:
12,180,252740,1,2,0:2:0:0:
122,244,252914,1,0,1:2:0:0:
15,294,253088,21,8,0:2:0:0:
172,139,253263,1,2,0:2:0:0:
208,243,253437,21,10,0:2:0:0:
88,86,253612,1,10,0:2:0:0:
286,114,253786,1,8,0:2:0:0:
88,86,253961,1,8,0:2:0:0:
303,206,254135,22,0,P|324:78|341:9,1,198.000006042481,6|0,1:2|0:2,0:2:0:0:
512,73,254658,1,2,1:2:0:0:
422,107,254833,2,0,P|427:57|437:9,1,99.0000030212403,10|0,0:2|0:2,0:2:0:0:
228,0,255181,2,0,P|238:48|243:97,1,99.0000030212403,2|0,0:2|0:2,0:2:0:0:
375,249,255530,2,0,P|424:197|496:220,1,148.50000453186,10|0,0:2|0:2,0:2:0:0:
450,287,255879,2,0,P|438:334|434:388,1,99.0000030212403,0|0,1:2|0:2,0:2:0:0:
250,272,256228,2,0,P|274:202|279:129,1,148.50000453186,10|0,0:2|0:2,0:2:0:0:
279,129,256577,1,2,1:2:0:0:
144,316,256751,21,0,1:2:0:0:
144,316,256838,1,0,1:2:0:0:
144,316,256926,2,0,P|93:304|39:298,1,99.0000030212403,14|0,0:2|0:2,0:2:0:0:
190,194,257274,1,0,1:2:0:0:
267,352,257449,1,8,0:2:0:0:
348,304,257623,2,0,P|356:253|367:203,1,99.0000030212403,2|0,0:2|1:2,0:2:0:0:
213,35,257972,22,0,P|154:108|62:88,1,198.000006042481,14|0,0:2|0:2,0:2:0:0:
302,25,258495,1,2,1:2:0:0:
360,109,258670,2,0,P|411:119|456:128,1,99.0000030212403,10|0,0:2|0:2,0:2:0:0:
244,209,259019,1,8,0:2:0:0:
309,349,259193,1,8,0:3:0:0:
394,290,259368,1,4,0:3:0:0:
394,290,259715,37,4,1:2:0:0:
256,192,259804,12,0,261809,0:2:0:0:
251,195,262507,21,4,1:2:0:0:
