osu file format v14

[General]
AudioFilename: audio.mp3
AudioLeadIn: 0
PreviewTime: 55124
Countdown: 0
SampleSet: Soft
StackLeniency: 0.7
Mode: 0
LetterboxInBreaks: 0
WidescreenStoryboard: 1

[Editor]
Bookmarks: 11345,33671,55996,81113,92276,136927,184374,209505,231830,262528
DistanceSpacing: 1.1
BeatDivisor: 8
GridSize: 4
TimelineZoom: 2

[Metadata]
Title:Shirube
TitleUnicode:導
Artist:CIVILIAN
ArtistUnicode:CIVILIAN
Creator:AirinCat
Version:Hard
Source:「魔道祖師」羨雲編
Tags:灯命 羡云篇 modao zushi tomo kumo-hen envy cloud mdzs Grandmaster of Demonic Cultivation The Founder of Diabolism 2 Mo Dao Zu Shi 2nd Season Xian Yun Pian opening op anime japanese anime rock jrock j-rock folk Mo Xiang Tong Xiu 墨香铜臭 wei wuxian lan zhan しるべ
BeatmapID:3367607
BeatmapSetID:1634614

[Difficulty]
HPDrainRate:4
CircleSize:3.8
OverallDifficulty:6
ApproachRate:8
SliderMultiplier:1.8
SliderTickRate:1

[Events]
//Background and Video events
0,0,"wei.jpg",0,0
//Break Periods
2,81113,90653
2,209683,229019
//Storyboard Layer 0 (Background)
//Storyboard Layer 1 (Fail)
//Storyboard Layer 2 (Pass)
//Storyboard Layer 3 (Foreground)
//Storyboard Layer 4 (Overlay)
//Storyboard Sound Samples

[TimingPoints]
183,697.674418604651,4,2,1,30,1,0
183,-125,4,2,1,30,0,0
11345,-83.3333333333333,4,2,1,30,0,0
33496,-83.3333333333333,4,2,1,40,0,0
33671,-66.6666666666667,4,2,1,40,0,0
44136,-90.9090909090909,4,2,1,40,0,0
44659,-66.6666666666667,4,2,1,40,0,0
49717,-125,4,2,1,40,0,0
50415,-100,4,2,1,40,0,0
53555,-83.3333333333333,4,2,1,40,0,0
53903,-83.3333333333333,4,2,1,60,0,0
54252,-71.4285714285714,4,2,1,60,0,0
54601,-62.5,4,2,1,60,0,0
54950,-55.5555555555556,4,2,1,60,0,0
55996,-58.8235294117647,4,2,1,70,0,1
66113,-58.8235294117647,4,2,1,70,0,0
66462,-58.8235294117647,4,2,1,70,0,1
66985,-58.8235294117647,4,2,1,70,0,0
67159,-58.8235294117647,4,2,1,70,0,1
76578,-62.5,4,2,1,60,0,1
78322,-71.4285714285714,4,2,1,60,0,0
80415,-71.4285714285714,4,2,1,5,0,0
81113,-90.9090909090909,4,2,1,60,0,0
92276,-66.6666666666667,4,2,1,40,0,0
114601,-62.5,4,2,1,50,0,0
135531,674.157303370787,4,2,2,70,1,0
135531,-55.5555555555556,4,2,2,70,0,1
136766,-55.5555555555556,4,2,2,70,0,0
136927,697.674418604651,4,2,1,70,1,0
136927,-58.8235294117647,4,2,1,70,0,1
147043,-58.8235294117647,4,2,1,70,0,0
147392,-58.8235294117647,4,2,1,70,0,1
147915,-58.8235294117647,4,2,1,70,0,0
148089,-58.8235294117647,4,2,1,70,0,1
156461,-58.8235294117647,4,2,1,60,0,1
159252,-66.6666666666667,4,2,1,60,0,0
162043,-71.4285714285714,4,2,1,50,0,0
173206,693.64161849711,4,2,1,60,1,0
173206,-66.6666666666667,4,2,1,60,0,0
175980,697.674418604651,4,2,1,60,1,0
175980,-66.6666666666667,4,2,1,60,0,0
178770,693.64161849711,4,2,1,60,1,0
178770,-66.6666666666667,4,2,1,60,0,0
181544,705.882352941176,4,2,1,70,1,0
181544,-55.5555555555556,4,2,1,70,0,0
184368,697.674418604651,4,2,1,70,1,0
184368,-55.5555555555556,4,2,1,70,0,0
208088,-71.4285714285714,4,2,1,70,0,0
209484,-71.4285714285714,4,2,2,30,0,0
226926,-90.9090909090909,4,2,2,30,0,0
229019,710.059171597633,4,2,1,30,1,0
230261,-71.4285714285714,4,2,1,50,0,0
230439,684.931506849315,4,2,1,50,1,0
230439,-71.4285714285714,4,2,1,50,0,0
231809,697.674418604651,4,2,1,70,1,0
231809,-58.8235294117647,4,2,1,70,0,1
241925,-58.8235294117647,4,2,1,70,0,0
242274,-58.8235294117647,4,2,1,70,0,1
242797,-58.8235294117647,4,2,1,70,0,0
242971,-58.8235294117647,4,2,1,70,0,1
259715,-58.8235294117647,4,2,1,70,0,0
259804,-58.8235294117647,4,2,1,40,0,0
261809,-58.8235294117647,4,2,1,5,0,0
262507,-58.8235294117647,4,2,1,30,0,0

[Colours]
Combo1 : 193,106,104
Combo2 : 193,171,155
Combo3 : 239,80,80
Combo4 : 148,115,101

[HitObjects]
46,282,11345,6,0,P|36:224|23:176,2,107.999996704102,6|0|2,1:2|1:2|0:3,0:2:0:0:
116,335,12217,1,2,0:2:0:0:
176,280,12392,2,0,P|231:268|298:252,2,107.999996704102,2|2|0,0:2|0:3|0:2,0:2:0:0:
333,375,13438,1,2,0:3:0:0:
333,375,13787,1,2,0:2:0:0:
477,235,14136,21,2,0:3:0:0:
477,235,14310,2,0,P|470:206|464:180,1,53.9999983520508,2|0,0:2|0:2,0:2:0:0:
377,199,14659,2,0,P|383:226|388:253,2,53.9999983520508,2|2|2,0:2|0:3|0:2,0:2:0:0:
307,153,15182,2,0,B|246:160|258:178|204:185,2,107.999996704102,2|2|0,0:2|0:3|0:2,0:2:0:0:
133,0,16229,2,0,L|119:64,1,53.9999983520508,8|0,0:2|0:0,0:2:0:0:
43,111,16578,2,0,L|11:104,4,17.9999994506836,0|0|0|0|0,0:2|0:2|0:2|0:2|0:2,0:2:0:0:
72,148,16927,22,0,P|58:200|43:270,2,107.999996704102,2|0|0,1:2|1:2|0:0,0:2:0:0:
150,104,17799,1,2,0:2:0:0:
215,160,17973,2,0,P|266:177|319:182,1,107.999996704102,2|2,0:2|0:3,0:2:0:0:
431,330,18671,2,0,B|377:337|391:357|331:369,2,107.999996704102,2|2|0,0:2|0:3|0:2,0:2:0:0:
512,215,19717,21,2,0:3:0:0:
512,215,20066,2,0,P|499:162|494:108,1,107.999996704102,2|2,0:2|0:3,0:2:0:0:
279,146,20764,2,0,P|291:198|296:252,2,107.999996704102,2|2|2,0:2|0:3|0:2,0:0:0:0:
431,348,21810,1,8,0:2:0:0:
431,348,22159,1,2,3:2:0:0:
355,308,22334,1,0,3:2:0:0:
281,345,22508,22,0,B|223:355|239:376|181:384,2,107.999996704102,2|0|2,1:2|1:2|0:3,0:2:0:0:
355,308,23380,1,2,0:2:0:0:
302,245,23555,2,0,P|303:191|314:138,2,107.999996704102,2|2|0,0:2|0:3|0:2,0:2:0:0:
161,177,24601,1,2,0:3:0:0:
161,177,24950,1,2,0:2:0:0:
179,307,25299,22,0,P|127:316|84:285,1,107.999996704102,2|0,0:3|0:2,0:2:0:0:
0,277,25822,2,0,P|17:225|27:172,1,107.999996704102,2|0,0:2|0:2,0:2:0:0:
97,123,26345,2,0,P|82:69|77:8,2,107.999996704102,2|2|0,0:2|0:3|0:2,0:2:0:0:
283,208,27392,2,0,P|307:200|350:193,1,53.9999983520508,8|0,0:2|0:0,0:2:0:0:
404,122,27741,2,0,L|397:98,4,17.9999994506836,0|0|0|0|0,0:2|0:2|0:2|0:2|0:2,0:2:0:0:
351,72,28089,22,0,P|298:85|246:98,2,107.999996704102,2|0|0,1:2|1:2|0:0,0:2:0:0:
400,4,28962,1,2,0:2:0:0:
476,36,29136,2,0,P|490:89|501:142,2,107.999996704102,2|2|2,0:2|0:3|0:2,0:2:0:0:
392,196,30182,1,2,0:3:0:0:
478,256,30531,1,2,0:2:0:0:
349,324,30880,22,0,B|295:332|305:346|247:360,2,107.999996704102,2|0|2,0:3|0:2|0:3,0:2:0:0:
485,362,31927,1,0,0:2:0:0:
512,245,32276,1,2,0:3:0:0:
512,245,32624,1,0,0:2:0:0:
262,189,32973,2,0,P|255:135|246:82,1,107.999996704102,10|0,0:2|0:2,0:2:0:0:
289,6,33496,21,0,3:2:0:0:
289,6,33584,1,0,3:2:0:0:
288,5,33671,2,0,P|238:47|176:28,1,135.000005149842,2|2,1:2|1:2,0:2:0:0:
17,188,34369,2,0,P|61:141|125:152,1,135.000005149842,10|0,0:2|0:2,0:2:0:0:
125,152,35066,1,2,0:3:0:0:
184,256,35415,1,0,0:2:0:0:
102,346,35764,1,2,0:3:0:0:
102,346,36113,1,2,0:2:0:0:
263,338,36462,22,0,P|330:345|395:360,1,135.000005149842,0|0,1:2|1:2,0:2:0:0:
512,198,37159,2,0,P|462:244|398:229,1,135.000005149842,10|0,0:2|0:2,0:2:0:0:
401,232,37857,1,2,0:3:0:0:
343,168,38206,1,2,0:2:0:0:
398,103,38555,1,2,0:3:0:0:
249,25,38903,2,0,L|257:58,4,22.5000008583069,0|0|0|0|0,0:2|0:2|0:2|0:2|0:2,0:2:0:0:
233,91,39252,22,0,B|159:95|187:126|107:134,2,135.000005149842,2|0|10,1:2|1:2|0:2,0:2:0:0:
366,200,40299,2,0,B|430:207|429:240|491:247,2,135.000005149842,2|2|0,0:2|0:3|0:2,0:2:0:0:
263,297,41345,1,2,0:3:0:0:
263,297,41694,1,2,0:2:0:0:
159,227,42043,22,0,P|95:212|47:255,1,135.000005149842,2|2,1:2|1:2,0:2:0:0:
0,87,42741,2,0,P|63:100|111:55,1,135.000005149842,10|0,0:2|0:2,0:2:0:0:
110,55,43438,1,2,0:3:0:0:
110,55,43787,1,0,0:2:0:0:
221,164,44136,2,0,P|205:236|194:309,1,148.50000453186,2|0,3:3|3:2,0:2:0:0:
119,332,44834,22,0,B|193:333|168:376|239:384,1,135.000005149842,6|2,1:2|1:2,0:2:0:0:
421,310,45531,2,0,P|422:245|368:210,1,135.000005149842,10|2,0:2|0:2,0:2:0:0:
362,83,46229,2,0,P|295:108|229:125,1,135.000005149842,2|0,0:3|0:2,0:2:0:0:
233,124,46927,1,2,0:3:0:0:
233,124,47276,1,2,0:2:0:0:
105,44,47624,22,0,P|61:92|79:154,1,135.000005149842,2|2,1:2|1:2,0:2:0:0:
54,319,48322,2,0,B|131:307|103:278|174:263,1,135.000005149842,10|0,0:2|0:2,0:2:0:0:
174,263,49020,1,2,0:3:0:0:
264,338,49369,1,2,0:2:0:0:
371,173,49717,2,0,P|358:112|353:57,1,108,10|0,0:2|3:2,0:2:0:0:
400,0,50415,22,0,P|342:37|273:13,2,135,2|2|2,3:2|0:2|0:2,0:2:0:0:
419,184,52159,2,0,P|462:191|525:200,2,90,0|0|0,0:2|0:2|0:2,0:0:0:0:
419,184,53206,1,0,3:2:0:0:
282,297,53555,22,0,L|296:349,1,53.9999983520508,8|0,1:2|0:0,0:2:0:0:
206,379,53903,2,0,L|192:322,1,53.9999983520508,8|0,1:2|0:0,0:2:0:0:
111,277,54252,2,0,L|45:295,1,62.9999980773926,8|0,1:2|0:0,0:2:0:0:
14,209,54601,2,0,L|83:191,1,72,8|0,1:2|0:0,0:2:0:0:
137,122,54950,2,0,P|124:83|114:44,2,80.9999975280763,8|0|0,1:2|3:2|3:2,0:2:0:0:
137,122,55648,1,0,0:2:0:0:
272,195,55996,38,0,P|332:145|401:171,1,153.000002918243,6|0,1:2|1:2,0:2:0:0:
478,151,56520,1,0,0:2:0:0:
512,229,56694,2,0,P|504:265|496:314,1,76.5000014591217,10|8,0:2|0:2,0:0:0:0:
414,374,57043,2,0,P|407:337|399:298,1,76.5000014591217,2|8,0:2|0:2,0:2:0:0:
308,258,57392,2,0,B|229:268|251:302|172:321,1,153.000002918243,2|0,0:2|1:2,0:2:0:0:
19,213,58089,2,0,P|28:175|36:138,1,76.5000014591217,10|0,0:2|0:2,0:2:0:0:
11,42,58438,2,0,P|47:52|85:57,1,76.5000014591217,2|0,0:2|0:2,0:2:0:0:
170,144,58787,22,0,P|227:124|281:116,1,114.750002188683,2|0,1:2|0:2,0:2:0:0:
280,116,59136,2,0,P|290:152|297:190,1,76.5000014591217,2|0,1:2|0:2,0:2:0:0:
373,267,59485,2,0,P|444:284|497:233,1,153.000002918243,10|2,0:2|0:2,0:2:0:0:
512,150,60008,1,8,0:2:0:0:
431,121,60182,2,0,B|349:137|379:170|296:190,1,153.000002918243,2|0,0:2|1:2,0:2:0:0:
216,147,60706,1,2,0:2:0:0:
160,217,60880,2,0,P|170:248|181:301,1,76.5000014591217,10|0,0:2|0:2,0:2:0:0:
84,314,61229,2,0,P|73:282|63:230,1,76.5000014591217,2|2,0:2|0:2,0:0:0:0:
156,370,61578,22,0,P|210:320|282:335,1,153.000002918243,2|0,1:2|1:2,0:2:0:0:
346,280,62101,1,2,1:2:0:0:
411,336,62276,2,0,P|447:324|484:316,1,76.5000014591217,10|8,0:2|0:2,0:0:0:0:
501,217,62624,2,0,P|463:209|427:197,1,76.5000014591217,2|8,0:2|0:2,0:2:0:0:
335,161,62973,2,0,P|309:92|359:39,1,153.000002918243,2|0,0:2|1:2,0:2:0:0:
222,179,63671,2,0,P|231:216|238:253,1,76.5000014591217,10|0,0:2|0:2,0:2:0:0:
140,284,64020,2,0,P|130:246|123:209,1,76.5000014591217,2|0,0:2|1:2,0:0:0:0:
140,108,64369,22,0,P|68:93|21:148,1,153.000002918243,2|2,1:2|0:2,0:2:0:0:
38,232,64892,1,0,1:2:0:0:
0,318,65066,1,8,0:2:0:0:
0,318,65415,22,0,B|87:326|50:369|132:384,1,153.000002918243,6|0,1:2|0:2,0:2:0:0:
219,338,65938,1,8,0:2:0:0:
170,273,66113,1,0,1:2:0:0:
170,273,66462,5,12,2:3:0:0:
229,214,66636,1,12,2:3:0:0:
312,220,66810,1,12,2:3:0:0:
365,284,66985,1,12,2:3:0:0:
394,362,67159,6,0,P|407:286|426:212,1,153.000002918243,4|0,1:2|1:2,0:2:0:0:
502,164,67682,1,2,1:2:0:0:
462,85,67857,2,0,P|424:80|386:72,1,76.5000014591217,10|8,0:2|0:2,0:0:0:0:
316,133,68206,2,0,P|278:137|240:145,1,76.5000014591217,2|8,0:2|0:2,0:2:0:0:
177,74,68555,2,0,B|94:101|140:135|58:163,1,153.000002918243,2|0,0:2|1:2,0:2:0:0:
260,305,69252,2,0,P|263:266|272:229,1,76.5000014591217,10|0,0:2|0:2,0:2:0:0:
180,216,69601,2,0,P|176:254|167:291,1,76.5000014591217,0|0,1:2|1:2,0:2:0:0:
221,382,69950,22,0,P|275:365|332:357,1,114.750002188683,2|0,1:2|0:2,0:2:0:0:
332,357,70299,2,0,P|373:370|418:383,1,76.5000014591217,2|0,1:2|0:2,0:2:0:0:
482,340,70648,2,0,P|493:264|512:190,1,153.000002918243,10|2,0:2|0:2,0:2:0:0:
469,112,71171,1,8,0:2:0:0:
396,151,71345,2,0,B|315:151|336:108|255:96,1,153.000002918243,2|2,0:2|1:2,0:2:0:0:
76,163,72043,1,10,0:2:0:0:
0,123,72217,2,0,P|52:71|123:86,1,153.000002918243,2|0,0:2|1:2,0:2:0:0:
188,36,72741,22,0,P|169:110|158:185,1,153.000002918243,6|0,1:2|1:2,0:2:0:0:
96,245,73264,1,0,1:2:0:0:
166,300,73438,2,0,P|204:292|240:284,1,76.5000014591217,8|8,0:2|0:2,0:0:0:0:
294,207,73787,2,0,P|333:215|368:222,1,76.5000014591217,2|8,0:2|0:2,0:0:0:0:
437,304,74136,2,0,P|485:249|463:179,1,153.000002918243,2|0,0:2|1:2,0:2:0:0:
388,123,74659,1,0,1:2:0:0:
450,55,74834,1,10,0:2:0:0:
450,55,75182,2,0,P|413:47|357:33,1,76.5000014591217,0|0,1:2|1:2,0:0:0:0:
264,80,75531,22,0,P|249:155|242:231,1,153.000002918243,14|0,0:2|1:2,0:2:0:0:
306,306,76055,1,8,0:2:0:0:
228,358,76229,2,0,P|190:349|153:344,1,76.5000014591217,2|0,0:2|1:2,0:0:0:0:
41,352,76578,2,0,P|105:327|122:260,1,144,14|0,0:2|0:2,0:2:0:0:
87,179,77101,1,2,1:2:0:0:
154,122,77276,1,8,0:2:0:0:
154,122,77624,21,8,0:2:0:0:
103,50,77799,1,8,0:3:0:0:
23,74,77973,1,4,0:3:0:0:
23,74,78322,5,4,1:2:0:0:
256,192,78496,12,0,80415,0:2:0:0:
117,130,91403,53,0,3:2:0:0:
117,130,91491,1,0,3:2:0:0:
117,130,91578,2,0,L|129:189,1,49.5000015106202,8|8,0:2|0:2,0:0:0:0:
219,186,91927,2,0,L|207:246,1,49.5000015106202,8|4,0:3|0:3,0:2:0:0:
130,287,92276,22,0,P|65:267|-15:252,2,135.000005149842,6|0|8,1:2|1:2|0:2,0:2:0:0:
174,356,93148,1,2,0:2:0:0:
251,318,93322,2,0,P|260:287|271:251,2,67.5000025749208,2|8|2,0:2|0:2|3:2,0:2:0:0:
419,376,94020,1,0,1:2:0:0:
419,376,94369,2,0,P|428:345|439:309,1,67.5000025749208,8|0,0:2|0:2,0:2:0:0:
512,270,94717,2,0,P|503:239|492:203,1,67.5000025749208,0|0,0:2|0:2,0:2:0:0:
421,155,95066,21,2,1:2:0:0:
365,211,95241,2,0,L|300:230,1,67.5000025749208,2|0,0:2|1:2,0:2:0:0:
268,145,95589,2,0,L|333:126,2,67.5000025749208,2|8|2,0:2|0:2|0:2,0:2:0:0:
188,116,96113,2,0,P|179:81|167:46,1,67.5000025749208,2|8,0:2|0:2,0:0:0:0:
92,16,96462,2,0,P|27:26|0:84,1,135.000005149842,2|0,3:2|1:2,0:2:0:0:
0,280,97159,2,0,B|72:259|39:224|111:209,1,135.000005149842,8|0,0:2|3:2,0:2:0:0:
152,140,97682,21,0,3:2:0:0:
152,140,97770,1,0,3:2:0:0:
152,140,97857,2,0,P|165:206|180:271,1,135.000005149842,2|2,1:2|1:2,0:2:0:0:
151,348,98380,2,0,P|118:353|84:364,2,67.5000025749208,0|8|2,0:2|0:2|0:2,0:0:0:0:
228,381,98903,2,0,P|292:360|358:349,1,135.000005149842,2|0,0:2|3:2,0:2:0:0:
495,161,99601,2,0,P|489:127|481:94,1,67.5000025749208,0|0,1:2|3:2,0:2:0:0:
391,114,99950,2,0,P|396:148|404:181,1,67.5000025749208,8|0,0:2|3:2,0:0:0:0:
348,243,100299,22,0,P|410:221|467:253,2,135.000005149842,2|2|2,3:2|1:2|1:2,0:2:0:0:
237,363,101345,1,8,0:2:0:0:
237,363,101694,2,0,P|207:357|147:345,1,67.5000025749208,2|8,0:2|0:2,0:0:0:0:
129,278,102043,2,0,P|95:284|62:291,1,67.5000025749208,0|0,0:0|0:2,0:0:0:0:
30,370,102392,2,0,P|15:287|-1:224,1,135.000005149842,2|8,1:2|0:2,0:2:0:0:
184,124,103089,2,0,P|189:157|198:189,1,67.5000025749208,0|0,0:2|3:2,0:0:0:0:
160,267,103438,22,0,P|211:226|277:245,1,135.000005149842,6|2,1:2|1:2,0:2:0:0:
349,289,103962,2,0,P|337:320|330:353,2,67.5000025749208,0|8|2,0:2|0:2|0:2,0:0:0:0:
438,248,104485,2,0,B|435:182|395:198|392:123,1,135.000005149842,2|0,0:2|3:2,0:2:0:0:
479,0,105182,1,0,1:2:0:0:
479,0,105531,2,0,P|422:32|360:9,1,135.000005149842,8|2,0:2|0:2,0:2:0:0:
193,117,106229,22,0,P|247:79|313:101,1,135.000005149842,2|2,1:2|1:2,0:2:0:0:
374,156,106752,2,0,P|362:189|356:234,2,67.5000025749208,0|8|2,0:2|0:2|0:2,0:0:0:0:
468,172,107276,2,0,P|461:205|452:240,1,67.5000025749208,2|8,0:2|0:2,0:2:0:0:
399,315,107624,2,0,P|432:322|487:337,2,67.5000025749208,0|0|0,3:2|0:0|1:2,0:2:0:0:
267,215,108322,2,0,B|197:225|219:256|146:271,1,135.000005149842,8|0,0:2|3:2,0:2:0:0:
111,350,108845,21,0,3:2:0:0:
111,350,108932,1,0,3:2:0:0:
111,350,109020,2,0,P|100:283|85:209,1,135.000005149842,2|2,1:2|1:2,0:2:0:0:
6,182,109543,2,0,P|15:150|24:113,1,67.5000025749208,0|8,0:2|0:2,0:0:0:0:
87,55,109892,1,2,0:2:0:0:
150,111,110066,2,0,P|211:133|267:100,2,135.000005149842,2|0|2,0:2|3:2|1:2,0:2:0:0:
352,0,111113,1,8,0:2:0:0:
352,0,111462,2,0,L|371:68,1,67.5000025749208,2|0,3:2|3:2,0:0:0:0:
463,114,111810,22,0,P|444:178|433:245,1,135.000005149842,2|0,1:2|1:2,0:2:0:0:
318,370,112508,2,0,P|285:361|251:358,1,67.5000025749208,8|0,0:2|0:2,0:0:0:0:
202,280,112857,2,0,P|169:288|135:291,1,67.5000025749208,0|0,3:2|3:2,0:0:0:0:
72,366,113206,1,8,0:2:0:0:
0,328,113380,2,0,B|-10:261|37:263|31:200,1,135.000005149842,8|0,0:2|1:2,0:2:0:0:
9,109,113903,2,0,P|43:117|85:126,1,67.5000025749208,8|0,0:2|0:2,0:2:0:0:
133,178,114252,1,8,0:2:0:0:
187,118,114427,1,8,0:2:0:0:
251,176,114601,22,0,P|237:246|227:317,1,144,6|2,1:2|1:2,0:2:0:0:
425,354,115299,2,0,P|439:284|449:213,1,144,10|0,0:2|0:2,0:2:0:0:
512,73,115996,2,0,P|478:67|434:59,1,72,2|0,0:3|0:2,0:2:0:0:
375,0,116345,2,0,P|341:5|297:14,1,72,2|0,1:2|0:2,0:2:0:0:
241,78,116694,2,0,P|249:113|257:152,1,72,10|0,0:2|0:2,0:2:0:0:
338,188,117043,2,0,P|329:223|322:262,1,72,2|0,0:2|0:2,0:2:0:0:
240,319,117392,22,0,B|163:318|183:281|103:278,1,144,2|0,1:2|1:2,0:2:0:0:
0,146,118089,2,0,P|43:91|112:96,1,144,10|2,0:2|0:2,0:2:0:0:
282,24,118787,2,0,P|272:58|267:94,1,72,2|0,0:3|0:2,0:2:0:0:
355,118,119136,2,0,P|364:83|369:47,1,72,2|0,1:2|0:2,0:2:0:0:
305,179,119485,2,0,P|361:138|426:162,1,144,10|0,0:2|0:2,0:2:0:0:
480,232,120008,1,2,0:2:0:0:
409,282,120182,22,0,B|327:285|353:324|278:334,1,144,2|0,1:2|1:2,0:2:0:0:
145,240,120880,2,0,P|135:202|131:167,1,72,10|0,0:2|0:2,0:2:0:0:
25,162,121229,2,0,P|44:226|59:314,2,144,2|2|0,0:2|0:3|1:2,0:2:0:0:
228,75,122276,1,10,0:2:0:0:
227,75,122624,22,0,P|158:85|107:37,2,144,2|2|2,0:2|1:2|1:2,0:2:0:0:
346,186,123671,2,0,P|277:193|247:255,1,144,10|0,0:2|0:2,0:2:0:0:
432,368,124369,2,0,P|473:312|452:246,1,144,2|0,0:3|1:2,0:0:0:0:
347,294,125066,1,14,0:2:0:0:
347,294,125415,1,8,0:2:0:0:
287,350,125589,1,8,0:2:0:0:
214,309,125764,22,0,B|129:306|152:345|78:348,2,144,6|2|10,1:2|1:2|0:2,0:2:0:0:
294,183,126810,1,2,0:2:0:0:
294,183,127159,2,0,P|259:123|294:63,1,144,2|0,0:3|1:2,0:2:0:0:
512,60,127857,2,0,P|505:93|498:130,1,72,10|0,0:2|0:2,0:2:0:0:
427,183,128206,2,0,P|435:218|440:253,1,72,2|0,0:2|0:2,0:2:0:0:
485,332,128555,22,0,P|452:338|411:350,1,72,2|0,1:2|0:0,0:2:0:0:
346,285,128903,2,0,P|313:278|272:267,1,72,2|0,1:2|0:2,0:2:0:0:
192,318,129252,2,0,B|117:319|131:357|56:358,1,144,10|0,0:2|0:2,0:2:0:0:
0,294,129776,1,8,0:2:0:0:
50,223,129950,2,0,P|40:188|32:153,1,72,2|0,0:3|0:2,0:2:0:0:
119,123,130299,2,0,P|128:157|136:192,1,72,2|0,1:2|0:2,0:2:0:0:
211,239,130648,2,0,P|248:227|283:220,1,72,10|0,0:2|0:2,0:2:0:0:
337,159,130996,2,0,P|374:171|409:178,1,72,2|0,0:2|0:0,0:2:0:0:
462,255,131345,22,0,P|508:203|490:137,1,144,2|0,1:2|1:2,0:2:0:0:
432,79,131869,2,0,P|439:43|449:9,2,72,2|8|0,0:2|0:2|0:2,0:0:0:0:
350,106,132392,2,0,B|275:99|295:64|218:52,1,144,2|2,0:2|0:3,0:0:0:0:
91,228,133089,1,2,1:2:0:0:
91,228,133438,2,0,P|127:216|166:208,1,72,8|0,0:2|1:2,0:0:0:0:
216,144,133787,2,0,P|197:213|185:284,1,144,10|0,0:2|0:2,0:2:0:0:
185,284,135531,38,0,L|170:336,2,53.9999983520508,8|8|8,0:1|0:1|0:1,0:0:0:0:
116,363,135868,2,0,L|45:345,2,53.9999983520508,8|8|8,0:1|0:1|0:1,0:0:0:0:
32,303,136205,2,8,L|45:250,2,53.9999983520508,8|8|8,0:1|0:1|0:1,0:1:0:0:
84,205,136542,2,0,L|70:152,2,53.9999983520508,8|8|8,0:1|0:1|0:1,0:0:0:0:
44,105,136927,22,0,P|113:127|169:80,1,153.000002918243,6|0,1:2|1:2,0:2:0:0:
328,200,137624,1,8,0:2:0:0:
328,200,137799,1,8,0:2:0:0:
241,223,137973,2,0,P|245:184|251:147,1,76.5000014591217,2|8,0:2|0:2,0:2:0:0:
322,82,138322,2,0,B|408:87|371:133|453:149,1,153.000002918243,2|0,0:2|1:2,0:2:0:0:
450,354,139020,2,0,P|413:360|375:369,1,76.5000014591217,10|0,0:2|0:2,0:2:0:0:
351,276,139368,2,0,P|386:268|425:260,1,76.5000014591217,2|0,0:2|1:2,0:0:0:0:
277,351,139717,22,0,P|231:321|233:266,1,114.750002188683,6|0,1:2|0:2,0:2:0:0:
233,266,140066,2,0,P|240:228|253:190,1,76.5000014591217,2|0,1:2|0:2,0:2:0:0:
178,122,140415,2,0,P|104:120|64:181,1,153.000002918243,10|2,0:2|0:2,0:2:0:0:
0,238,140938,1,8,0:2:0:0:
50,308,141113,2,0,B|136:304|106:346|192:353,1,153.000002918243,2|0,0:2|1:2,0:0:0:0:
245,285,141636,1,2,0:2:0:0:
322,338,141810,2,0,P|357:328|401:319,1,76.5000014591217,10|0,0:2|0:2,0:2:0:0:
438,240,142159,2,0,P|473:249|517:259,1,76.5000014591217,10|8,0:2|0:2,0:0:0:0:
377,162,142508,22,0,P|366:89|424:45,1,153.000002918243,6|0,1:2|1:2,0:2:0:0:
509,38,143031,1,0,1:2:0:0:
424,45,143206,2,0,P|386:36|349:27,1,76.5000014591217,10|0,0:2|0:2,0:2:0:0:
287,101,143554,2,0,P|249:109|212:118,1,76.5000014591217,2|8,0:2|0:2,0:0:0:0:
141,58,143903,2,0,B|58:68|87:105|6:124,1,153.000002918243,2|0,0:2|1:2,0:2:0:0:
113,275,144601,2,0,P|118:237|128:200,1,76.5000014591217,10|0,0:2|0:2,0:2:0:0:
213,218,144950,2,0,P|207:255|197:292,1,76.5000014591217,2|0,0:2|1:2,0:0:0:0:
147,375,145299,22,0,P|209:333|286:363,1,153.000002918243,6|2,1:2|0:2,0:2:0:0:
355,301,145822,1,0,1:2:0:0:
429,363,145996,2,0,P|436:324|449:284,1,76.5000014591217,10|0,0:2|1:2,0:0:0:0:
398,201,146345,1,8,0:2:0:0:
398,201,146694,21,2,0:2:0:0:
429,117,146868,1,0,1:2:0:0:
360,64,147043,1,8,0:2:0:0:
360,64,147392,37,12,2:3:0:0:
276,61,147566,1,12,2:3:0:0:
218,122,147740,1,12,2:3:0:0:
241,203,147915,1,12,2:3:0:0:
311,248,148089,38,0,B|391:262|359:300|441:320,1,153.000002918243,4|0,1:2|1:2,0:2:0:0:
509,269,148613,1,0,1:2:0:0:
441,320,148787,2,0,P|403:330|366:337,1,76.5000014591217,10|8,0:2|0:2,0:0:0:0:
295,384,149136,2,0,P|257:375|220:366,1,76.5000014591217,2|8,0:2|0:2,0:2:0:0:
158,294,149485,2,0,P|85:287|41:346,1,153.000002918243,2|0,0:2|1:2,0:2:0:0:
255,205,150182,2,0,P|262:167|273:130,1,76.5000014591217,10|0,0:2|0:2,0:2:0:0:
188,104,150531,2,0,P|180:141|169:178,1,76.5000014591217,8|8,0:2|0:2,0:0:0:0:
208,274,150880,22,0,P|261:260|330:248,1,114.750002188683,6|0,1:2|0:2,0:2:0:0:
320,249,151229,2,0,P|356:262|406:274,1,76.5000014591217,2|0,1:2|1:2,0:2:0:0:
478,251,151578,2,0,P|516:188|490:119,1,153.000002918243,10|2,0:2|0:2,0:2:0:0:
424,58,152101,1,8,0:2:0:0:
355,104,152275,2,0,P|279:117|204:130,1,153.000002918243,2|2,0:2|1:2,0:2:0:0:
12,151,152973,1,10,0:2:0:0:
34,71,153147,2,0,P|94:112|94:186,1,153.000002918243,2|0,0:2|1:2,0:2:0:0:
0,255,153671,22,0,B|84:260|56:302|141:321,1,153.000002918243,6|0,1:2|1:2,0:2:0:0:
206,263,154194,1,0,1:2:0:0:
258,333,154368,2,0,P|294:343|332:350,1,76.5000014591217,10|8,0:2|0:2,0:0:0:0:
417,312,154717,2,0,P|425:274|434:238,1,76.5000014591217,2|8,0:2|0:2,0:0:0:0:
475,157,155066,2,0,P|416:203|345:176,1,153.000002918243,2|0,0:2|1:2,0:2:0:0:
197,73,155764,2,0,P|207:32|218:-7,1,76.5000014591217,10|0,0:2|0:2,0:2:0:0:
301,20,156113,2,0,P|290:60|280:100,1,76.5000014591217,2|0,0:2|1:2,0:0:0:0:
203,171,156461,22,0,P|129:150|54:132,1,153.000002918243,14|2,0:2|0:2,0:2:0:0:
2,204,156985,1,8,0:2:0:0:
56,270,157159,2,0,P|46:309|38:348,1,76.5000014591217,2|0,0:2|1:2,0:2:0:0:
149,263,157508,2,0,B|233:269|203:310|289:315,1,153.000002918243,14|0,0:2|0:2,0:2:0:0:
368,267,158031,1,0,1:2:0:0:
321,198,158206,1,10,0:2:0:0:
321,198,158554,5,8,0:2:0:0:
383,137,158729,1,8,0:2:0:0:
463,176,158903,1,8,0:3:0:0:
463,176,159252,6,0,P|478:105|493:19,2,135.000005149842,6|8|8,1:2|1:2|1:2,0:2:0:0:
345,360,160299,2,0,P|338:326|331:293,1,67.5000025749208,8|0,1:2|1:2,0:0:0:0:
243,249,160647,2,0,B|168:257|197:297|125:307,1,135.000005149842,14|8,0:2|0:3,0:2:0:0:
40,269,161171,1,8,0:3:0:0:
83,198,161345,1,2,0:2:0:0:
83,198,161520,1,4,0:3:0:0:
24,134,161694,1,4,0:3:0:0:
24,134,161868,1,4,0:3:0:0:
79,67,162043,38,0,P|146:77|204:86,1,125.999996154785,6|4,1:2|0:3,0:2:0:0:
261,147,162566,2,0,P|322:131|384:120,1,125.999996154785,8|0,0:3|0:2,0:2:0:0:
442,53,163089,1,14,0:3:0:0:
505,110,163264,2,0,P|490:167|476:254,1,125.999996154785,4|8,0:3|0:3,0:2:0:0:
503,314,163787,1,8,0:3:0:0:
270,366,164136,2,0,L|208:353,2,62.9999980773926,8|4|4,0:3|0:3|0:3,0:0:0:0:
353,325,164659,21,8,0:3:0:0:
353,325,164746,1,8,0:3:0:0:
353,325,164833,2,0,P|362:256|378:184,1,125.999996154785,4|4,1:2|0:3,0:2:0:0:
312,135,165357,2,0,B|246:133|264:164|192:168,1,125.999996154785,8|4,0:3|0:3,0:2:0:0:
122,118,165880,1,14,0:3:0:0:
44,166,166054,2,0,P|53:214|64:292,1,125.999996154785,4|8,0:3|0:3,0:2:0:0:
15,354,166578,1,8,0:3:0:0:
197,372,166927,2,0,P|228:363|267:358,1,62.9999980773926,8|4,0:3|0:3,0:2:0:0:
303,292,167275,2,0,P|338:299|373:306,1,62.9999980773926,4|8,0:3|0:3,0:0:0:0:
364,304,167537,1,8,0:3:0:0:
364,304,167624,22,0,P|407:261|402:200,1,125.999996154785,4|4,1:2|0:3,0:2:0:0:
338,138,168147,2,0,P|308:146|271:154,2,62.9999980773926,8|0|4,0:3|0:0|0:3,0:2:0:0:
385,61,168671,1,14,0:3:0:0:
315,18,168845,2,0,P|259:30|185:42,1,125.999996154785,4|8,0:3|0:3,0:2:0:0:
119,0,169368,1,8,0:3:0:0:
82,75,169543,2,0,L|99:153,2,62.9999980773926,4|8|0,0:3|0:3|0:2,0:2:0:0:
0,96,170066,2,0,P|6:124|13:162,1,62.9999980773926,8|4,0:3|0:3,0:0:0:0:
90,232,170415,22,0,B|157:228|138:199|209:196,1,125.999996154785,4|4,1:2|0:3,0:2:0:0:
277,254,170938,2,0,P|269:284|266:315,2,62.9999980773926,8|4|4,0:3|0:3|0:3,0:2:0:0:
345,201,171461,1,14,0:3:0:0:
416,251,171636,2,0,P|476:253|512:204,1,125.999996154785,4|8,0:3|0:3,0:2:0:0:
512,107,172159,2,0,P|484:101|450:92,1,62.9999980773926,4|0,0:3|1:2,0:0:0:0:
374,31,172508,2,0,L|358:102,2,62.9999980773926,8|2|8,0:2|0:2|0:3,0:0:0:0:
450,92,173031,1,2,0:2:0:0:
384,167,173206,6,0,P|335:122|266:135,1,135.000005149842,6|0,1:2|1:2,0:2:0:0:
200,192,173726,1,0,1:2:0:0:
126,148,173899,1,8,0:2:0:0:
126,148,174246,1,8,0:3:0:0:
59,209,174419,2,0,L|71:280,1,67.5000025749208,4|4,0:3|0:3,0:2:0:0:
37,353,174766,1,4,0:3:0:0:
118,380,174940,2,0,L|192:363,1,67.5000025749208,8|0,0:3|1:2,0:0:0:0:
249,294,175286,2,0,L|323:311,1,67.5000025749208,8|0,0:2|0:2,0:2:0:0:
380,370,175633,1,4,0:3:0:0:
380,370,175807,1,2,0:2:0:0:
444,308,175980,38,0,B|445:234|482:253|487:182,1,135.000005149842,6|0,1:2|1:2,0:2:0:0:
438,98,176503,1,0,1:2:0:0:
354,145,176677,1,8,0:2:0:0:
354,145,177026,1,10,0:3:0:0:
287,75,177200,2,0,P|295:42|301:4,2,67.5000025749208,4|4|4,0:3|0:3|0:3,0:0:0:0:
209,130,177724,1,8,0:3:0:0:
209,130,177898,1,0,1:2:0:0:
131,64,178073,2,0,P|57:49|14:94,1,135.000005149842,8|4,0:2|0:3,0:2:0:0:
0,172,178596,1,0,1:2:0:0:
82,220,178770,6,0,P|95:286|100:353,2,135.000005149842,14|4|10,0:2|0:3|0:2,0:2:0:0:
250,189,179810,2,0,P|255:222|261:255,1,67.5000025749208,10|0,0:2|0:2,0:2:0:0:
338,318,180157,2,0,B|377:308|416:305,1,67.5000025749208,10|0,0:2|0:0,0:2:0:0:
476,243,180504,2,0,P|470:209|465:175,1,67.5000025749208,10|0,0:2|0:2,0:2:0:0:
396,98,180850,1,10,0:2:0:0:
340,162,181024,1,2,1:2:0:0:
396,98,181197,2,0,P|386:53|381:-2,1,90.0000034332277,14|8,0:2|0:2,0:2:0:0:
341,2,181544,38,2,B|296:19|314:41|250:57,1,107.999996704102,4|10,1:2|0:2,0:2:0:0:
196,75,181896,2,0,P|189:50|179:19,2,53.9999983520508,8|8|8,0:2|0:2|0:2,0:0:0:0:
161,111,182249,2,0,P|109:115|85:161,1,107.999996704102,14|8,1:2|0:2,0:2:0:0:
65,204,182602,2,0,P|41:196|3:185,2,53.9999983520508,8|8|8,0:2|0:2|0:2,0:0:0:0:
97,246,182955,6,0,L|74:353,1,107.999996704102,14|8,1:2|0:2,0:2:0:0:
123,384,183308,1,8,0:2:0:0:
123,384,183426,1,8,0:2:0:0:
123,384,183544,1,8,0:2:0:0:
123,384,183661,2,0,L|185:373,2,53.9999983520508,14|8|8,1:2|0:2|0:2,0:2:0:0:
202,332,184014,2,0,L|264:343,2,53.9999983520508,8|12|12,0:3|0:3|0:3,0:0:0:0:
299,374,184368,22,2,P|306:327|316:281,1,80.9999975280763,6|0,1:1|0:2,0:1:0:0:
276,202,184716,2,2,B|310:168|355:182|355:182|373:221|413:225,1,161.999995056153,2|8,1:1|0:2,0:1:0:0:
497,187,185240,2,2,P|501:146|512:107,1,80.9999975280763,8|0,0:2|0:2,0:1:0:0:
463,37,185588,1,10,0:2:0:0:
387,76,185763,2,2,P|348:63|308:56,1,80.9999975280763,2|0,0:2|0:2,0:1:0:0:
237,0,186112,2,0,P|225:38|218:78,1,80.9999975280763,2|0,1:0|1:0,0:0:0:0:
137,112,186461,2,2,B|135:192|198:176|195:257,1,161.999995056153,8|2,0:0|0:0,0:1:0:0:
147,324,186984,1,2,0:0:0:0:
59,304,187158,22,0,P|46:258|33:217,1,80.9999975280763,2|0,1:2|0:0,0:0:0:0:
0,144,187507,2,0,P|11:99|18:64,1,80.9999975280763,2|0,1:2|0:0,0:0:0:0:
96,9,187856,1,10,0:0:0:0:
96,9,188030,1,8,0:0:0:0:
153,75,188205,2,0,P|189:86|232:91,1,80.9999975280763,2|8,0:0|0:0,0:0:0:0:
318,158,188554,2,0,P|332:120|337:80,2,80.9999975280763,2|10|0,0:0|0:0|1:2,0:0:0:0:
247,199,189077,1,2,0:0:0:0:
307,259,189251,2,0,P|345:269|388:276,1,80.9999975280763,10|0,0:0|0:0,0:0:0:0:
473,250,189600,1,10,0:0:0:0:
473,250,189774,1,10,0:0:0:0:
434,165,189949,22,0,P|440:125|449:85,1,80.9999975280763,2|0,1:2|0:0,0:0:0:0:
350,63,190298,2,0,P|343:102|334:142,1,80.9999975280763,2|0,1:2|0:0,0:0:0:0:
261,197,190647,1,10,0:0:0:0:
261,197,190821,1,10,0:0:0:0:
201,130,190995,2,0,P|161:119|121:115,1,80.9999975280763,2|10,0:0|0:0,0:0:0:0:
32,56,191344,2,0,P|23:96|17:135,1,80.9999975280763,2|8,0:0|0:0,0:0:0:0:
88,196,191693,2,0,P|81:236|73:275,1,80.9999975280763,2|0,1:2|0:0,0:0:0:0:
0,316,192042,1,10,0:0:0:0:
42,382,192216,1,0,0:0:0:0:
119,354,192391,1,2,0:0:0:0:
119,354,192740,21,6,1:1:0:0:
192,315,192914,1,2,0:2:0:0:
250,376,193088,1,2,0:1:0:0:
313,317,193263,1,2,1:2:0:0:
399,360,193437,2,0,B|422:328|422:328|403:291,1,80.9999975280763,10|2,0:1|1:2,0:0:0:0:
333,220,193786,2,0,B|309:188|309:188|328:151,1,80.9999975280763,14|0,1:1|0:1,0:0:0:0:
301,53,194135,22,0,P|340:62|383:73,2,80.9999975280763,2|0|10,0:1|1:0|0:1,0:0:0:0:
236,1,194658,1,10,0:1:0:0:
160,24,194833,1,14,0:3:0:0:
116,89,195007,1,14,0:3:0:0:
130,164,195181,1,6,0:3:0:0:
201,205,195356,1,6,0:3:0:0:
287,196,195530,22,2,L|298:138,5,53.9999983520508,6|2|2|2|2|2,1:2|0:0|0:0|0:0|0:0|0:0,0:0:0:0:
339,112,196228,2,0,L|404:123,5,53.9999983520508,10|2|2|2|2|2,0:0|0:0|0:0|0:0|0:0|0:0,0:0:0:0:
434,154,196926,2,0,L|417:242,1,80.9999975280763,2|8,0:0|0:0,0:0:0:0:
495,290,197274,2,0,P|422:267|365:319,1,161.999995056153,2|8,1:2|0:0,0:0:0:0:
283,370,197798,1,2,0:0:0:0:
283,370,197885,1,2,0:0:0:0:
283,370,197972,2,0,L|196:356,1,80.9999975280763,10|8,0:0|0:0,0:0:0:0:
127,290,198321,22,0,B|136:202|199:232|205:154,1,161.999995056153,6|2,1:2|1:2,0:0:0:0:
156,90,198844,1,2,0:0:0:0:
81,134,199019,2,0,P|43:127|1:115,1,80.9999975280763,10|10,0:0|0:0,0:0:0:0:
0,245,199368,1,2,0:0:0:0:
0,245,199455,1,2,0:0:0:0:
0,245,199542,2,0,P|76:231|126:290,1,161.999995056153,10|2,0:0|0:0,0:0:0:0:
225,277,200065,2,0,P|213:315|204:355,1,80.9999975280763,2|2,1:2|1:2,0:0:0:0:
307,384,200414,1,10,0:0:0:0:
307,384,200763,2,0,P|315:344|325:305,1,80.9999975280763,8|4,0:0|0:3,0:0:0:0:
409,239,201112,22,0,P|450:246|491:256,1,80.9999975280763,6|0,1:2|0:0,0:0:0:0:
512,163,201461,2,0,P|471:156|430:146,1,80.9999975280763,2|2,1:2|1:2,0:0:0:0:
375,75,201809,1,10,0:0:0:0:
375,75,201984,1,10,0:0:0:0:
281,105,202158,2,0,P|274:144|266:184,1,80.9999975280763,2|10,0:0|0:0,0:0:0:0:
350,235,202507,2,0,P|340:276|332:316,1,80.9999975280763,2|8,0:0|0:0,0:0:0:0:
272,377,202856,2,0,P|235:368|192:362,1,80.9999975280763,2|0,1:2|0:0,0:0:0:0:
150,286,203205,1,8,0:0:0:0:
150,286,203379,1,2,0:0:0:0:
79,334,203554,2,0,P|39:339|-3:352,1,80.9999975280763,0|2,1:2|1:2,0:0:0:0:
76,226,203902,22,0,P|72:185|60:146,2,80.9999975280763,12|0|0,0:0|0:0|1:0,0:0:0:0:
164,206,204426,1,8,0:0:0:0:
164,206,204600,2,0,P|152:167|148:126,1,80.9999975280763,2|0,0:0|1:0,0:0:0:0:
213,54,204949,2,0,P|254:43|304:43,1,80.9999975280763,12|2,0:0|0:0,0:0:0:0:
354,96,205298,2,0,P|393:102|434:104,1,80.9999975280763,2|8,1:2|0:0,0:0:0:0:
479,193,205647,1,0,0:0:0:0:
479,193,205821,1,2,1:2:0:0:
401,251,205995,2,0,B|314:275|350:313|269:339,1,161.999995056153,14|0,0:0|1:0,0:0:0:0:
203,286,206519,1,0,1:0:0:0:
107,352,206693,22,0,P|63:287|97:218,1,161.999995056153,14|4,0:0|0:3,0:0:0:0:
144,135,207216,1,4,0:3:0:0:
222,177,207391,1,4,0:3:0:0:
302,139,207565,1,12,0:3:0:0:
298,49,207740,1,12,0:3:0:0:
220,5,207914,1,12,0:3:0:0:
219,87,208088,6,0,P|315:54|472:25,2,251.999992309571,14|0|4,0:2|0:0|1:2,0:0:0:0:
0,213,230261,53,0,3:2:0:0:
0,213,230350,1,0,3:2:0:0:
0,213,230439,2,0,P|8:271|16:352,1,125.999996154785,8|8,0:2|0:2,0:2:0:0:
236,299,231123,2,0,P|230:267|228:236,1,62.9999980773926,8|8,0:2|0:2,0:0:0:0:
156,182,231466,2,0,P|125:188|93:190,1,62.9999980773926,8|4,0:3|0:3,0:0:0:0:
174,93,231809,6,0,B|254:109|216:145|303:166,1,153.000002918243,6|0,1:2|1:2,0:2:0:0:
370,110,232333,1,0,0:2:0:0:
416,186,232507,2,0,P|402:222|393:268,1,76.5000014591217,8|8,0:2|0:2,0:0:0:0:
491,284,232856,2,0,P|504:247|514:202,1,76.5000014591217,2|8,0:2|0:2,0:2:0:0:
421,340,233205,2,0,P|373:283|299:288,1,153.000002918243,2|0,0:2|1:2,0:2:0:0:
72,273,233902,2,0,P|80:305|94:355,1,76.5000014591217,10|0,0:2|0:2,0:2:0:0:
178,318,234251,2,0,P|169:285|156:236,1,76.5000014591217,2|0,0:2|0:2,0:2:0:0:
80,163,234600,22,0,P|66:101|47:45,1,114.750002188683,2|0,1:2|0:2,0:2:0:0:
49,52,234949,2,0,P|84:43|128:31,1,76.5000014591217,2|0,1:2|0:2,0:2:0:0:
203,72,235298,2,0,B|283:80|248:123|335:141,1,153.000002918243,8|2,0:2|0:2,0:0:0:0:
400,75,235821,1,8,0:2:0:0:
484,117,235995,2,0,P|520:179|479:238,1,153.000002918243,2|0,0:2|1:2,0:2:0:0:
396,214,236519,1,2,0:2:0:0:
346,287,236693,2,0,P|355:320|361:366,1,76.5000014591217,10|0,0:2|0:2,0:2:0:0:
265,384,237042,2,0,P|255:351|250:305,1,76.5000014591217,2|0,0:2|0:2,0:2:0:0:
141,241,237391,22,0,P|68:249|41:316,1,153.000002918243,6|0,1:2|1:2,0:2:0:0:
131,334,237914,1,0,1:2:0:0:
41,316,238088,2,0,P|35:278|25:241,1,76.5000014591217,8|8,0:2|0:2,0:0:0:0:
80,165,238437,2,0,P|85:127|95:90,1,76.5000014591217,2|8,0:2|0:2,0:2:0:0:
26,42,238786,2,0,P|99:61|175:69,1,153.000002918243,2|0,0:2|1:2,0:2:0:0:
262,209,239484,2,0,P|253:245|250:294,1,76.5000014591217,10|0,0:2|0:2,0:2:0:0:
344,299,239833,2,0,P|353:263|356:214,1,76.5000014591217,2|0,0:2|1:2,0:0:0:0:
294,366,240181,22,0,P|352:319|426:343,1,153.000002918243,6|2,1:2|0:2,0:2:0:0:
499,384,240705,1,0,1:2:0:0:
512,299,240879,2,0,P|502:256|495:212,1,76.5000014591217,10|0,0:2|1:2,0:2:0:0:
419,177,241228,1,12,0:2:0:0:
419,177,241577,21,2,0:2:0:0:
471,110,241751,1,0,1:2:0:0:
420,41,241926,1,8,0:2:0:0:
420,41,242274,5,8,0:2:0:0:
336,41,242449,1,8,0:2:0:0:
276,97,242623,1,8,0:2:0:0:
293,177,242797,1,8,0:2:0:0:
373,206,242971,38,0,P|301:217|214:250,1,153.000002918243,6|0,1:2|1:2,0:2:0:0:
173,315,243495,1,0,1:2:0:0:
98,273,243670,2,0,P|89:235|78:199,1,76.5000014591217,8|8,0:2|0:2,0:0:0:0:
156,148,244019,2,0,P|164:110|175:74,1,76.5000014591217,2|8,0:2|0:2,0:2:0:0:
233,17,244368,2,0,B|150:17|181:64|93:69,1,153.000002918243,2|0,0:2|1:2,0:2:0:0:
0,219,245065,2,0,P|9:251|19:296,1,76.5000014591217,10|0,0:2|0:2,0:2:0:0:
95,337,245414,2,0,P|131:324|168:316,1,76.5000014591217,2|0,0:2|0:2,0:2:0:0:
248,223,245763,22,0,P|295:243|364:257,1,114.750002188683,2|0,1:2|0:2,0:2:0:0:
357,256,246112,2,0,P|365:214|378:176,1,76.5000014591217,2|0,0:2|1:2,0:2:0:0:
351,89,246461,2,0,P|424:83|469:141,1,153.000002918243,10|2,0:2|0:2,0:2:0:0:
499,227,246984,1,8,0:2:0:0:
436,287,247158,2,0,P|424:322|416:370,2,76.5000014591217,2|0|2,0:2|0:0|1:2,0:2:0:0:
378,222,247681,1,0,1:2:0:0:
313,285,247856,1,14,0:2:0:0:
241,240,248030,2,0,B|159:248|186:284|102:300,1,153.000002918243,2|0,0:2|1:2,0:2:0:0:
81,374,248554,22,0,P|69:290|53:223,1,153.000002918243,6|0,1:2|0:2,0:2:0:0:
91,146,249077,1,0,1:2:0:0:
172,189,249251,2,0,P|215:177|259:168,1,76.5000014591217,10|8,0:2|0:2,0:0:0:0:
305,251,249600,2,0,P|348:262|392:272,1,76.5000014591217,2|8,0:2|0:2,0:0:0:0:
475,259,249949,2,0,P|520:200|502:128,1,153.000002918243,2|0,0:2|1:2,0:2:0:0:
317,10,250647,2,0,P|307:47|300:84,1,76.5000014591217,10|0,0:2|0:2,0:2:0:0:
391,112,250995,2,0,P|400:74|407:37,1,76.5000014591217,0|0,1:2|1:2,0:0:0:0:
304,178,251344,22,0,P|216:152|143:146,1,153.000002918243,6|2,1:2|0:2,0:2:0:0:
76,188,251868,1,0,1:2:0:0:
23,124,252042,1,8,0:2:0:0:
23,124,252391,2,0,P|29:86|35:48,1,76.5000014591217,12|0,0:2|0:2,0:2:0:0:
123,0,252740,2,0,P|163:6|209:6,2,76.5000014591217,2|0|8,0:2|1:2|0:2,0:0:0:0:
35,48,253263,1,2,0:2:0:0:
120,109,253437,2,0,P|158:110|211:118,1,76.5000014591217,10|10,0:2|0:2,0:0:0:0:
269,60,253786,1,8,0:2:0:0:
338,122,253961,1,8,0:2:0:0:
260,186,254135,22,0,P|248:268|242:342,1,153.000002918243,6|0,1:2|0:2,0:2:0:0:
313,384,254658,1,2,1:2:0:0:
387,337,254833,2,0,P|437:314|485:343,1,114.750002188683,10|0,0:2|0:0,0:2:0:0:
484,342,255181,2,0,P|488:303|495:264,1,76.5000014591217,2|0,0:2|0:2,0:2:0:0:
444,182,255530,2,0,P|386:181|331:167,1,114.750002188683,10|0,0:2|0:2,0:2:0:0:
331,167,255879,1,0,1:2:0:0:
175,51,256228,2,0,P|166:88|161:126,1,76.5000014591217,10|0,0:2|0:0,0:2:0:0:
94,176,256577,1,2,1:2:0:0:
94,176,256751,1,0,1:2:0:0:
130,263,256926,22,0,P|199:289|265:247,1,153.000002918243,14|0,0:2|1:2,0:2:0:0:
301,163,257449,1,8,0:2:0:0:
373,231,257623,2,0,P|411:237|454:251,1,76.5000014591217,2|0,0:2|1:2,0:2:0:0:
512,188,257972,2,0,P|487:262|468:369,1,153.000002918243,14|0,0:2|0:2,0:2:0:0:
372,382,258495,1,2,1:2:0:0:
315,301,258670,1,10,0:2:0:0:
315,301,259019,21,8,0:2:0:0:
226,296,259193,1,8,0:3:0:0:
174,365,259368,1,4,0:3:0:0:
174,365,259716,37,4,1:2:0:0:
256,192,259804,12,0,261809,0:2:0:0:
249,184,262507,21,4,1:2:0:0:
