osu file format v14

[General]
AudioFilename: audio.mp3
AudioLeadIn: 0
PreviewTime: 62100
Countdown: 0
SampleSet: Soft
StackLeniency: 0.5
Mode: 0
LetterboxInBreaks: 0
WidescreenStoryboard: 1

[Editor]
Bookmarks: 79822,94338
DistanceSpacing: 0.8
BeatDivisor: 4
GridSize: 32
TimelineZoom: 1.2

[Metadata]
Title:LOSING SLEEP (feat. Kelsey Kuan)
TitleUnicode:LOSING SLEEP (feat. Kelsey Kuan)
Artist:City Girl
ArtistUnicode:City Girl
Creator:xandeez nuts
Version:NORMAL
Source:
Tags:C-Girl female vocalist vocals english hip hop lo-fi pop acoustic lofi hip-hop hiphop ft. featuring [poke]
BeatmapID:3114504
BeatmapSetID:1521806

[Difficulty]
HPDrainRate:3.1
CircleSize:3.6
OverallDifficulty:3.7
ApproachRate:4.8
SliderMultiplier:1.1
SliderTickRate:1

[Events]
//Background and Video events
0,0,"EHwaU26.png",0,0
//Break Periods
2,79798,93101
//Storyboard Layer 0 (Background)
//Storyboard Layer 1 (Fail)
//Storyboard Layer 2 (Pass)
//Storyboard Layer 3 (Foreground)
//Storyboard Layer 4 (Overlay)
//Storyboard Sound Samples

[TimingPoints]
1422,483.870967741935,4,2,1,40,1,0
16905,-111.111111111111,4,2,1,40,0,0
32389,-111.111111111111,4,2,1,50,0,0
47873,-111.111111111111,4,2,1,35,0,0
63347,483.870967741935,4,2,1,60,1,0
63347,-100,4,2,1,60,0,1
78830,-100,4,2,1,60,0,0
94324,483.870967741935,4,2,1,60,1,0
109807,-111.111111111111,4,2,1,35,0,0
125282,483.870967741935,4,2,1,70,1,0
125282,-100,4,2,1,70,0,1
140765,-100,4,2,1,70,0,0
142590,-23.8095238095238,4,2,1,70,0,0
144646,-23.8095238095238,4,2,1,5,0,0

[Colours]
Combo1 : 63,222,199
Combo2 : 215,68,71
Combo3 : 68,46,194
Combo4 : 181,204,17

[HitObjects]
39,46,16905,5,2,3:0:0:0:
108,101,17389,2,0,P|154:101|194:48,1,98.9999969787599,2|10,0:0|0:2,0:0:0:0:
258,121,18357,1,2,0:0:0:0:
315,59,18841,1,2,3:0:0:0:
442,114,19567,1,2,0:0:0:0:
442,114,19809,2,0,P|463:154|469:180,1,49.4999984893799,10|2,0:2|0:0,0:0:0:0:
438,193,20292,1,2,0:0:0:0:
355,158,20776,6,0,P|323:208|305:258,1,98.9999969787599,2|2,3:0|0:0,0:0:0:0:
341,327,21744,2,0,P|314:346|285:363,1,49.4999984893799,10|2,0:2|3:0,0:0:0:0:
255,354,22228,1,2,0:0:0:0:
195,295,22712,1,2,3:0:0:0:
84,368,23438,1,2,0:0:0:0:
84,368,23680,2,0,P|58:331|49:310,1,49.4999984893799,10|2,0:2|0:0,0:0:0:0:
61,283,24163,1,2,0:0:0:0:
98,202,24647,6,0,P|153:206|181:154,1,98.9999969787599,2|2,3:0|0:0,0:0:0:0:
249,229,25615,1,8,0:2:0:0:
331,194,26099,2,0,P|351:161|360:131,1,49.4999984893799,2|2,0:0|3:0,0:0:0:0:
392,126,26583,1,2,3:0:0:0:
333,58,27067,1,2,0:0:0:0:
258,107,27551,2,0,P|196:100|145:85,1,98.9999969787599,8|2,0:2|0:0,0:0:0:0:
131,56,28276,1,2,0:0:0:0:
131,56,28518,5,2,3:0:0:0:
81,130,29002,2,0,P|96:170|110:242,1,98.9999969787599,2|10,0:0|0:2,0:0:0:0:
85,263,29728,1,2,3:0:0:0:
145,335,30212,1,0,3:0:0:0:
145,335,30454,2,0,B|192:333|182:363|250:362,1,98.9999969787599,2|0,3:0|0:0,0:0:0:0:
305,303,31421,1,8,0:2:0:0:
227,193,32147,1,2,3:0:0:0:
227,193,32389,6,0,P|257:148|313:154,1,98.9999969787599,10|2,3:1|0:0,0:0:0:0:
372,195,33357,2,0,P|401:173|416:159,1,49.4999984893799,10|2,0:2|3:0,0:0:0:0:
453,175,33841,1,2,0:0:0:0:
488,256,34325,1,2,3:0:0:0:
488,256,34567,2,0,P|474:313|456:355,1,98.9999969787599,2|2,3:0|3:0,0:0:0:0:
416,364,35292,1,10,0:2:0:0:
342,313,35776,2,0,P|307:323|288:333,1,49.4999984893799,10|10,0:1|0:1,0:0:0:0:
266,362,36260,6,0,P|269:317|226:269,1,98.9999969787599,10|2,3:1|0:0,0:0:0:0:
258,237,36986,1,2,0:0:0:0:
258,237,37228,1,10,0:2:0:0:
334,191,37712,2,0,P|328:160|308:133,1,49.4999984893799,10|10,0:1|0:1,0:0:0:0:
279,123,38196,1,2,3:0:0:0:
170,198,38921,1,2,0:0:0:0:
170,198,39163,2,0,P|128:185|105:183,1,49.4999984893799,10|10,0:2|0:1,0:0:0:0:
84,160,39647,1,2,0:0:0:0:
1,193,40131,6,0,P|17:233|28:290,1,98.9999969787599,10|2,3:1|0:0,0:0:0:0:
92,349,41099,2,0,P|124:329|145:317,1,49.4999984893799,8|0,0:2|3:0,0:0:0:0:
214,361,41825,1,10,3:1:0:0:
214,361,42067,2,0,P|233:332|241:310,1,49.4999984893799,10|2,3:1|3:0,0:0:0:0:
280,303,42551,1,2,0:0:0:0:
367,318,43034,2,0,P|391:272|375:208,1,98.9999969787599,8|8,0:2|0:1,0:0:0:0:
356,199,43760,1,10,0:1:0:0:
356,199,44002,5,10,3:1:0:0:
424,142,44486,2,0,P|458:123|474:118,1,49.4999984893799,2|2,0:0|0:0,0:0:0:0:
511,129,44970,2,0,P|492:78|508:24,1,98.9999969787599,8|10,0:2|0:1,0:0:0:0:
457,25,45696,1,10,3:1:0:0:
457,25,45938,5,2,3:0:0:0:
292,92,46905,1,14,0:2:0:0:
125,43,47873,6,0,P|71:88|105:162,1,148.49999546814,2|10,3:0|0:1,0:0:0:0:
175,260,49324,1,8,0:1:0:0:
230,191,49808,1,2,0:0:0:0:
230,191,50050,2,0,B|303:190|287:253|385:235,1,148.49999546814,10|10,0:1|0:1,0:0:0:0:
424,305,51260,1,10,0:1:0:0:
369,375,51744,6,0,P|298:360|213:346,1,148.49999546814,10|8,0:1|0:1,0:0:0:0:
141,241,53195,1,8,0:1:0:0:
201,175,53679,1,8,0:1:0:0:
161,95,54163,2,0,P|198:83|247:80,2,74.2499977340699,8|8|0,0:1|0:1|0:0,0:0:0:0:
119,77,55131,1,8,0:1:0:0:
47,125,55615,6,0,P|24:183|-4:281,1,148.49999546814,14|10,0:1|0:1,0:0:0:0:
93,360,57066,1,8,0:1:0:0:
165,308,57550,1,2,0:0:0:0:
165,308,57792,2,0,P|217:319|283:246,1,148.49999546814,10|10,0:1|0:1,0:0:0:0:
366,286,59002,1,10,0:1:0:0:
438,234,59486,6,0,B|450:162|387:170|400:80,1,148.49999546814,10|8,0:1|0:1,0:0:0:0:
288,19,60937,1,10,0:1:0:0:
227,84,61421,1,0,3:0:0:0:
227,84,61663,2,0,P|252:141|230:183,1,98.9999969787599,8|10,0:1|0:1,0:0:0:0:
198,190,62389,1,2,0:0:0:0:
337,308,63347,6,0,P|290:334|221:315,1,110,2|2,3:0|0:0,0:0:0:0:
165,273,64314,1,10,0:2:0:0:
165,273,64556,2,0,P|131:295|113:299,1,55,10|2,0:1|0:0,0:0:0:0:
87,330,65040,1,10,3:1:0:0:
87,330,65282,2,0,P|99:275|54:214,1,110,0|8,3:0|0:1,0:0:0:0:
101,144,66250,2,0,P|133:159|153:163,1,55,10|2,0:2|3:0,0:0:0:0:
186,134,66734,2,0,P|218:119|238:115,1,55,10|10,0:1|0:1,0:0:0:0:
267,83,67217,6,0,P|263:142|294:201,1,110,10|2,3:1|0:0,0:0:0:0:
336,257,68185,2,0,P|299:276|267:290,2,55,10|2|10,0:2|3:0|0:1,0:0:0:0:
373,279,68911,1,10,0:1:0:0:
373,279,69153,2,0,P|368:223|420:184,1,110,2|8,3:0|0:1,0:0:0:0:
491,195,70121,2,0,L|484:263,1,55,10|10,3:2|0:1,0:0:0:0:
458,284,70605,2,0,L|464:352,1,55,10|2,3:2|0:0,0:0:0:0:
491,372,71088,6,0,P|430:354|380:374,1,110,10|2,3:1|0:0,0:0:0:0:
311,324,72056,1,10,0:2:0:0:
311,324,72298,2,0,P|314:281|306:256,1,55,8|2,0:1|0:0,0:0:0:0:
334,233,72782,1,10,0:1:0:0:
334,233,73024,2,0,P|272:256|211:267,1,110,10|8,3:1|0:1,0:0:0:0:
168,200,73992,2,0,P|137:195|107:192,1,55,10|2,0:2|3:0,0:0:0:0:
96,233,74476,2,0,P|65:238|35:241,1,55,10|10,0:1|0:1,0:0:0:0:
12,207,74959,5,10,3:1:0:0:
12,207,75201,1,10,0:1:0:0:
71,88,75927,1,8,0:2:0:0:
71,88,76169,2,0,P|106:105|133:109,1,55,2|10,3:0|0:1,0:0:0:0:
159,84,76653,1,10,0:1:0:0:
159,84,76895,2,0,P|209:79|252:123,1,110,10|10,3:1|3:1,0:0:0:0:
310,181,77863,2,0,P|298:228|294:257,1,55,2|10,3:0|0:1,0:0:0:0:
263,262,78346,2,0,B|317:262|304:305|376:297,1,110,10|2,0:1|0:0,0:0:0:0:
78,348,94324,6,0,B|127:358|126:305|196:316,1,110,10|2,3:1|0:0,0:0:0:0:
258,352,95291,2,0,P|281:322|286:303,1,55,10|2,0:2|3:0,0:0:0:0:
327,291,95775,2,0,P|328:253|321:234,1,55,2|10,0:0|0:1,0:0:0:0:
290,207,96259,2,0,P|334:210|386:156,1,110,2|2,3:0|0:0,0:0:0:0:
359,83,97227,1,10,0:2:0:0:
435,39,97711,2,0,P|455:65|470:89,1,55,8|8,0:1|0:1,0:0:0:0:
510,90,98194,6,0,P|477:141|490:199,1,110,10|2,3:1|0:0,0:0:0:0:
465,273,99162,2,0,P|506:300|527:319,2,55,10|2|10,0:2|3:0|0:1,0:0:0:0:
426,294,99888,1,10,0:1:0:0:
426,294,100130,2,0,P|365:315|305:325,1,110,2|0,3:0|3:0,0:0:0:0:
293,287,100856,1,0,0:0:0:0:
293,287,101098,2,0,P|253:282|231:273,1,55,10|10,0:2|0:1,0:0:0:0:
223,236,101582,1,10,0:1:0:0:
162,300,102065,6,0,P|92:307|63:263,1,110,10|2,3:1|0:0,0:0:0:0:
21,207,103033,2,0,P|36:164|36:143,1,55,8|8,0:2|3:1,0:0:0:0:
65,121,103517,2,0,P|53:77|40:59,1,55,2|10,0:0|0:1,0:0:0:0:
16,38,104001,2,0,P|65:46|142:56,1,110,2|2,3:0|0:0,0:0:0:0:
201,10,104969,1,8,0:2:0:0:
280,47,105453,2,0,P|294:74|303:106,1,55,10|8,0:1|0:1,0:0:0:0:
281,136,105936,6,0,P|266:203|264:256,1,110,10|2,3:1|0:0,0:0:0:0:
235,278,106662,1,2,0:0:0:0:
235,278,106904,1,10,0:2:0:0:
290,346,107388,2,0,P|331:362|357:368,1,55,10|10,0:1|0:1,0:0:0:0:
381,345,107872,5,2,3:0:0:0:
444,180,108840,1,14,3:1:0:0:
302,69,109807,6,0,B|213:86|242:26|152:36,1,148.49999546814,2|10,3:0|0:1,0:0:0:0:
75,139,111259,1,8,0:1:0:0:
144,195,111743,1,2,0:0:0:0:
144,195,111985,2,0,P|159:266|89:311,1,148.49999546814,10|10,0:1|0:1,0:0:0:0:
171,370,113194,1,10,0:1:0:0:
248,327,113678,6,0,P|290:308|398:287,1,148.49999546814,10|8,0:1|0:1,0:0:0:0:
453,169,115130,1,8,0:1:0:0:
399,97,115614,1,8,0:1:0:0:
310,102,116098,2,0,P|299:147|291:188,2,74.2499977340699,8|8|0,0:1|0:1|0:0,0:0:0:0:
284,65,117065,1,8,0:1:0:0:
202,100,117549,6,0,P|156:79|96:160,1,148.49999546814,14|10,0:1|0:1,0:0:0:0:
162,249,119001,1,8,0:1:0:0:
134,333,119485,1,2,0:0:0:0:
134,333,119727,2,0,P|188:359|296:388,1,148.49999546814,10|10,0:1|0:1,0:0:0:0:
337,322,120936,1,10,0:1:0:0:
287,247,121420,6,0,B|275:171|349:194|321:93,1,148.49999546814,10|8,0:1|0:1,0:0:0:0:
435,34,122872,1,10,0:1:0:0:
505,96,123356,1,0,3:0:0:0:
505,96,123598,2,0,P|455:118|453:178,1,98.9999969787599,8|10,0:1|0:1,0:0:0:0:
474,192,124323,1,2,0:0:0:0:
396,357,125282,6,0,P|360:326|287:318,1,110,2|2,3:0|0:0,0:0:0:0:
222,356,126249,1,10,0:2:0:0:
222,356,126491,2,0,P|191:312|186:298,1,55,10|2,0:1|0:0,0:0:0:0:
213,273,126975,1,10,3:1:0:0:
213,273,127217,2,0,P|164:292|104:258,1,110,0|8,3:0|0:1,0:0:0:0:
39,222,128185,2,0,P|60:185|60:165,1,55,10|2,0:2|3:0,0:0:0:0:
91,142,128669,2,0,P|70:105|70:85,1,55,10|10,0:1|0:1,0:0:0:0:
46,55,129152,6,0,P|94:66|176:60,1,110,10|2,3:1|0:0,0:0:0:0:
240,46,130120,2,0,P|263:11|271:-10,2,55,10|2|10,0:2|3:0|0:1,0:0:0:0:
267,80,130846,1,10,0:1:0:0:
267,80,131088,2,0,B|269:142|314:126|304:200,1,110,2|8,3:0|0:1,0:0:0:0:
274,262,132056,2,0,L|344:269,1,55,10|10,3:2|0:1,0:0:0:0:
357,300,132540,2,0,L|427:292,1,55,10|2,3:2|0:0,0:0:0:0:
450,315,133023,6,0,P|431:266|468:210,1,110,10|2,3:1|0:0,0:0:0:0:
473,131,133991,1,10,0:2:0:0:
473,131,134233,2,0,P|419:116|398:116,1,55,8|2,0:1|0:0,0:0:0:0:
385,143,134717,1,10,0:1:0:0:
385,143,134959,2,0,P|369:92|343:38,1,110,10|8,3:1|0:1,0:0:0:0:
268,85,135927,2,0,P|234:101|208:106,1,55,10|2,0:2|3:0,0:0:0:0:
177,85,136411,2,0,P|143:69|117:64,1,55,10|10,0:1|0:1,0:0:0:0:
89,90,136894,5,10,3:1:0:0:
89,90,137136,1,10,0:1:0:0:
54,217,137862,1,8,0:2:0:0:
54,217,138104,2,0,P|82:259|88:279,1,55,2|10,3:0|0:1,0:0:0:0:
63,304,138588,1,10,0:1:0:0:
63,304,138830,2,0,B|127:290|116:335|187:324,1,110,10|10,3:1|3:1,0:0:0:0:
244,282,139798,2,0,P|259:258|268:225,1,55,2|10,3:0|0:1,0:0:0:0:
307,215,140281,2,0,P|261:209|242:141,1,110,10|2,0:1|0:0,0:0:0:0:
256,192,140886,12,0,144636,0:0:0:0:
