osu file format v14

[General]
AudioFilename: audio.mp3
AudioLeadIn: 0
PreviewTime: 62100
Countdown: 0
SampleSet: Soft
StackLeniency: 0.7
Mode: 0
LetterboxInBreaks: 0
WidescreenStoryboard: 0

[Editor]
Bookmarks: 79822,94338
DistanceSpacing: 1.2
BeatDivisor: 8
GridSize: 32
TimelineZoom: 1.2

[Metadata]
Title:LOSING SLEEP (feat. Kelsey Kuan)
TitleUnicode:LOSING SLEEP (feat. Kelsey Kuan)
Artist:City Girl
ArtistUnicode:City Girl
Creator:xandeez nuts
Version:LUCID DREAMS
Source:
Tags:C-Girl female vocalist vocals english hip hop lo-fi pop acoustic lofi hip-hop hiphop ft. featuring [poke]
BeatmapID:3114503
BeatmapSetID:1521806

[Difficulty]
HPDrainRate:5
CircleSize:5.6
OverallDifficulty:7.8
ApproachRate:8.6
SliderMultiplier:1.8
SliderTickRate:1

[Events]
//Background and Video events
0,0,"EHwaU26.png",0,0
//Break Periods
2,79798,93588
//Storyboard Layer 0 (Background)
//Storyboard Layer 1 (Fail)
//Storyboard Layer 2 (Pass)
//Storyboard Layer 3 (Foreground)
//Storyboard Layer 4 (Overlay)
//Storyboard Sound Samples

[TimingPoints]
1422,483.870967741935,4,2,1,40,1,0
16905,-188.679245283019,4,2,1,40,0,0
20655,-23.8095238095238,4,2,1,5,0,0
20776,-188.679245283019,4,2,1,40,0,0
24526,-23.8095238095238,4,2,1,5,0,0
24647,-188.679245283019,4,2,1,40,0,0
32389,-133.333333333333,4,2,1,50,0,0
40010,-23.8095238095238,4,2,1,50,0,0
40131,-133.333333333333,4,2,1,50,0,0
46905,-263.157894736842,4,2,1,50,0,0
47873,-188.679245283019,4,2,1,35,0,0
49204,-23.8095238095238,4,2,1,5,0,0
49325,-188.679245283019,4,2,1,35,0,0
55615,-188.679245283019,4,2,1,35,0,0
56946,-23.8095238095238,4,2,1,5,0,0
57067,-188.679245283019,4,2,1,35,0,0
62147,-188.679245283019,4,2,1,35,0,0
62873,-263.157894736842,4,2,1,35,0,0
63236,-23.8095238095238,4,2,1,5,0,0
63347,483.870967741935,4,2,1,60,1,0
63347,-74.6268656716418,4,2,1,60,0,1
63710,-23.8095238095238,4,2,1,5,0,1
63831,-74.6268656716418,4,2,1,60,0,1
64315,-100,4,2,1,60,0,1
66371,-23.8095238095238,4,2,1,5,0,1
66492,-100,4,2,1,60,0,1
67217,-74.6268656716418,4,2,1,60,0,1
67581,-23.8095238095238,4,2,1,5,0,1
67702,-74.6268656716418,4,2,1,60,0,1
68185,-100,4,2,1,60,0,1
68307,-23.8095238095238,4,2,1,5,0,1
68428,-100,4,2,1,60,0,1
69637,-113.636363636364,4,2,1,60,0,1
69758,-100,4,2,1,60,0,1
71088,-74.6268656716418,4,2,1,60,0,1
71452,-23.8095238095238,4,2,1,5,0,1
71573,-74.6268656716418,4,2,1,60,0,1
72540,-100,4,2,1,60,0,1
74113,-23.8095238095238,4,2,1,5,0,1
74234,-100,4,2,1,60,0,1
76895,-119.047619047619,4,2,1,60,0,1
78346,-263.157894736842,4,2,1,60,0,1
78710,-23.8095238095238,4,2,1,5,0,1
78830,-151.515151515152,4,2,1,60,0,0
94324,483.870967741935,4,2,1,60,1,0
94324,-151.515151515152,4,2,1,60,0,0
99042,-23.8095238095238,4,2,1,5,0,0
99163,-151.515151515152,4,2,1,60,0,0
108356,-23.8095238095238,4,2,1,5,0,0
108477,-151.515151515152,4,2,1,60,0,0
108719,-23.8095238095238,4,2,1,5,0,0
108840,-263.157894736842,4,2,1,60,0,0
109807,-188.679245283019,4,2,1,35,0,0
111140,-23.8095238095238,4,2,1,5,0,0
111261,-188.679245283019,4,2,1,35,0,0
117551,-188.679245283019,4,2,1,35,0,0
118882,-23.8095238095238,4,2,1,5,0,0
119002,-188.679245283019,4,2,1,35,0,0
124083,-188.679245283019,4,2,1,35,0,0
124807,-263.157894736842,4,2,1,35,0,0
125172,-23.8095238095238,4,2,1,5,0,0
125282,483.870967741935,4,2,1,70,1,0
125282,-81.3008130081301,4,2,1,70,0,1
125644,-23.8095238095238,4,2,1,5,0,1
125765,-81.3008130081301,4,2,1,70,0,1
126249,-100,4,2,1,70,0,1
128306,-23.8095238095238,4,2,1,5,0,1
128427,-100,4,2,1,70,0,1
129152,-81.3008130081301,4,2,1,70,0,1
129515,-23.8095238095238,4,2,1,5,0,1
129636,-81.3008130081301,4,2,1,70,0,1
130119,-100,4,2,1,70,0,1
130241,-23.8095238095238,4,2,1,5,0,1
130362,-100,4,2,1,70,0,1
133023,-81.3008130081301,4,2,1,70,0,1
133386,-23.8095238095238,4,2,1,5,0,1
133507,-81.3008130081301,4,2,1,70,0,1
133990,-100,4,2,1,70,0,1
136048,-23.8095238095238,4,2,1,5,0,1
136169,-100,4,2,1,70,0,1
138830,-119.047619047619,4,2,1,70,0,1
140523,-263.157894736842,4,2,1,70,0,1
140765,-100,4,2,1,70,0,0
142459,-23.8095238095238,4,2,1,70,0,0
144636,-23.8095238095238,4,2,1,5,0,0

[Colours]
Combo1 : 63,222,199
Combo2 : 215,68,71
Combo3 : 68,46,194
Combo4 : 181,204,17

[HitObjects]
135,218,16905,6,0,P|126:257|125:282,1,47.7000000727844,2|2,3:0|0:0,0:0:0:0:
175,309,17389,2,0,B|232:306|214:343|285:338,1,95.4000001455689,2|10,0:0|0:2,0:0:0:0:
327,289,18115,1,2,3:0:0:0:
377,330,18357,2,0,P|390:369|394:391,1,47.7000000727844,2|2,0:0|3:0,0:0:0:0:
427,262,18841,6,0,P|439:232|444:211,1,47.7000000727844,2|2,3:0|0:0,0:0:0:0:
442,217,19567,1,2,0:0:0:0:
383,142,19809,1,10,0:2:0:0:
330,184,20051,1,2,0:0:0:0:
272,152,20292,2,0,P|231:162|180:172,1,71.5500001091766,2|0,0:0|0:0,0:0:0:0:
185,155,20776,6,0,P|153:144|125:141,1,47.7000000727844,2|2,3:0|0:0,0:0:0:0:
99,201,21260,2,0,P|76:209|53:214,1,47.7000000727844,2|2,0:0|0:0,0:0:0:0:
12,118,21744,1,10,0:2:0:0:
60,71,21986,1,2,3:0:0:0:
39,3,22228,2,0,P|77:9|100:10,1,47.7000000727844,2|2,0:0|3:0,0:0:0:0:
159,55,22712,6,0,P|197:49|220:48,1,47.7000000727844,2|2,3:0|0:0,0:0:0:0:
249,103,23196,2,0,P|245:139|241:169,1,47.7000000727844,0|2,0:0|0:0,0:0:0:0:
189,230,23680,1,10,0:2:0:0:
229,279,23921,1,2,0:0:0:0:
185,333,24163,2,0,P|221:346|259:360,1,71.5500001091766,2|0,0:0|0:0,0:0:0:0:
267,347,24647,5,2,3:0:0:0:
327,360,24889,1,2,0:0:0:0:
375,311,25131,2,0,P|379:285|386:262,1,47.7000000727844,2|0,0:0|0:0,0:0:0:0:
448,215,25615,1,8,0:2:0:0:
407,166,25857,1,0,3:0:0:0:
453,117,26099,1,2,0:0:0:0:
411,50,26341,1,2,3:0:0:0:
341,114,26583,6,0,P|309:127|285:129,1,47.7000000727844,2|2,3:0|0:0,0:0:0:0:
221,129,27067,2,0,P|231:147|243:180,1,47.7000000727844,2|0,0:0|0:0,0:0:0:0:
186,281,27551,1,8,0:2:0:0:
132,253,27792,1,0,0:0:0:0:
84,301,28034,2,0,P|74:338|72:354,1,47.7000000727844,2|2,0:0|0:0,0:0:0:0:
39,235,28518,6,0,P|31:208|23:180,1,47.7000000727844,2|2,3:0|0:0,0:0:0:0:
71,134,29002,2,0,B|117:125|112:162|165:152,1,95.4000001455689,2|10,0:0|0:2,0:0:0:0:
209,109,29728,1,2,3:0:0:0:
209,109,30212,1,0,3:0:0:0:
252,161,30454,6,0,P|240:187|225:259,1,95.4000001455689,2|0,3:0|0:0,0:0:0:0:
400,108,31421,1,8,0:2:0:0:
455,142,31663,2,0,P|487:149|518:153,1,47.7000000727844,0|0,3:0|0:0,0:0:0:0:
426,200,32147,1,2,3:0:0:0:
500,341,32389,6,0,B|520:319|513:291|513:291|472:253|419:297,1,135.000005149842,10|2,3:1|0:0,0:0:0:0:
413,344,33115,1,10,0:1:0:0:
301,282,33357,1,10,0:2:0:0:
301,282,33478,1,8,0:1:0:0:
301,282,33599,2,0,P|324:253|338:217,1,67.5000025749208,2|2,3:0|0:0,0:0:0:0:
293,164,34083,1,10,3:1:0:0:
202,238,34325,5,2,3:0:0:0:
225,322,34567,1,2,3:0:0:0:
18,125,35051,1,2,3:0:0:0:
131,33,35292,2,0,P|158:68|175:103,1,67.5000025749208,10|2,0:2|3:0,0:0:0:0:
256,57,35776,2,0,L|278:61,2,16.8750006437302,10|8|8,0:1|0:1|0:1,0:0:0:0:
245,74,36018,2,0,P|237:94|239:125,1,33.7500012874604,10|8,0:1|0:1,0:0:0:0:
324,182,36260,6,0,P|367:165|399:155,1,67.5000025749208,10|10,3:1|0:1,0:0:0:0:
328,259,36744,2,0,P|296:248|264:235,1,67.5000025749208,2|2,0:0|0:0,0:0:0:0:
457,210,37228,1,10,0:2:0:0:
508,281,37470,1,2,3:0:0:0:
444,297,37712,1,10,0:1:0:0:
405,384,37954,1,10,0:1:0:0:
294,331,38196,6,0,P|258:340|223:354,1,67.5000025749208,2|10,3:0|0:1,0:0:0:0:
138,343,38680,1,0,3:0:0:0:
120,281,38921,1,2,0:0:0:0:
249,156,39163,1,10,0:2:0:0:
314,216,39405,1,10,0:1:0:0:
369,178,39647,2,0,B|374:131|336:134|348:78,1,101.250003862381,2|8,0:0|0:1,0:0:0:0:
357,70,40131,5,10,3:1:0:0:
300,33,40373,1,10,0:1:0:0:
212,103,40615,2,0,P|171:119|131:123,1,67.5000025749208,2|8,0:0|0:1,0:0:0:0:
14,29,41099,1,8,0:2:0:0:
14,29,41220,1,8,0:1:0:0:
14,29,41341,2,0,P|27:65|34:99,1,67.5000025749208,0|0,3:0|0:0,0:0:0:0:
11,184,41825,1,10,3:1:0:0:
104,239,42067,5,10,3:1:0:0:
152,199,42309,1,2,3:0:0:0:
205,237,42551,2,0,P|217:286|217:310,1,67.5000025749208,2|0,0:0|3:0,0:0:0:0:
74,367,43034,1,8,0:2:0:0:
9,311,43276,1,0,3:0:0:0:
46,247,43518,2,0,L|44:219,2,16.8750006437302,8|8|8,0:1|0:1|0:1,0:0:0:0:
61,257,43760,2,0,P|87:268|107:267,1,33.7500012874604,10|8,0:1|0:1,0:0:0:0:
205,237,44002,6,0,B|282:228|254:284|353:276,1,135.000005149842,10|2,3:1|0:0,0:0:0:0:
396,235,44728,1,2,0:0:0:0:
468,63,44970,2,0,P|425:92|394:107,1,67.5000025749208,8|2,0:2|0:0,0:0:0:0:
327,71,45454,1,10,0:1:0:0:
269,136,45696,1,10,3:1:0:0:
161,95,45938,6,0,B|133:73|148:29|148:29|201:13|221:64,1,135.000005149842,2|0,3:0|3:0,0:0:0:0:
224,40,46542,1,8,0:1:0:0:
224,40,46663,1,8,0:1:0:0:
287,55,46905,2,0,B|336:50|328:88|392:87,1,102.599998747559,14|0,0:2|0:0,0:0:0:0:
444,168,47874,6,0,P|453:212|451:237,1,47.7000000727844,2|2,3:0|0:0,0:0:0:0:
421,270,48357,1,2,0:0:0:0:
339,237,48599,1,10,0:1:0:0:
285,282,48841,2,0,P|296:321|306:361,1,71.5500001091766,2|0,0:0|0:0,0:0:0:0:
294,372,49325,1,8,0:1:0:0:
128,250,49810,5,2,0:0:0:0:
200,192,50052,2,0,P|219:164|227:140,1,47.7000000727844,10|2,0:1|0:0,0:0:0:0:
190,92,50535,1,2,0:0:0:0:
271,34,50777,2,0,B|325:48|312:6|382:22,1,95.4000001455689,10|10,0:1|0:1,0:0:0:0:
52,97,51745,6,0,P|43:140|30:207,1,95.4000001455689,10|0,0:1|0:0,0:0:0:0:
102,260,52471,1,8,0:1:0:0:
171,221,52713,2,0,P|210:230|234:242,1,47.7000000727844
292,298,53197,1,8,0:1:0:0:
448,121,53680,6,0,P|464:162|468:184,1,47.7000000727844,8|0,0:1|0:0,0:0:0:0:
372,91,54164,1,8,0:1:0:0:
328,212,54527,1,8,0:1:0:0:
328,212,54648,2,0,P|309:187|291:167,1,47.7000000727844,0|0,3:0|0:0,0:0:0:0:
213,152,55132,1,8,0:1:0:0:
184,206,55373,1,0,0:0:0:0:
93,165,55615,6,0,P|83:186|61:225,1,47.7000000727844,14|2,0:1|0:0,0:0:0:0:
101,266,56098,1,2,0:0:0:0:
35,322,56340,1,10,0:1:0:0:
90,370,56583,2,0,P|128:363|168:350,1,71.5500001091766,2|0,0:0|0:0,0:0:0:0:
168,335,57066,1,8,0:1:0:0:
375,279,57550,5,2,0:0:0:0:
309,223,57792,2,0,P|296:192|284:166,1,47.7000000727844,10|2,0:1|0:0,0:0:0:0:
329,135,58276,1,2,0:0:0:0:
261,47,58518,2,0,P|220:41|177:78,1,95.4000001455689,10|10,0:1|0:1,0:0:0:0:
429,42,59486,6,0,P|421:97|416:148,1,95.4000001455689,10|0,0:1|0:0,0:0:0:0:
481,207,60211,1,8,0:1:0:0:
426,257,60454,2,0,P|419:288|416:318,1,47.7000000727844,0|2,0:0|3:0,0:0:0:0:
338,357,60938,2,0,P|307:350|277:347,1,47.7000000727844,10|2,0:1|0:0,0:0:0:0:
227,312,61421,5,0,3:0:0:0:
272,232,61663,1,8,0:1:0:0:
186,106,62147,5,10,0:1:0:0:
108,154,62389,1,2,0:0:0:0:
117,215,62631,1,2,0:0:0:0:
78,265,62873,6,0,P|46:259|27:244,1,51.2999993737793,2|0,0:0|0:0,0:0:0:0:
87,278,63347,6,0,B|189:271|146:353|294:335,1,180.899991443024,2|0,3:0|0:0,0:0:0:0:
263,323,63830,1,2,0:0:0:0:
311,262,64072,1,10,0:1:0:0:
254,76,64314,1,10,0:2:0:0:
211,74,64435,1,8,0:1:0:0:
184,111,64556,1,10,0:1:0:0:
97,90,64798,2,0,P|75:49|56:0,1,90,2|10,0:0|3:1,0:0:0:0:
256,164,65282,5,0,3:0:0:0:
327,111,65524,2,0,P|349:70|368:21,1,90,0|8,3:0|0:1,0:0:0:0:
267,178,66008,1,0,3:0:0:0:
498,262,66250,2,0,P|492:240|486:218,1,45,10|0,0:2|0:0,0:0:0:0:
422,204,66492,1,2,3:0:0:0:
466,342,66734,2,0,L|475:371,2,22.5,10|8|8,0:1|0:1|0:1,0:0:0:0:
424,353,66976,1,10,0:1:0:0:
377,362,67097,1,8,0:1:0:0:
332,371,67217,6,0,B|283:360|251:314|265:280|265:280|292:261|321:271,1,180.899991443024,10|0,3:1|0:0,0:0:0:0:
328,272,67701,1,2,0:0:0:0:
301,181,67943,1,2,0:0:0:0:
122,316,68185,2,0,P|125:292|134:256,1,45,10|0,0:2|0:0,0:0:0:0:
26,198,68427,1,2,3:0:0:0:
96,142,68669,1,10,0:1:0:0:
288,170,68911,1,10,0:1:0:0:
199,278,69153,6,0,P|182:221|178:169,1,90,2|0,3:0|0:0,0:0:0:0:
234,88,69637,2,0,P|239:61|240:41,1,39.6000012084961,8|8,0:1|0:1,0:0:0:0:
173,109,69879,1,8,0:1:0:0:
361,39,70121,5,10,3:2:0:0:
434,124,70363,1,10,0:1:0:0:
266,251,70605,5,10,3:2:0:0:
309,147,70846,2,0,P|330:159|367:169,1,45,2|8,0:0|0:1,0:0:0:0:
458,251,71088,6,0,B|474:346|443:408|355:408|422:325,1,180.899991443024,10|0,3:1|0:0,0:0:0:0:
379,355,71572,1,2,0:0:0:0:
311,378,71814,1,10,0:1:0:0:
156,252,72056,1,10,0:2:0:0:
197,225,72177,1,8,0:1:0:0:
238,240,72298,1,8,0:1:0:0:
287,184,72540,2,0,P|306:133|315:89,1,90,2|10,0:0|0:1,0:0:0:0:
199,303,73024,5,10,3:1:0:0:
138,244,73266,2,0,P|119:193|110:149,1,90,0|8,3:0|0:1,0:0:0:0:
213,299,73750,1,2,3:0:0:0:
10,269,73992,2,0,P|15:247|21:226,1,45,10|0,0:2|0:0,0:0:0:0:
81,190,74234,1,2,3:0:0:0:
54,326,74476,2,8,L|48:347,2,22.5,10|8|8,0:1|0:1|0:1,0:1:0:0:
98,329,74717,1,10,0:1:0:0:
147,313,74838,1,8,0:1:0:0:
176,271,74959,5,10,3:1:0:0:
274,363,75201,2,0,B|247:343|242:299|271:278|271:278|328:290|344:224,1,180,10|0,0:1|0:0,0:0:0:0:
192,82,75927,1,8,0:2:0:0:
319,144,76169,1,2,3:0:0:0:
376,91,76411,1,10,0:1:0:0:
475,163,76653,1,10,0:1:0:0:
461,296,76895,6,0,P|446:257|432:201,1,75.5999976928712,10|10,3:1|0:1,0:0:0:0:
402,378,77379,2,0,P|381:381|345:380,1,37.7999988464356,10|10,3:1|0:1,0:0:0:0:
461,359,77621,1,2,0:0:0:0:
353,286,77863,1,2,3:0:0:0:
295,335,78105,1,10,0:1:0:0:
236,303,78346,6,0,P|215:281|205:248,1,51.2999993737793,10|0,0:1|0:0,0:0:0:0:
227,317,78830,6,0,B|162:299|173:361|96:334,1,118.799999637451,2|2,0:0|0:0,0:0:0:0:
320,215,94324,6,0,P|331:252|338:290,1,59.3999998187256,10|10,3:1|0:1,0:0:0:0:
254,165,94807,2,0,P|242:202|235:231,1,59.3999998187256,2|10,0:0|0:1,0:0:0:0:
374,90,95292,1,10,0:2:0:0:
374,90,95413,1,8,0:1:0:0:
374,90,95534,1,2,3:0:0:0:
313,53,95776,1,2,0:0:0:0:
238,97,96018,1,10,0:1:0:0:
86,76,96260,6,0,P|132:66|155:62,1,59.3999998187256,2|0,3:0|3:0,0:0:0:0:
177,124,96744,1,2,0:0:0:0:
144,184,96986,1,0,0:0:0:0:
232,282,97228,2,0,P|263:296|304:316,1,59.3999998187256,10|2,0:2|3:0,0:0:0:0:
343,272,97712,2,0,L|368:269,2,14.8499999546814,8|8|8,0:1|0:1|0:1,0:0:0:0:
334,264,97954,2,0,P|315:238|316:226,1,29.6999999093628,8|8,0:1|0:1,0:0:0:0:
409,205,98194,6,0,P|437:179|454:149,1,59.3999998187256,10|10,3:1|0:1,0:0:0:0:
434,273,98678,2,0,P|447:313|469:363,1,89.0999997280884,2|0,0:0|0:0,0:0:0:0:
486,364,99163,1,10,0:2:0:0:
398,347,99405,1,2,3:0:0:0:
331,382,99647,1,10,0:1:0:0:
262,344,99889,1,10,0:1:0:0:
141,383,100130,6,0,B|123:318|185:329|158:251,1,118.799999637451,2|0,3:0|3:0,0:0:0:0:
152,262,100736,1,8,0:1:0:0:
152,262,100857,1,2,0:0:0:0:
248,148,101099,1,10,0:2:0:0:
135,183,101341,1,10,0:1:0:0:
79,114,101583,1,10,0:1:0:0:
104,50,101823,2,0,P|98:40|78:21,1,29.6999999093628,10|8,0:1|0:1,0:0:0:0:
272,94,102065,6,0,P|252:134|243:166,1,59.3999998187256,10|10,3:1|0:1,0:0:0:0:
337,46,102549,2,0,P|357:86|366:118,1,59.3999998187256,2|8,0:0|0:1,0:0:0:0:
286,251,103034,1,8,0:2:0:0:
286,251,103155,1,8,0:1:0:0:
286,251,103276,1,8,3:1:0:0:
340,216,103518,1,2,0:0:0:0:
419,261,103760,1,10,0:1:0:0:
491,182,104001,6,0,P|479:141|466:109,1,59.3999998187256,2|2,3:0|3:0,0:0:0:0:
506,68,104486,1,2,0:0:0:0:
437,34,104728,1,0,0:0:0:0:
305,148,104969,2,0,P|261:172|230:182,1,59.3999998187256,8|0,0:2|3:0,0:0:0:0:
200,129,105453,2,0,L|196:101,2,14.8499999546814,10|8|8,0:1|0:1|0:1,0:0:0:0:
190,145,105694,2,0,P|178:159|163:163,1,29.6999999093628,8|8,0:1|0:1,0:0:0:0:
72,115,105936,6,0,P|80:143|88:172,1,59.3999998187256,10|8,3:1|0:1,0:0:0:0:
19,212,106420,1,2,0:0:0:0:
75,250,106662,1,2,0:0:0:0:
107,384,106905,1,10,0:2:0:0:
164,328,107147,1,2,0:0:0:0:
249,378,107388,2,0,P|289:363|326:343,1,59.3999998187256,10|10,0:1|0:1,0:0:0:0:
419,384,107873,5,2,3:0:0:0:
386,324,108114,2,0,P|395:290|399:258,1,59.3999998187256,8|0,0:1|0:0,0:0:0:0:
421,254,108477,2,0,P|408:221|393:193,1,59.3999998187256,8|0,0:1|0:0,0:0:0:0:
403,178,108840,2,0,B|345:169|356:212|309:208,1,102.599998747559,14|0,3:1|0:0,0:0:0:0:
230,151,109807,6,0,P|243:129|255:97,1,47.7000000727844,2|2,3:0|0:0,0:0:0:0:
213,50,110291,1,2,0:0:0:0:
127,82,110533,1,10,0:1:0:0:
59,64,110775,2,0,P|38:101|22:135,1,71.5500001091766,2|0,0:0|0:0,0:0:0:0:
33,140,111259,1,8,0:1:0:0:
230,220,111743,5,2,0:0:0:0:
192,297,111985,2,0,P|199:328|201:354,1,47.7000000727844,10|2,0:1|0:0,0:0:0:0:
150,382,112469,1,2,0:0:0:0:
72,332,112711,2,0,P|51:299|67:247,1,95.4000001455689,10|10,0:1|0:1,0:0:0:0:
282,120,113678,6,0,B|334:117|321:158|386:152,1,95.4000001455689,10|0,0:1|0:0,0:0:0:0:
458,129,114404,1,8,0:1:0:0:
437,195,114646,2,0,P|432:220|432:243,1,47.7000000727844
486,321,115130,1,8,0:1:0:0:
339,236,115614,6,0,P|306:229|277:228,1,47.7000000727844,8|0,0:1|0:0,0:0:0:0:
239,307,116098,1,8,0:1:0:0:
160,210,116461,1,8,0:1:0:0:
160,210,116582,2,0,P|176:185|186:159,1,47.7000000727844,0|0,3:0|0:0,0:0:0:0:
138,86,117065,1,8,0:1:0:0:
173,30,117307,1,0,0:0:0:0:
307,127,117549,6,0,P|345:134|371:133,1,47.7000000727844,14|2,0:1|0:0,0:0:0:0:
393,86,118034,1,2,0:0:0:0:
462,144,118276,1,10,0:1:0:0:
413,191,118517,2,0,P|410:225|403:268,1,71.5500001091766,2|0,0:0|0:0,0:0:0:0:
393,275,119001,1,8,0:1:0:0:
204,244,119485,5,2,0:0:0:0:
153,326,119727,2,0,P|123:343|98:350,1,47.7000000727844,10|2,0:1|0:0,0:0:0:0:
53,312,120211,1,2,0:0:0:0:
31,194,120453,2,0,B|84:194|62:230|135:230,1,95.4000001455689,10|10,0:1|0:1,0:0:0:0:
255,119,121420,6,0,P|262:88|203:43,1,95.4000001455689,10|0,0:1|0:0,0:0:0:0:
303,11,122147,1,8,0:1:0:0:
349,59,122388,2,0,P|377:72|416:77,1,47.7000000727844,0|2,0:0|3:0,0:0:0:0:
479,34,122872,2,0,P|482:65|486:90,1,47.7000000727844,10|2,0:1|0:0,0:0:0:0:
434,123,123356,5,0,3:0:0:0:
464,204,123598,1,8,0:1:0:0:
382,339,124082,5,10,0:1:0:0:
311,291,124323,1,2,0:0:0:0:
249,299,124565,1,2,0:0:0:0:
200,260,124807,6,0,P|206:228|221:209,1,51.2999993737793,2|0,0:0|0:0,0:0:0:0:
187,270,125282,6,0,B|195:334|143:361|143:361|106:343|92:284,1,166.050002533722,2|0,3:0|0:0,0:0:0:0:
88,320,125765,1,2,0:0:0:0:
18,369,126007,1,10,0:1:0:0:
64,185,126249,1,10,0:2:0:0:
103,166,126370,1,8,0:1:0:0:
139,188,126491,1,10,0:1:0:0:
214,132,126733,2,0,P|188:75|177:40,1,90,2|10,0:0|3:1,0:0:0:0:
351,210,127217,5,0,3:0:0:0:
407,148,127459,2,0,P|433:91|444:56,1,90,0|8,3:0|0:1,0:0:0:0:
347,221,127943,1,0,3:0:0:0:
219,25,128185,2,0,L|264:33,1,45,10|0,0:2|0:0,0:0:0:0:
303,82,128427,1,2,3:0:0:0:
154,52,128669,2,0,L|120:42,2,22.5,10|8|8,0:1|0:1|0:1,0:0:0:0:
142,96,128911,1,10,0:1:0:0:
126,142,129032,1,8,0:1:0:0:
112,184,129152,6,0,B|189:173|180:261|285:230,1,166.050002533722,10|0,3:1|0:0,0:0:0:0:
273,218,129636,1,2,0:0:0:0:
343,275,129878,1,2,0:0:0:0:
139,356,130120,2,0,P|109:350|75:349,1,45,10|0,0:2|0:0,0:0:0:0:
29,376,130362,1,2,3:0:0:0:
0,307,130604,1,10,0:1:0:0:
126,165,130846,1,10,0:1:0:0:
74,56,131088,6,0,P|116:78|167:97,1,90,2|0,3:0|0:0,0:0:0:0:
258,46,131572,2,0,P|235:63|214:86,1,45,8|8,0:1|0:1,0:0:0:0:
258,128,131814,1,8,0:1:0:0:
190,311,132056,5,10,3:2:0:0:
286,370,132298,1,10,0:1:0:0:
461,223,132540,5,10,3:2:0:0:
357,214,132782,2,0,P|338:239|320:266,1,45,2|8,0:0|0:1,0:0:0:0:
451,74,133023,6,0,B|495:62|489:5|437:-17|379:12|378:57,1,166.050002533722,10|0,3:1|0:0,0:0:0:0:
367,54,133507,1,2,0:0:0:0:
306,29,133749,1,10,0:1:0:0:
193,156,133991,1,10,0:2:0:0:
229,184,134112,1,8,0:1:0:0:
276,173,134233,1,8,0:1:0:0:
342,234,134475,2,0,P|372:290|386:336,1,90,2|10,0:0|0:1,0:0:0:0:
191,141,134959,5,10,3:1:0:0:
148,208,135201,2,0,P|118:264|104:310,1,90,0|8,3:0|0:1,0:0:0:0:
189,128,135685,1,2,3:0:0:0:
0,129,135927,2,0,L|9:84,1,45,10|0,0:2|0:0,0:0:0:0:
71,48,136169,1,2,3:0:0:0:
51,175,136411,2,0,L|45:213,2,22.5,10|8|8,0:1|0:1|0:1,0:0:0:0:
98,174,136652,1,10,0:1:0:0:
141,147,136773,1,8,0:1:0:0:
160,102,136894,5,10,3:1:0:0:
190,0,137136,2,0,B|240:30|251:103|251:103|254:68|285:38,1,180,10|0,3:1|3:0,3:0:0:0:
475,164,137862,1,8,0:2:0:0:
414,248,138104,1,2,3:0:0:0:
460,298,138346,1,10,0:1:0:0:
387,372,138588,1,10,0:1:0:0:
286,283,138830,6,0,P|276:243|268:181,1,75.5999976928712,10|10,3:1|0:1,0:0:0:0:
197,329,139314,2,0,P|185:346|164:370,1,37.7999988464356,10|10,3:1|0:1,0:0:0:0:
117,344,139556,1,2,0:0:0:0:
46,211,139798,1,2,3:0:0:0:
123,241,140040,1,10,0:1:0:0:
174,203,140281,1,10,0:1:0:0:
158,141,140523,2,0,L|167:113,1,17.0999997912598
168,111,140765,5,2,0:0:0:0:
256,192,140886,12,0,144636,0:0:0:0:
