osu file format v14

[General]
AudioFilename: audio.mp3
AudioLeadIn: 0
PreviewTime: 62100
Countdown: 0
SampleSet: Soft
StackLeniency: 0.5
Mode: 0
LetterboxInBreaks: 0
WidescreenStoryboard: 1

[Editor]
Bookmarks: 79822,94338
DistanceSpacing: 1.2
BeatDivisor: 4
GridSize: 32
TimelineZoom: 1.2

[Metadata]
Title:LOSING SLEEP (feat. Kelsey Kuan)
TitleUnicode:LOSING SLEEP (feat. Kelsey Kuan)
Artist:City Girl
ArtistUnicode:City Girl
Creator:xandeez nuts
Version:HARD
Source:
Tags:C-Girl female vocalist vocals english hip hop lo-fi pop acoustic lofi hip-hop hiphop ft. featuring [poke]
BeatmapID:3114502
BeatmapSetID:1521806

[Difficulty]
HPDrainRate:4.2
CircleSize:4.6
OverallDifficulty:6.9
ApproachRate:7.7
SliderMultiplier:1.4
SliderTickRate:1

[Events]
//Background and Video events
0,0,"EHwaU26.png",0,0
//Break Periods
2,79798,93528
//Storyboard Layer 0 (Background)
//Storyboard Layer 1 (Fail)
//Storyboard Layer 2 (Pass)
//Storyboard Layer 3 (Foreground)
//Storyboard Layer 4 (Overlay)
//Storyboard Sound Samples

[TimingPoints]
1422,483.870967741935,4,2,1,40,1,0
16905,-133.333333333333,4,2,1,40,0,0
32389,-119.047619047619,4,2,1,50,0,0
47873,-133.333333333333,4,2,1,35,0,0
54405,-23.8095238095238,4,2,1,5,0,0
54526,-133.333333333333,4,2,1,35,0,0
55615,-133.333333333333,4,2,1,35,0,0
62389,-222.222222222222,4,2,1,35,0,0
63347,483.870967741935,4,2,1,60,1,0
63347,-100,4,2,1,60,0,1
78709,-23.8095238095238,4,2,1,5,0,1
78830,-100,4,2,1,60,0,0
94324,483.870967741935,4,2,1,60,1,0
94324,-133.333333333333,4,2,1,60,0,0
109791,-133.333333333333,4,2,1,35,0,0
116340,-23.8095238095238,4,2,1,5,0,0
116462,-133.333333333333,4,2,1,35,0,0
117514,-133.333333333333,4,2,1,35,0,0
124288,-222.222222222222,4,2,1,35,0,0
125282,483.870967741935,4,2,1,70,1,0
125282,-100,4,2,1,70,0,1
140644,-23.8095238095238,4,2,1,5,0,1
140765,-100,4,2,1,70,0,0
142590,-23.8095238095238,4,2,1,70,0,0
144646,-23.8095238095238,4,2,1,5,0,0

[Colours]
Combo1 : 63,222,199
Combo2 : 215,68,71
Combo3 : 68,46,194
Combo4 : 181,204,17

[HitObjects]
116,193,16905,6,0,P|130:222|142:259,1,52.5000020027161,2|2,3:0|0:0,0:0:0:0:
203,283,17389,2,0,P|222:243|268:192,1,105.000004005432,2|10,0:0|0:2,0:0:0:0:
329,229,18115,1,2,3:0:0:0:
397,188,18357,2,0,P|407:146|409:120,1,52.5000020027161,2|2,0:0|3:0,0:0:0:0:
351,47,18841,5,2,3:0:0:0:
351,47,19083,2,0,P|314:59|270:7,1,105.000004005432,2|2,0:0|0:0,0:0:0:0:
203,57,19809,2,0,P|169:79|142:87,1,52.5000020027161,10|2,0:2|0:0,0:0:0:0:
254,124,20292,1,2,0:0:0:0:
254,124,20776,6,0,P|264:159|270:186,1,52.5000020027161,2|2,3:0|0:0,0:0:0:0:
203,212,21260,2,0,P|193:247|187:274,1,52.5000020027161,2|2,0:0|0:0,0:0:0:0:
237,331,21744,1,10,0:2:0:0:
237,331,21986,1,2,3:0:0:0:
169,370,22228,2,0,P|132:380|107:382,1,52.5000020027161,2|2,0:0|3:0,0:0:0:0:
50,309,22712,5,2,3:0:0:0:
50,309,22954,2,0,B|50:257|82:267|77:206,1,105.000004005432,2|2,0:0|0:0,0:0:0:0:
117,149,23680,2,0,P|151:168|165:178,1,52.5000020027161,10|2,0:2|0:0,0:0:0:0:
195,249,24163,1,2,0:0:0:0:
195,249,24647,6,0,P|244:241|270:241,1,52.5000020027161,2|2,3:0|0:0,0:0:0:0:
299,181,25131,2,0,P|343:202|355:262,1,105.000004005432,2|8,0:0|0:2,0:0:0:0:
416,300,25857,1,0,3:0:0:0:
469,242,26099,2,0,P|489:207|508:180,1,52.5000020027161,2|2,0:0|3:0,0:0:0:0:
460,131,26583,5,2,3:0:0:0:
460,131,26825,1,2,0:0:0:0:
496,62,27067,2,0,P|469:42|438:27,1,52.5000020027161,2|0,0:0|0:0,0:0:0:0:
383,70,27551,2,0,P|341:84|278:100,1,105.000004005432,8|2,0:2|0:0,0:0:0:0:
215,55,28276,1,2,0:0:0:0:
126,127,28518,6,0,P|109:158|102:184,1,52.5000020027161,2|2,3:0|0:0,0:0:0:0:
157,226,29002,1,2,0:0:0:0:
157,226,29486,1,10,0:2:0:0:
118,298,29728,2,0,B|169:297|158:338|228:329,1,105.000004005432,2|0,3:0|3:0,0:0:0:0:
266,274,30454,6,0,P|302:264|323:260,1,52.5000020027161,2|0,3:0|0:0,0:0:0:0:
394,290,30938,1,0,0:0:0:0:
394,290,31421,2,0,P|420:248|401:192,1,105.000004005432,8|0,0:2|0:0,0:0:0:0:
448,131,32147,1,2,3:0:0:0:
365,62,32389,6,0,P|327:100|253:82,1,117.599996411133,10|2,3:1|0:0,0:0:0:0:
197,111,33115,1,10,0:1:0:0:
226,214,33357,2,0,P|210:251|194:278,1,58.7999982055665,10|2,0:2|3:0,0:0:0:0:
131,298,33841,2,0,P|153:328|170:359,1,58.7999982055665,2|10,0:0|3:1,0:0:0:0:
43,249,34325,5,2,3:0:0:0:
43,249,34567,2,0,P|84:212|69:150,1,117.599996411133,2|2,3:0|3:0,0:0:0:0:
121,93,35292,2,0,P|159:107|197:115,1,58.7999982055665,10|2,0:2|3:0,0:0:0:0:
241,72,35776,1,10,0:1:0:0:
310,114,36018,2,0,L|315:149,1,29.3999991027832,10|8,0:1|0:1,0:0:0:0:
306,165,36260,6,0,P|342:179|370:200,1,58.7999982055665,10|10,3:1|0:1,0:0:0:0:
433,169,36744,2,0,P|448:204|453:239,1,58.7999982055665,2|2,0:0|0:0,0:0:0:0:
398,303,37228,1,10,0:2:0:0:
332,268,37470,1,2,3:0:0:0:
286,332,37712,2,0,P|245:345|218:347,1,58.7999982055665,10|10,0:1|0:1,0:0:0:0:
165,280,38196,5,2,3:0:0:0:
165,280,38438,2,0,P|116:267|92:265,1,58.7999982055665,10|0,0:1|3:0,0:0:0:0:
45,313,38921,1,2,0:0:0:0:
11,222,39163,2,0,P|1:185|2:148,1,58.7999982055665,10|10,0:2|0:1,0:0:0:0:
62,118,39647,1,2,0:0:0:0:
273,186,40131,6,0,P|251:143|250:116,1,58.7999982055665,10|10,3:1|0:1,0:0:0:0:
332,242,40615,2,0,P|362:220|441:259,1,117.599996411133,2|8,0:0|0:2,0:0:0:0:
498,205,41341,2,0,P|512:159|512:128,1,58.7999982055665,0|0,3:0|0:0,0:0:0:0:
448,109,41825,1,10,3:1:0:0:
495,21,42067,6,0,P|458:8|439:2,1,58.7999982055665,10|2,3:1|3:0,0:0:0:0:
377,37,42551,1,2,0:0:0:0:
309,9,42792,1,0,3:0:0:0:
241,81,43034,2,0,P|201:94|174:97,1,58.7999982055665,8|0,0:2|3:0,0:0:0:0:
133,41,43518,1,8,0:1:0:0:
55,55,43760,2,0,L|46:91,1,29.3999991027832,10|8,0:1|0:1,0:0:0:0:
74,109,44002,6,0,P|40:123|30:206,1,117.599996411133,10|2,3:1|0:0,0:0:0:0:
89,228,44728,1,2,0:0:0:0:
181,190,44970,2,0,L|239:230,1,58.7999982055665,8|2,0:2|0:0,0:0:0:0:
246,299,45454,1,10,0:1:0:0:
246,299,45696,1,10,3:1:0:0:
176,341,45938,6,0,B|90:324|105:406|7:383,1,176.399994616699,2|0,3:0|0:0,0:0:0:0:
33,289,46905,1,14,0:2:0:0:
309,109,47873,6,0,P|327:141|401:144,1,105.000004005432,2|2,3:0|0:0,0:0:0:0:
433,90,48598,1,10,0:1:0:0:
433,90,48840,1,2,0:0:0:0:
486,256,49325,2,0,P|480:280|462:317,1,52.5000020027161,8|0,0:1|0:0,0:0:0:0:
398,288,49808,5,2,0:0:0:0:
343,337,50050,2,0,B|289:343|302:301|233:312,1,105.000004005432,10|2,0:1|0:0,0:0:0:0:
182,354,50776,1,10,0:1:0:0:
67,217,51260,1,10,0:1:0:0:
183,67,51744,6,0,P|240:82|293:106,1,105.000004005432,10|0,0:1|0:0,0:0:0:0:
282,180,52469,1,8,0:1:0:0:
282,180,52711,1,0,0:0:0:0:
115,116,53196,2,0,P|103:89|96:58,1,52.5000020027161,8|0,0:1|0:0,0:0:0:0:
172,168,53679,5,8,0:1:0:0:
37,278,54163,2,0,P|26:304|17:350,1,52.5000020027161,8|0,0:1|0:0,0:0:0:0:
29,335,54526,1,8,0:1:0:0:
39,345,54647,2,0,B|103:338|74:385|158:373,1,105.000004005432,8|8,0:1|0:1,0:0:0:0:
342,232,55615,6,0,P|355:193|360:125,1,105.000004005432,14|2,0:1|0:0,0:0:0:0:
303,80,56340,1,10,0:1:0:0:
303,80,56582,1,2,0:0:0:0:
462,12,57067,2,0,P|503:22|524:33,1,52.5000020027161,8|0,0:1|0:0,0:0:0:0:
477,93,57550,5,2,0:0:0:0:
512,158,57792,2,0,B|516:216|471:195|483:275,1,105.000004005432,10|2,0:1|0:0,0:0:0:0:
429,303,58518,1,10,0:1:0:0:
276,218,59002,1,10,0:1:0:0:
143,342,59486,6,0,P|107:362|56:319,1,105.000004005432,10|0,0:1|0:0,0:0:0:0:
102,268,60212,2,0,P|116:227|125:194,1,52.5000020027161,8|0,0:1|0:0,0:0:0:0:
84,148,60695,1,2,3:0:0:0:
138,88,60937,1,10,0:1:0:0:
138,88,61179,1,2,0:0:0:0:
241,236,61663,6,0,P|284:218|309:210,1,52.5000020027161,8|0,0:1|0:0,0:0:0:0:
366,219,62147,1,10,0:1:0:0:
425,166,62389,2,0,P|436:138|438:103,1,62.9999980773926,2|2,0:0|0:0,0:0:0:0:
438,105,63347,6,0,B|360:82|370:150|302:132,1,140,2|2,3:0|0:0,0:0:0:0:
256,84,64072,1,10,0:1:0:0:
183,148,64314,1,10,0:2:0:0:
111,116,64556,1,10,0:1:0:0:
47,162,64798,2,0,P|31:208|22:249,1,70,2|10,0:0|3:1,0:0:0:0:
113,296,65282,5,0,3:0:0:0:
130,373,65524,2,0,P|139:323|226:286,1,140,0|0,3:0|3:0,0:0:0:0:
304,339,66250,2,0,P|342:358|372:361,1,70,10|2,0:2|3:0,0:0:0:0:
322,260,66734,1,10,0:1:0:0:
256,203,66976,1,10,0:1:0:0:
256,203,67097,1,8,0:1:0:0:
256,203,67217,6,0,P|300:164|381:199,1,140,10|2,3:1|0:0,0:0:0:0:
454,165,67943,1,2,0:0:0:0:
488,264,68185,2,0,P|474:314|457:350,1,70,10|2,0:2|3:0,0:0:0:0:
392,317,68669,1,10,0:1:0:0:
301,372,68911,1,10,0:1:0:0:
207,307,69153,6,0,B|190:232|248:246|229:160,1,140,2|8,3:0|0:1,0:0:0:0:
231,173,70121,2,0,P|269:150|304:147,1,70,10|10,3:2|0:1,0:0:0:0:
191,103,70605,1,10,3:2:0:0:
113,98,70846,1,2,0:0:0:0:
153,10,71088,6,0,B|215:1|218:53|287:42,1,140,10|2,3:1|0:0,0:0:0:0:
353,1,71814,1,10,0:1:0:0:
436,82,72056,1,10,0:2:0:0:
503,43,72298,1,8,0:1:0:0:
435,103,72540,2,0,P|424:144|419:177,1,70,2|10,0:0|0:1,0:0:0:0:
457,250,73024,6,0,P|413:198|332:199,1,140,10|8,3:1|0:1,0:0:0:0:
321,270,73750,1,2,3:0:0:0:
234,215,73992,2,0,P|245:179|269:140,1,70,10|2,0:2|3:0,0:0:0:0:
167,257,74476,1,10,0:1:0:0:
215,327,74717,1,10,0:1:0:0:
215,327,74838,1,8,0:1:0:0:
215,327,74959,6,0,B|191:371|147:362|147:362|130:326|83:315,1,140,10|0,3:1|0:0,0:0:0:0:
106,323,75927,2,0,P|101:276|100:236,1,70,8|2,0:2|3:0,0:0:0:0:
46,187,76411,1,10,0:1:0:0:
46,187,76653,1,10,0:1:0:0:
113,99,76895,6,0,B|149:134|190:120|190:120|215:92|194:54,1,140,10|10,3:1|3:1,0:0:0:0:
261,20,77621,1,2,0:0:0:0:
353,91,77863,1,2,3:0:0:0:
418,49,78105,1,10,0:1:0:0:
481,106,78346,2,0,P|487:152|484:217,1,105,10|0,0:1|0:0,0:0:0:0:
469,221,78830,5,2,0:0:0:0:
221,88,94324,6,0,P|194:79|157:71,1,52.5000020027161,10|10,3:1|0:1,0:0:0:0:
273,149,94807,2,0,P|300:140|336:132,1,52.5000020027161,2|10,0:0|0:1,0:0:0:0:
403,72,95291,5,10,0:2:0:0:
403,72,95533,1,2,3:0:0:0:
444,138,95775,2,0,P|454:167|477:206,1,52.5000020027161,2|10,0:0|0:1,0:0:0:0:
393,273,96259,6,0,P|430:274|458:348,1,105.000004005432,2|2,3:0|0:0,0:0:0:0:
389,351,96985,1,0,0:0:0:0:
286,306,97227,2,0,P|275:267|276:237,1,52.5000020027161,10|2,0:2|3:0,0:0:0:0:
315,180,97711,1,8,0:1:0:0:
272,119,97953,2,0,P|260:105|250:90,1,26.2500010013581,8|8,0:1|0:1,0:0:0:0:
239,73,98194,6,0,P|218:105|187:124,1,52.5000020027161,10|10,3:1|0:1,0:0:0:0:
134,55,98678,1,2,0:0:0:0:
99,245,99162,1,10,0:2:0:0:
99,245,99404,1,2,3:0:0:0:
179,242,99646,2,0,P|204:270|215:296,1,52.5000020027161,10|10,0:1|0:1,0:0:0:0:
159,345,100130,6,0,P|202:321|261:355,1,105.000004005432,2|0,3:0|3:0,0:0:0:0:
332,339,100856,1,2,0:0:0:0:
386,215,101098,1,10,0:2:0:0:
386,215,101340,1,10,0:1:0:0:
327,159,101582,2,0,P|314:117|314:86,1,52.5000020027161,10|10,0:1|0:1,0:0:0:0:
335,24,102065,6,0,P|361:28|386:38,1,52.5000020027161,10|10,3:1|0:1,0:0:0:0:
474,35,102549,2,0,P|477:81|414:108,1,105.000004005432,2|8,0:0|0:2,0:0:0:0:
356,158,103275,1,8,3:1:0:0:
391,230,103517,2,0,P|404:275|408:301,1,52.5000020027161,2|10,0:0|0:1,0:0:0:0:
327,353,104001,5,2,3:0:0:0:
327,353,104243,1,2,3:0:0:0:
264,307,104485,2,0,P|206:296|192:291,1,52.5000020027161,2|0,0:0|0:0,0:0:0:0:
157,205,104969,2,0,P|118:225|87:234,1,52.5000020027161,8|0,0:2|3:0,0:0:0:0:
38,191,105453,1,10,0:1:0:0:
72,122,105694,2,0,P|56:100|49:84,1,26.2500010013581,8|8,0:1|0:1,0:0:0:0:
43,75,105936,6,0,B|95:84|84:35|165:47,1,105.000004005432,10|2,3:1|0:0,0:0:0:0:
209,93,106662,1,2,0:0:0:0:
188,201,106904,1,10,0:2:0:0:
188,201,107146,1,2,0:0:0:0:
241,260,107389,2,0,P|274:281|307:296,1,52.5000020027161,10|10,0:1|0:1,0:0:0:0:
361,250,107872,6,0,P|335:264|379:362,1,157.500006008148,2|0,3:0|0:0,0:0:0:0:
433,302,108840,1,14,3:1:0:0:
96,64,109807,6,0,P|126:91|166:162,1,105.000004005432,2|2,3:0|0:0,0:0:0:0:
130,218,110533,1,10,0:1:0:0:
130,218,110775,1,2,0:0:0:0:
305,157,111259,2,0,P|287:191|278:223,1,52.5000020027161,8|0,0:1|0:0,0:0:0:0:
384,92,111743,5,2,0:0:0:0:
350,23,111985,2,0,P|417:66|455:57,1,105.000004005432,10|2,0:1|0:0,0:0:0:0:
495,14,112711,1,10,0:1:0:0:
439,153,113194,1,10,0:1:0:0:
502,311,113678,6,0,P|458:294|421:351,1,105.000004005432,10|0,0:1|0:0,0:0:0:0:
357,371,114404,1,8,0:1:0:0:
357,371,114646,1,0,0:0:0:0:
228,264,115130,2,0,P|241:225|241:202,1,52.5000020027161,8|0,0:1|0:0,0:0:0:0:
192,154,115614,5,8,0:1:0:0:
46,242,116098,2,0,P|32:205|29:177,1,52.5000020027161,8|0,0:1|0:0,0:0:0:0:
22,183,116461,1,8,0:1:0:0:
14,175,116582,2,0,P|78:168|104:120,1,105.000004005432,8|8,0:1|0:1,0:0:0:0:
263,35,117549,6,0,B|314:25|308:69|369:57,1,105.000004005432,14|2,0:1|0:0,0:0:0:0:
423,19,118275,1,10,0:1:0:0:
423,19,118517,1,2,0:0:0:0:
333,141,119001,2,0,P|325:169|315:197,1,52.5000020027161,8|0,0:1|0:0,0:0:0:0:
355,257,119485,1,2,0:0:0:0:
288,297,119727,2,0,P|314:323|286:386,1,105.000004005432,10|2,0:1|0:0,0:0:0:0:
226,343,120453,1,10,0:1:0:0:
82,259,120936,1,10,0:1:0:0:
204,127,121420,6,0,P|179:85|138:35,1,105.000004005432,10|0,0:1|0:0,0:0:0:0:
213,9,122146,2,0,P|247:19|287:22,1,52.5000020027161,8|0,0:1|0:0,0:0:0:0:
322,72,122630,1,2,3:0:0:0:
393,35,122872,1,10,0:1:0:0:
393,35,123114,1,2,0:0:0:0:
293,206,123598,6,0,P|282:243|280:262,1,52.5000020027161,8|0,0:1|0:0,0:0:0:0:
310,331,124082,1,10,0:1:0:0:
384,313,124323,2,0,P|430:308|456:300,1,62.9999980773926,2|2,0:0|0:0,0:0:0:0:
446,304,125282,6,0,B|473:263|450:229|450:229|408:225|390:173,1,140,2|2,3:0|0:0,0:0:0:0:
464,151,126007,1,10,0:1:0:0:
370,105,126249,1,10,0:2:0:0:
301,144,126491,1,10,0:1:0:0:
240,101,126733,2,0,P|227:64|204:25,1,70,2|10,0:0|3:1,0:0:0:0:
157,183,127217,5,0,3:0:0:0:
193,247,127459,2,0,B|254:270|248:203|343:227,1,140,0|0,3:0|3:0,0:0:0:0:
381,331,128185,2,0,P|422:348|459:356,1,70,10|2,0:2|3:0,0:0:0:0:
309,366,128669,1,10,0:1:0:0:
244,322,128911,1,10,0:1:0:0:
244,322,129032,1,8,0:1:0:0:
244,322,129152,6,0,P|218:290|125:333,1,140,10|2,3:1|0:0,0:0:0:0:
55,302,129878,1,2,0:0:0:0:
103,205,130120,2,0,P|126:165|143:126,1,70,10|2,0:2|3:0,0:0:0:0:
103,75,130604,1,10,0:1:0:0:
194,42,130846,1,10,0:1:0:0:
271,105,131088,6,0,P|336:113|411:136,1,140,2|8,3:0|0:1,0:0:0:0:
407,134,132056,2,0,P|434:104|449:71,1,70,10|10,3:2|0:1,0:0:0:0:
356,200,132540,1,10,3:2:0:0:
399,269,132782,1,2,0:0:0:0:
303,322,133023,6,0,P|261:305|188:356,1,140,10|2,3:1|0:0,0:0:0:0:
146,292,133749,1,10,0:1:0:0:
209,187,133991,1,10,0:2:0:0:
281,215,134233,1,8,0:1:0:0:
330,153,134475,2,0,P|337:114|337:77,1,70,2|10,0:0|0:1,0:0:0:0:
251,23,134959,6,0,B|217:-2|173:24|173:24|173:65|126:81,1,140,10|8,3:1|0:1,0:0:0:0:
74,47,135685,1,2,3:0:0:0:
28,145,135927,2,0,P|42:188|55:217,1,70,10|2,0:2|3:0,0:0:0:0:
115,248,136411,1,10,0:1:0:0:
68,307,136652,1,10,0:1:0:0:
68,307,136773,1,8,0:1:0:0:
68,307,136894,6,0,B|136:307|126:246|202:249,1,140,10|0,3:1|0:0,0:0:0:0:
190,249,137862,2,0,P|206:288|219:324,1,70,8|2,0:2|3:0,0:0:0:0:
265,204,138346,1,10,0:1:0:0:
265,204,138588,1,10,0:1:0:0:
380,241,138830,6,0,P|366:197|440:137,1,140,10|10,3:1|3:1,0:0:0:0:
426,137,139798,1,2,3:0:0:0:
484,187,140040,1,10,0:1:0:0:
462,266,140281,2,0,P|445:307|437:370,1,105,10|0,0:1|0:0,0:0:0:0:
459,384,140765,5,2,0:0:0:0:
256,192,140886,12,0,144636,0:0:0:0:
