osu file format v14

[General]
AudioFilename: Yuubae Present.mp3
AudioLeadIn: 0
PreviewTime: 63303
Countdown: 0
SampleSet: Soft
StackLeniency: 0.7
Mode: 0
LetterboxInBreaks: 1
WidescreenStoryboard: 1

[Editor]
DistanceSpacing: 1
BeatDivisor: 4
GridSize: 8
TimelineZoom: 1.5

[Metadata]
Title:Yuubae Present
TitleUnicode:夕映えプレゼント
Artist:CINDERELLA PROJECT
ArtistUnicode:CINDERELLA PROJECT
Creator:Hijiri
Version:Master
Source:アイドルマスター シンデレラガールズ
Tags:
BeatmapID:825869
BeatmapSetID:377337

[Difficulty]
HPDrainRate:6
CircleSize:4
OverallDifficulty:8
ApproachRate:9
SliderMultiplier:1.5
SliderTickRate:1

[Events]
//Background and Video events
0,0,"cinde.jpg",0,0
//Break Periods
//Storyboard Layer 0 (Background)
//Storyboard Layer 1 (Fail)
//Storyboard Layer 2 (Pass)
//Storyboard Layer 3 (Foreground)
//Storyboard Sound Samples

[TimingPoints]
1934,342.857142857143,4,2,1,100,1,0
23877,-71.4285714285714,4,2,1,100,0,0
24220,-83.3333333333333,4,2,1,100,0,0
63648,-76.9230769230769,4,2,1,100,0,1
85591,-71.4285714285714,4,2,1,100,0,0
85934,-83.3333333333333,4,2,1,100,0,0
92448,-71.4285714285714,4,2,1,100,0,0

[HitObjects]
280,80,1934,6,0,B|192:24|64:96|96:256|96:256|176:136|296:216|288:288,1,600
440,304,3648,5,0,0:0:0:0:
328,200,3990,1,0,0:0:0:0:
224,304,4333,1,0,0:0:0:0:
112,200,4677,6,0,P|90:134|137:70,1,150
208,80,5191,2,0,P|229:145|182:209,1,150
144,272,5877,6,0,B|192:384|352:360|344:240|344:240|232:208|256:80|344:72,1,525
456,152,7420,6,0,B|424:232|304:264|232:200|232:200|280:120|280:120|184:144|168:40|168:40|112:104,1,600
96,248,9134,5,0,0:0:0:0:
200,144,9477,1,0,0:0:0:0:
232,296,9820,1,0,0:0:0:0:
336,184,10162,1,0,0:0:0:0:
336,184,11534,5,0,0:0:0:0:
424,187,12906,6,0,P|344:195|280:251,1,150,2|0,0:0|0:0,0:0:0:0:
175,335,13591,1,0,0:0:0:0:
79,234,13934,2,0,P|49:267|31:306,2,75,2|0|2,0:0|0:0|0:0,0:0:0:0:
226,205,14620,5,0,0:0:0:0:
370,244,14963,2,0,P|443:224|457:129,1,150,2|0,0:0|0:0,0:0:0:0:
329,100,15648,6,0,P|248:98|180:117,1,150,2|0,0:0|0:0,0:0:0:0:
138,54,16163,2,0,P|107:119|143:182,1,150,2|0,0:0|0:0,0:0:0:0:
204,225,16677,1,0,0:0:0:0:
251,82,17020,5,2,0:0:0:0:
106,125,17705,5,0,0:0:0:0:
128,272,18391,6,0,B|160:192|256:224|256:280|256:280|256:336|328:352|368:296,1,300,2|0,0:0|0:0,0:0:0:0:
416,304,19248,1,2,0:0:0:0:
480,264,19420,1,0,0:0:0:0:
512,192,19591,2,0,P|464:144|384:128,1,150,2|0,0:0|0:0,0:0:0:0:
168,64,20448,5,2,0:0:0:0:
216,120,20620,1,0,0:0:0:0:
200,192,20791,1,2,0:0:0:0:
128,208,20963,1,0,0:0:0:0:
64,176,21134,2,0,P|72:256|160:272,1,150,2|0,0:0|0:0,0:0:0:0:
267,222,21820,6,0,P|198:238|126:206,1,150,2|0,0:0|0:0,0:0:0:0:
224,80,22506,1,0,0:0:0:0:
376,200,22848,1,2,0:0:0:0:
456,152,23020,1,2,0:0:0:0:
376,96,23191,1,2,0:0:0:0:
192,40,23534,5,2,0:0:0:0:
216,312,23877,2,0,L|432:344,1,209.999993591309,2|8,0:0|0:0,0:0:0:0:
488,88,24563,5,2,0:0:0:0:
368,176,24734,1,0,0:0:0:0:
328,32,24906,1,8,0:0:0:0:
344,168,25077,2,0,P|344:256|264:296,1,179.999994506836,2|0,0:0|0:0,0:0:0:0:
136,248,25591,6,0,P|192:216|248:216,1,89.9999972534181,10|0,0:0|0:0,0:0:0:0:
328,176,25934,1,2,0:0:0:0:
312,288,26106,1,0,0:0:0:0:
136,168,26277,2,0,P|196:145|251:153,1,89.9999972534181,10|0,0:0|0:0,0:0:0:0:
328,176,26620,1,4,0:0:0:0:
128,56,26963,5,8,0:0:0:0:
264,176,27134,1,2,0:0:0:0:
104,208,27306,1,8,0:0:0:0:
232,72,27477,5,2,0:0:0:0:
200,256,27648,1,8,0:0:0:0:
72,128,27820,1,2,0:0:0:0:
304,256,27991,5,8,0:0:0:0:
352,80,28163,1,2,0:0:0:0:
472,208,28334,1,8,0:0:0:0:
400,352,28506,6,0,L|360:160,1,179.999994506836,8|0,0:0|0:0,0:0:0:0:
312,72,29020,2,0,L|240:136,1,89.9999972534181,10|0,0:0|0:0,0:0:0:0:
161,216,29363,6,0,P|95:164|128:88,1,179.999994506836,4|8,0:0|0:0,0:0:0:0:
392,184,30048,1,2,0:0:0:0:
296,248,30220,1,0,0:0:0:0:
248,144,30391,1,8,0:0:0:0:
280,48,30563,6,0,P|192:48|144:152,1,179.999994506836
104,232,31077,2,0,P|152:208|216:216,1,89.9999972534181,8|0,0:0|0:0,0:0:0:0:
296,248,31420,1,2,0:0:0:0:
400,304,31591,1,0,0:0:0:0:
448,200,31763,2,0,P|464:144|464:72,1,89.9999972534181,8|0,0:0|0:0,0:0:0:0:
352,32,32106,6,0,P|328:112|352:224,1,179.999994506836,4|8,0:0|0:0,0:0:0:0:
343,205,32619,1,0,0:0:0:0:
408,304,32791,2,2,P|432:264|480:208,1,89.9999972534181,2|0,0:0|0:0,0:0:0:0:
312,344,33134,2,0,L|200:344,1,89.9999972534181,8|0,0:0|0:0,0:0:0:0:
120,192,33477,5,2,0:0:0:0:
272,264,33648,1,0,0:0:0:0:
343,205,33820,2,0,P|288:152|240:136,1,89.9999972534181,8|0,0:0|0:0,0:0:0:0:
160,224,34163,1,2,0:0:0:0:
232,312,34334,1,0,0:0:0:0:
304,224,34506,2,0,P|408:176|416:112,1,179.999994506836,8|4,0:0|0:0,0:0:0:0:
328,136,35020,5,0,0:0:0:0:
216,40,35191,2,0,P|280:24|344:32,1,89.9999972534181,10|0,0:0|0:0,0:0:0:0:
441,108,35534,1,2,0:0:0:0:
497,212,35706,1,0,0:0:0:0:
425,116,35877,2,0,L|337:204,1,89.9999972534181,8|0,0:0|0:0,0:0:0:0:
353,300,36220,5,2,0:0:0:0:
249,252,36391,1,0,0:0:0:0:
137,268,36563,2,0,P|89:236|81:188,1,89.9999972534181,8|0,0:0|0:0,0:0:0:0:
80,64,36906,1,2,0:0:0:0:
216,136,37077,1,0,0:0:0:0:
80,208,37248,2,0,P|160:248|168:248,1,89.9999972534181,8|0,0:0|0:0,0:0:0:0:
336,296,37591,6,0,L|520:296,2,179.999994506836,4|8|2,0:0|0:0|0:0,0:0:0:0:
240,104,38448,1,2,0:0:0:0:
400,200,38619,1,8,0:0:0:0:
256,304,38790,1,2,0:0:0:0:
256,304,39134,5,8,0:0:0:0:
222,315,39219,1,0,0:0:0:0:
187,309,39305,1,0,0:0:0:0:
158,288,39390,1,0,0:0:0:0:
144,255,39476,1,0,0:0:0:0:
146,220,39562,1,0,0:0:0:0:
160,192,39648,6,0,L|128:176,5,29.9999990844727,8|0|0|0|0|0,0:0|0:0|0:0|0:0|0:0|0:0,0:0:0:0:
184,168,39990,2,0,L|160:128,5,29.9999990844727,8|0|0|0|0|0,0:0|0:0|0:0|0:0|0:0|0:0,0:0:0:0:
208,184,40334,6,0,P|264:208|368:152,1,179.999994506836,4|8,0:0|0:0,0:0:0:0:
440,72,40848,1,0,0:0:0:0:
328,32,41020,2,0,L|256:144,1,89.9999972534181,2|0,0:0|0:0,0:0:0:0:
168,65,41363,1,10,0:0:0:0:
208,184,41534,2,0,P|304:200|344:288,1,179.999994506836,2|0,0:0|0:0,0:0:0:0:
208,336,42048,5,10,0:0:0:0:
208,184,42220,1,0,0:0:0:0:
376,288,42391,1,2,0:0:0:0:
160,264,42563,1,0,0:0:0:0:
291,318,42734,2,0,L|403:278,1,89.9999972534181,8|0,0:0|0:0,0:0:0:0:
488,144,43077,6,0,P|392:144|352:208,1,179.999994506836,4|8,0:0|0:0,0:0:0:0:
432,296,43591,1,0,0:0:0:0:
248,312,43763,1,2,0:0:0:0:
216,200,43934,2,0,L|320:200,1,89.9999972534181,0|8,0:0|0:0,0:0:0:0:
488,144,44277,2,0,P|392:144|288:112,1,179.999994506836,2|2,0:0|0:0,0:0:0:0:
120,72,44791,6,0,P|160:40|236:36,1,89.9999972534181,8|0,0:0|0:0,0:0:0:0:
288,104,45134,1,2,0:0:0:0:
192,176,45306,1,0,0:0:0:0:
280,256,45477,2,0,P|216:328|128:304,1,179.999994506836,8|4,0:0|0:0,0:0:0:0:
48,160,45991,5,0,0:0:0:0:
200,256,46162,1,8,0:0:0:0:
304,208,46334,2,0,L|288:112,1,89.9999972534181
192,48,46677,1,2,0:0:0:0:
96,112,46848,1,8,0:0:0:0:
104,232,47020,6,0,P|192:192|288:216,1,179.999994506836,2|0,0:0|0:0,0:0:0:0:
360,288,47534,1,8,0:0:0:0:
472,248,47706,2,0,P|416:176|392:72,1,179.999994506836
248,40,48220,2,0,L|240:144,1,89.9999972534181,8|0,0:0|0:0,0:0:0:0:
160,208,48562,6,0,P|232:256|328:232,1,179.999994506836,4|8,0:0|0:0,0:0:0:0:
424,88,49077,2,0,P|488:136|472:248,1,179.999994506836,0|2,0:0|0:0,0:0:0:0:
400,304,49591,1,8,0:0:0:0:
232,240,49763,6,0,P|264:144|248:64,2,179.999994506836,2|2|2,0:0|0:0|0:0,0:0:0:0:
128,272,50620,2,0,P|184:336|216:336,1,89.9999972534181,8|0,0:0|0:0,0:0:0:0:
360,296,50962,2,0,P|304:232|272:232,1,89.9999972534181,2|0,0:0|0:0,0:0:0:0:
112,144,51306,6,0,P|208:168|320:152,1,179.999994506836,4|0,0:0|0:0,0:0:0:0:
424,112,51820,1,0,0:0:0:0:
296,48,51991,1,2,0:0:0:0:
192,152,52162,1,0,0:0:0:0:
192,152,52248,1,0,0:0:0:0:
192,152,52334,2,0,L|232:336,1,179.999994506836,8|0,0:0|0:0,0:0:0:0:
336,272,52848,5,0,0:0:0:0:
368,160,53020,2,0,P|424:88|504:48,1,179.999994506836,2|0,0:0|0:0,0:0:0:0:
336,48,53534,1,0,0:0:0:0:
336,48,53620,1,0,0:0:0:0:
336,48,53706,2,0,P|232:96|128:88,1,179.999994506836,8|0,0:0|0:0,0:0:0:0:
112,200,54220,1,0,0:0:0:0:
232,200,54391,6,0,B|278:228|318:188|318:188|350:156|398:172,1,179.999994506836,2|0,0:0|0:0,0:0:0:0:
336,272,54906,1,0,0:0:0:0:
336,272,54991,1,0,0:0:0:0:
336,272,55077,2,0,L|312:88,1,179.999994506836,8|0,0:0|0:0,0:0:0:0:
200,56,55591,1,0,0:0:0:0:
104,128,55763,6,0,L|120:320,1,179.999994506836,2|0,0:0|0:0,0:0:0:0:
216,240,56277,1,0,0:0:0:0:
216,240,56363,1,0,0:0:0:0:
216,240,56448,2,0,P|336:256|416:232,1,179.999994506836,8|4,0:0|0:0,0:0:0:0:
472,160,56962,5,0,0:0:0:0:
360,176,57134,2,0,L|312:272,1,89.9999972534181,8|0,0:0|0:0,0:0:0:0:
184,104,57477,2,0,P|248:48|344:56,2,179.999994506836,2|8|2,0:0|0:0|0:0,0:0:0:0:
328,288,58506,1,8,0:0:0:0:
184,104,58848,6,0,P|176:208|144:320,2,179.999994506836,2|8|2,0:0|0:0|0:0,0:0:0:0:
408,48,59877,1,8,0:0:0:0:
376,280,60220,2,0,P|304:328|208:264,1,179.999994506836,2|8,0:0|0:0,0:0:0:0:
56,128,60906,6,0,P|136:72|256:80,1,179.999994506836,4|2,0:0|0:0,0:0:0:0:
296,152,61420,2,0,P|216:208|96:200,1,179.999994506836,4|2,0:0|0:0,0:0:0:0:
56,128,61934,2,0,P|32:224|72:304,1,179.999994506836,4|4,0:0|0:0,0:0:0:0:
88,312,62362,5,0,0:0:0:0:
111,327,62448,1,0,0:0:0:0:
141,339,62534,1,0,0:0:0:0:
170,346,62620,1,8,0:0:0:0:
201,348,62706,1,0,0:0:0:0:
233,343,62791,1,0,0:0:0:0:
262,332,62877,1,0,0:0:0:0:
288,314,62963,6,0,L|344:320,5,29.9999990844727,2|0|0|0|0|0,0:0|0:0|0:0|0:0|0:0|0:0,0:0:0:0:
336,296,63305,2,0,L|384:288,5,29.9999990844727,8|0|0|0|0|0,0:0|0:0|0:0|0:0|0:0|0:0,0:0:0:0:
392,288,63648,6,0,L|424:80,2,194.999991073609,4|8|2,0:0|0:0|0:0,0:0:0:0:
312,344,64505,1,0,0:0:0:0:
264,256,64677,1,8,0:0:0:0:
168,288,64848,1,0,0:0:0:0:
72,288,65020,2,0,P|48:184|72:80,2,194.999991073609,4|8|2,0:0|0:0|0:0,0:0:0:0:
180,203,65876,2,0,L|236:123,1,97.4999955368044,0|8,0:0|0:0,0:0:0:0:
220,307,66220,1,0,0:0:0:0:
64,168,66391,6,0,P|144:112|256:136,1,194.999991073609,4|2,0:0|0:0,0:0:0:0:
440,256,66906,2,0,P|360:312|248:288,1,194.999991073609,12|2,0:0|0:0,0:0:0:0:
176,72,67420,1,0,0:0:0:0:
176,72,67591,2,0,B|144:184|192:160|144:304,1,194.999991073609,8|2,0:0|0:0,0:0:0:0:
352,232,68106,1,0,0:0:0:0:
168,336,68277,2,0,L|304:336,1,97.4999955368044,8|2,0:0|0:0,0:0:0:0:
280,336,68534,1,2,0:0:0:0:
296,336,68619,1,2,0:0:0:0:
504,272,68791,2,0,L|376:272,1,97.4999955368044,8|0,0:0|0:0,0:0:0:0:
184,152,69134,6,0,P|120:80|0:80,2,194.999991073609,4|8|2,0:0|0:0|0:0,0:0:0:0:
352,272,69991,1,0,0:0:0:0:
152,240,70163,1,8,0:0:0:0:
256,136,70334,2,0,L|240:336,1,194.999991073609,0|2,0:0|0:0,0:0:0:0:
145,337,70848,2,0,L|153:217,1,97.4999955368044,8|0,0:0|0:0,0:0:0:0:
56,128,71191,5,4,0:0:0:0:
74,113,71276,1,0,0:0:0:0:
96,102,71362,1,0,0:0:0:0:
117,92,71448,1,0,0:0:0:0:
141,87,71534,1,8,0:0:0:0:
165,84,71619,1,0,0:0:0:0:
188,85,71705,1,0,0:0:0:0:
212,89,71791,1,0,0:0:0:0:
235,97,71877,5,4,0:0:0:0:
368,328,72048,1,2,0:0:0:0:
487,112,72391,1,4,0:0:0:0:
248,240,72734,1,2,0:0:0:0:
248,240,73077,6,0,P|160:240|80:152,1,194.999991073609,4|10,0:0|0:0,0:0:0:0:
152,48,73591,1,0,0:0:0:0:
152,48,73762,2,0,L|288:48,1,97.4999955368044,8|2,0:0|0:0,0:0:0:0:
264,48,74020,1,2,0:0:0:0:
280,48,74105,1,2,0:0:0:0:
472,112,74277,2,0,L|368:112,1,97.4999955368044,8|0,0:0|0:0,0:0:0:0:
176,144,74620,6,4,B|144:264|184:216|152:336,2,194.999991073609,4|8|2,0:0|0:0|0:0,0:0:0:0:
320,200,75477,1,0,0:0:0:0:
416,320,75648,2,0,L|312:320,1,97.4999955368044,8|0,0:0|0:0,0:0:0:0:
184,224,75991,2,0,P|208:112|304:80,2,194.999991073609,4|8|2,0:0|0:0|0:0,0:0:0:0:
320,200,76848,1,0,0:0:0:0:
416,112,77020,1,8,0:0:0:0:
273,79,77191,1,0,0:0:0:0:
104,184,77363,6,0,P|224:152|304:184,1,194.999991073609,4|8,0:0|0:0,0:0:0:0:
424,328,77877,2,0,L|384:96,1,194.999991073609,0|2,0:0|0:0,0:0:0:0:
200,56,78391,1,8,0:0:0:0:
200,56,78562,2,0,L|224:184,1,97.4999955368044,2|2,0:0|0:0,0:0:0:0:
384,120,78905,1,2,0:0:0:0:
232,248,79077,1,8,0:0:0:0:
144,128,79248,6,0,P|240:160|280:152,1,97.4999955368044,0|2,0:0|0:0,0:0:0:0:
248,160,79505,1,2,0:0:0:0:
264,160,79591,1,2,0:0:0:0:
456,232,79762,2,0,P|400:232|336:240,1,97.4999955368044,8|8,0:0|0:0,0:0:0:0:
120,184,80105,6,0,P|120:96|240:88,2,194.999991073609,4|8|2,0:0|0:0|0:0,0:0:0:0:
336,192,80962,1,0,0:0:0:0:
184,288,81134,1,8,0:0:0:0:
232,80,81305,2,0,P|336:104|432:72,1,194.999991073609,0|2,0:0|0:0,0:0:0:0:
472,208,81820,2,0,P|464:264|464:312,1,97.4999955368044,8|0,0:0|0:0,0:0:0:0:
248,280,82162,5,2,0:0:0:0:
448,192,82334,1,0,0:0:0:0:
248,304,82505,1,8,0:0:0:0:
440,344,82677,1,0,0:0:0:0:
352,128,82848,6,0,L|352:336,2,194.999991073609,4|8|2,0:0|0:0|0:0,0:0:0:0:
136,320,83877,2,0,P|95:225|162:134,1,194.999991073609,8|2,0:0|0:0,0:0:0:0:
384,264,84562,5,8,0:0:0:0:
480,168,84734,1,0,0:0:0:0:
352,128,84905,1,2,0:0:0:0:
192,352,85248,1,8,0:0:0:0:
96,80,85591,2,0,L|336:56,1,209.999993591309,4|8,0:0|0:0,0:0:0:0:
280,296,86276,5,2,0:0:0:0:
312,184,86448,1,0,0:0:0:0:
416,232,86619,1,8,0:0:0:0:
328,160,86791,2,0,P|272:192|128:176,1,179.999994506836,0|2,0:0|0:0,0:0:0:0:
56,64,87305,6,0,P|112:56|176:80,1,89.9999972534181,8|0,0:0|0:0,0:0:0:0:
232,144,87648,1,2,0:0:0:0:
152,224,87819,1,0,0:0:0:0:
112,112,87991,6,0,P|168:116|225:154,1,89.9999972534181,8|0,0:0|0:0,0:0:0:0:
224,288,88334,1,8,0:0:0:0:
424,168,88676,5,8,0:0:0:0:
232,64,88848,1,0,0:0:0:0:
256,264,89019,1,8,0:0:0:0:
312,192,89191,5,0,0:0:0:0:
120,152,89362,1,8,0:0:0:0:
192,336,89534,1,0,0:0:0:0:
424,176,89705,5,8,0:0:0:0:
480,240,89876,1,0,0:0:0:0:
440,320,90048,1,8,0:0:0:0:
440,320,90219,1,0,0:0:0:0:
424,176,90391,2,0,L|448:64,1,89.9999972534181,8|0,0:0|0:0,0:0:0:0:
328,56,90734,5,8,0:0:0:0:
322,77,90819,1,0,0:0:0:0:
316,99,90905,1,0,0:0:0:0:
310,121,90991,1,0,0:0:0:0:
304,142,91076,1,4,0:0:0:0:
240,240,91248,5,2,0:0:0:0:
136,112,91419,1,8,0:0:0:0:
224,256,91591,1,2,0:0:0:0:
48,168,91762,5,8,0:0:0:0:
208,272,91934,1,2,0:0:0:0:
216,88,92105,1,8,0:0:0:0:
192,288,92276,1,2,0:0:0:0:
280,184,92448,2,0,P|384:208|280:200,1,314.999990386963,12|4,0:0|0:0,0:0:0:0:
120,99,93305,5,10,0:0:0:0:
120,99,93476,1,10,0:0:0:0:
