osu file format v14

[General]
AudioFilename: cg2.mp3
AudioLeadIn: 1500
PreviewTime: 71847
Countdown: 0
SampleSet: None
StackLeniency: 0.7
Mode: 0
LetterboxInBreaks: 0
WidescreenStoryboard: 1

[Editor]
DistanceSpacing: 1
BeatDivisor: 4
GridSize: 4
TimelineZoom: 1.7

[Metadata]
Title:Yume Iro Harmony (TV Size)
TitleUnicode:夢色ハーモニー (TV Size)
Artist:CINDERELLA PROJECT
ArtistUnicode:CINDERELLA PROJECT
Creator:searchingfor
Version:Regular
Source:アイドルマスター シンデレラガールズ
Tags:im@s CINDERELLA cute passion cool
BeatmapID:948259
BeatmapSetID:438421

[Difficulty]
HPDrainRate:5
CircleSize:3.5
OverallDifficulty:5
ApproachRate:6
SliderMultiplier:1.1
SliderTickRate:1

[Events]
//Background and Video events
0,0,"bg.jpg",0,0
//Break Periods
2,10179,11640
//Storyboard Layer 0 (Background)
//Storyboard Layer 1 (Fail)
//Storyboard Layer 2 (Pass)
//Storyboard Layer 3 (Foreground)
//Storyboard Sound Samples

[TimingPoints]
457,337.078651685393,4,2,1,20,1,0
4586,337.078651685393,4,2,1,20,1,0
12690,337.078651685393,4,2,1,40,1,0
23476,-100,4,2,1,55,0,0
34263,-100,4,2,1,50,0,0
55836,-133.333333333333,4,2,1,45,0,0
63925,-100,4,2,1,50,0,0
69319,-100,4,2,1,55,0,0
72015,-100,4,2,1,60,0,1
82128,-100,4,2,1,60,0,0
82802,-100,4,2,1,60,0,1
90892,-100,4,2,1,65,0,1
93588,-100,4,2,1,50,0,0
101678,337.078651685393,4,2,1,30,1,0

[Colours]
Combo1 : 255,128,0
Combo2 : 255,0,128
Combo3 : 0,255,128
Combo4 : 128,0,255

[HitObjects]
124,224,457,6,0,P|192:212|228:240,1,110
264,268,962,2,0,L|376:276,2,110
80,72,2816,6,0,L|76:148,1,55
76,184,3153,2,0,P|168:192|192:168,1,110
216,148,3659,2,0,P|271:127|328:144,2,110
440,192,5597,6,0,P|408:196|380:220,1,55
364,256,5934,2,0,L|232:248,1,110
200,264,6439,2,0,P|140:288|104:252,2,110
336,176,7619,1,0,0:0:0:0:
336,176,7956,1,0,0:0:0:0:
276,84,8293,6,0,L|216:88,1,55
168,92,8630,2,0,P|152:152|176:212,1,110
220,200,9136,2,0,P|233:252|217:304,1,110
72,228,9979,1,0,0:0:0:0:
112,132,12690,6,0,P|96:200|168:252,1,165
276,260,13532,1,0,0:0:0:0:
380,228,13869,2,0,P|344:172|240:156,1,165
195,153,14543,1,0,0:0:0:0:
108,84,14881,2,0,P|84:168|100:204,1,110
132,220,15386,6,0,L|120:288,2,55
188,224,15892,2,0,B|235:227|235:227|254:217|254:217|320:220,1,110
404,216,16566,2,0,P|436:148|384:76,1,165
284,104,17409,1,0,0:0:0:0:
192,164,17746,6,0,L|132:168,1,55
84,172,18083,1,0,0:0:0:0:
84,172,18251,2,0,P|72:240|104:296,1,110
248,244,19094,2,0,L|256:176,1,55
260,136,19431,1,0,0:0:0:0:
260,136,19600,2,0,B|316:120|316:120|384:144,1,110
152,312,20779,5,0,0:0:0:0:
80,228,21116,1,0,0:0:0:0:
144,136,21453,1,0,0:0:0:0:
216,220,21791,1,0,0:0:0:0:
276,128,22128,2,0,P|332:104|392:124,1,110
384,224,22802,2,0,P|328:248|268:228,1,110
176,212,23476,6,0,L|112:224,2,55
228,196,23982,2,0,P|248:136|224:88,1,110
336,60,24656,2,0,B|392:52|440:76|440:76|428:152,1,165
396,176,25330,2,0,P|364:232|384:288,1,110
408,320,25836,1,0,0:0:0:0:
300,320,26173,6,0,P|196:332|192:328,1,110
164,300,26678,2,0,L|44:308,2,110
204,260,27521,2,0,P|208:196|192:148,1,110
280,84,28195,2,0,L|348:88,1,55
344,140,28532,2,0,L|412:144,1,55
452,148,28869,6,0,P|472:224|452:264,1,110
408,256,29375,2,0,P|352:252|296:272,1,110
256,300,29881,2,0,P|226:299|192:280,1,55
148,280,30218,2,0,B|160:232|160:232|132:152,1,110
124,124,30723,1,0,0:0:0:0:
224,80,31060,2,0,L|216:20,2,55
232,136,31566,5,0,0:0:0:0:
252,244,31903,1,0,0:0:0:0:
144,260,32240,1,0,0:0:0:0:
124,152,32577,1,0,0:0:0:0:
212,88,32914,2,0,P|288:68|332:88,1,110
352,180,33588,2,0,P|276:200|232:180,1,110
188,284,34263,6,0,P|120:296|96:268,1,110
72,220,34768,1,0,0:0:0:0:
72,220,34937,2,0,L|80:88,1,110
184,80,35611,2,0,B|224:56|224:56|292:64,1,110
340,72,36116,2,0,P|324:132|352:192,1,110
372,220,36622,1,0,0:0:0:0:
312,312,36959,1,0,0:0:0:0:
248,224,37296,6,0,P|192:200|128:224,1,110
96,236,37802,2,0,L|88:292,2,55
52,204,38307,2,0,P|40:128|60:80,1,110
76,48,38813,2,0,P|144:64|192:44,1,110
232,32,39319,1,0,0:0:0:0:
312,108,39656,1,0,0:0:0:0:
368,200,39993,6,0,B|336:216|336:216|276:192|240:212,1,110
224,240,40498,1,0,0:0:0:0:
184,276,40667,2,0,L|120:280,1,55
76,268,41004,2,0,P|60:220|88:148,1,110
104,116,41510,2,0,P|151:141|204:132,1,110
252,104,42015,2,0,P|312:96|356:124,1,110
452,168,42689,5,0,0:0:0:0:
452,168,42858,2,0,P|460:228|444:284,1,110
392,268,43364,2,0,P|360:264|332:272,1,55
288,296,43701,2,0,L|160:280,1,110
124,276,44206,2,0,P|124:200|136:160,1,110
160,120,44712,1,0,0:0:0:0:
248,184,45049,1,0,0:0:0:0:
356,172,45386,6,0,P|368:236|344:296,1,110
320,320,45892,1,0,0:0:0:0:
268,300,46060,2,0,L|152:304,1,110
64,244,46734,1,0,0:0:0:0:
88,196,46903,2,0,B|96:148|96:148|72:108|80:68,1,110
124,60,47409,2,0,L|120:0,2,55
232,44,48083,6,0,L|236:108,1,55
288,120,48420,2,0,P|308:176|280:232,1,110
248,256,48925,1,0,0:0:0:0:
204,224,49094,2,0,L|84:224,1,110
40,232,49600,2,0,P|56:160|36:104,1,110
12,84,50105,2,0,L|20:16,2,55
120,84,50779,6,0,L|196:76,1,55
228,72,51116,2,0,P|224:132|268:180,1,110
320,260,51791,2,0,L|440:268,1,110
484,272,52296,2,0,B|460:232|460:232|468:152,1,110
476,116,52802,2,0,P|444:108|408:112,1,55
368,120,53139,6,0,P|312:124|252:88,2,110
300,208,54150,2,0,P|296:248|288:268,1,55
244,288,54487,2,0,P|184:288|148:320,1,110
48,276,55161,1,0,0:0:0:0:
100,180,55498,1,0,0:0:0:0:
100,180,55836,6,0,P|144:208|224:200,1,123.750004720688
252,192,56510,1,0,0:0:0:0:
320,240,56847,2,0,L|376:248,1,41.2500015735627
400,252,57184,1,0,0:0:0:0:
432,224,57352,2,0,P|452:168|448:144,1,82.5000031471254
436,108,57858,6,0,L|344:100,1,82.5000031471254
280,136,58532,2,0,P|224:152|192:136,1,82.5000031471254
168,124,59038,2,0,L|72:136,2,82.5000031471254
164,208,60049,6,0,L|160:268,2,41.2500015735627
200,188,60555,2,0,P|244:176|288:200,1,82.5000031471254
344,240,61229,2,0,B|384:248|428:236|428:236|432:192,1,123.750004720688
428,156,61903,2,0,P|420:104|428:68,1,82.5000031471254
344,64,62577,2,0,L|292:64,2,41.2500015735627
340,148,63251,6,0,L|336:208,1,41.2500015735627
296,200,63588,2,0,L|292:260,1,41.2500015735627
264,288,63925,6,0,P|192:300|144:288,2,110
348,216,64937,1,0,0:0:0:0:
356,160,65105,2,0,B|364:104|364:104|308:84|248:104,1,165
148,92,65948,2,0,P|152:168|120:200,1,110
120,300,66622,2,0,P|200:336|272:312,1,165
316,280,67296,1,0,0:0:0:0:
364,252,67465,6,0,L|368:196,2,55
300,164,68139,1,0,0:0:0:0:
288,112,68307,2,0,P|284:52|244:32,1,110
168,112,68982,2,0,L|164:180,1,55
160,220,69319,6,0,P|212:248|280:232,1,110
308,216,69824,1,0,0:0:0:0:
348,252,69993,2,0,L|352:316,2,55
400,236,70498,2,0,P|440:184|432:128,1,110
420,88,71004,1,0,0:0:0:0:
420,88,71173,1,0,0:0:0:0:
320,216,71678,6,0,L|320:280,1,55
288,316,72015,2,0,P|240:328|176:300,1,110
148,268,72521,2,0,L|36:264,1,110
56,156,73195,2,0,P|48:92|88:44,1,110
112,20,73701,1,0,0:0:0:0:
160,48,73869,2,0,L|296:52,1,110
324,48,74375,1,0,0:0:0:0:
408,120,74712,6,0,L|412:180,1,55
416,228,75049,1,0,0:0:0:0:
380,272,75218,2,0,P|308:284|252:268,2,110
416,228,76060,2,0,L|480:232,2,55
380,188,76566,2,0,B|368:148|368:148|388:80,1,110
404,28,77072,1,0,0:0:0:0:
304,72,77409,6,0,P|236:56|188:80,1,110
196,180,78083,2,0,P|247:197|299:182,1,110
344,148,78588,1,0,0:0:0:0:
388,180,78757,2,0,B|416:216|416:216|408:288,1,110
368,316,79263,1,0,0:0:0:0:
320,288,79431,2,0,L|256:296,2,55
356,184,80105,6,0,P|376:116|352:72,1,110
308,68,80611,2,0,B|272:60|272:60|200:76,1,110
148,92,81116,1,0,0:0:0:0:
104,192,81454,2,0,L|40:200,2,55
152,216,81959,2,0,P|168:276|152:320,1,110
112,356,82465,1,0,0:0:0:0:
60,260,82802,6,0,L|56:128,1,110
68,96,83307,2,0,P|128:116|180:84,1,110
212,64,83813,1,0,0:0:0:0:
264,80,83982,2,0,B|288:112|288:112|272:192,1,110
248,228,84487,1,0,0:0:0:0:
280,272,84656,2,0,P|336:296|404:284,1,110
400,128,85498,6,0,L|408:52,2,55
364,168,86004,2,0,P|300:180|248:144,1,110
196,248,86678,2,0,P|146:226|94:240,1,110
52,276,87184,1,0,0:0:0:0:
12,236,87352,2,0,B|-8:200|-8:200|8:120,1,110
48,96,87858,6,0,P|82:89|120:100,1,55
148,124,88195,2,0,L|280:128,1,110
312,128,88701,2,0,P|292:184|320:236,1,110
364,244,89206,2,0,L|356:304,1,55
308,328,89543,2,0,P|236:344|192:320,1,110
168,288,90049,2,0,L|52:280,1,110
4,272,90555,1,0,0:0:0:0:
12,164,90892,5,0,0:0:0:0:
72,72,91229,1,0,0:0:0:0:
176,104,91566,1,0,0:0:0:0:
192,212,91903,1,0,0:0:0:0:
288,160,92240,2,0,P|360:156|396:184,1,110
364,284,92914,2,0,P|292:288|256:260,1,110
156,244,93588,6,0,L|88:248,2,55
192,204,94094,2,0,P|200:132|180:92,1,110
148,60,94600,1,0,0:0:0:0:
256,84,94937,6,0,L|248:16,2,55
288,128,95442,2,0,P|344:148|400:132,1,110
440,112,95948,1,0,0:0:0:0:
408,216,96285,2,0,L|416:284,2,55
356,196,96791,2,0,B|316:192|316:192|248:216,1,110
200,232,97296,1,0,0:0:0:0:
256,192,97970,12,0,101678,0:0:0:0:
