osu file format v14

[General]
AudioFilename: cg2.mp3
AudioLeadIn: 1500
PreviewTime: 71847
Countdown: 0
SampleSet: Soft
StackLeniency: 0.7
Mode: 0
LetterboxInBreaks: 0
WidescreenStoryboard: 0

[Editor]
DistanceSpacing: 1.2
BeatDivisor: 4
GridSize: 4
TimelineZoom: 1.7

[Metadata]
Title:Yume Iro Harmony (TV Size)
TitleUnicode:夢色ハーモニー (TV Size)
Artist:CINDERELLA PROJECT
ArtistUnicode:CINDERELLA PROJECT
Creator:searchingfor
Version:Pro
Source:アイドルマスター シンデレラガールズ
Tags:im@s CINDERELLA cute passion cool
BeatmapID:943779
BeatmapSetID:438421

[Difficulty]
HPDrainRate:6
CircleSize:4.3
OverallDifficulty:6.4
ApproachRate:7.6
SliderMultiplier:1.2
SliderTickRate:1

[Events]
//Background and Video events
0,0,"bg.jpg",0,0
//Break Periods
2,10179,11881
//Storyboard Layer 0 (Background)
//Storyboard Layer 1 (Fail)
//Storyboard Layer 2 (Pass)
//Storyboard Layer 3 (Foreground)
//Storyboard Sound Samples

[TimingPoints]
457,337.078651685393,4,2,1,20,1,0
4586,337.078651685393,4,2,1,20,1,0
12690,337.078651685393,4,2,1,40,1,0
23476,-100,4,2,1,55,0,0
34263,-100,4,2,1,50,0,0
55836,-133.333333333333,4,2,1,45,0,0
63925,-100,4,2,1,50,0,0
69319,-100,4,2,1,55,0,0
72015,-100,4,2,1,60,0,1
82128,-100,4,2,1,60,0,0
82802,-100,4,2,1,60,0,1
90892,-100,4,2,1,65,0,1
93588,-100,4,2,1,50,0,0
101678,337.078651685393,4,2,1,30,1,0

[Colours]
Combo1 : 255,128,0
Combo2 : 255,0,128
Combo3 : 0,255,128
Combo4 : 128,0,255

[HitObjects]
112,268,457,6,0,P|160:296|232:256,1,120
264,220,962,2,0,L|396:224,2,120
84,60,2816,6,0,L|80:132,1,60
76,192,3153,2,0,P|168:200|204:172,1,120
216,120,3659,2,0,P|271:99|328:115,2,120
348,200,5597,5,0,0:0:0:0:
420,208,5765,1,0,0:0:0:0:
376,268,5934,2,0,P|360:308|288:340,1,120
228,312,6439,2,0,B|193:298|193:298|96:308,2,120
204,116,7619,1,0,0:0:0:0:
204,116,7956,1,0,0:0:0:0:
336,176,8293,6,0,L|336:244,1,60
292,292,8630,2,0,P|200:288|172:304,1,120
132,244,9136,2,0,P|75:264|17:252,1,120
176,108,9979,1,0,0:0:0:0:
328,192,12691,6,0,P|252:176|200:212,1,120
176,256,13195,2,0,P|148:228|160:144,1,120
284,96,13869,2,0,P|268:52|144:24,1,180
92,64,14543,2,0,B|60:96|60:96|80:152|68:188,1,120
60,240,15049,2,0,P|104:248|136:240,1,60
195,153,15386,6,0,L|184:212,2,60
228,88,15892,2,0,P|296:92|356:68,1,120
408,44,16397,1,0,0:0:0:0:
436,108,16566,2,0,B|456:156|448:200|448:200|398:197|352:212,1,180
88,56,17746,6,0,L|84:136,1,60
152,144,18083,2,0,L|152:224,2,60
196,88,18588,2,0,P|252:76|320:128,1,120
332,172,19094,2,0,L|408:168,1,60
396,240,19431,2,0,L|472:236,2,60
324,240,19937,2,0,P|312:288|196:292,1,180
44,264,20779,5,0,0:0:0:0:
76,124,21116,1,0,0:0:0:0:
216,92,21453,1,0,0:0:0:0:
348,152,21791,1,0,0:0:0:0:
360,296,22128,2,0,P|296:320|228:292,1,120
152,200,22802,2,0,P|216:176|284:204,1,120
332,212,23307,1,0,0:0:0:0:
351,88,23476,6,0,P|346:117|332:144,2,60
284,60,23982,2,0,P|200:52|156:76,1,120
108,104,24487,1,0,0:0:0:0:
172,140,24656,2,0,B|192:176|192:176|152:236|164:264,1,120
184,316,25161,1,0,0:0:0:0:
252,288,25330,2,0,P|328:284|372:300,1,120
432,332,25836,2,0,L|491:325,1,60
428,260,26173,6,0,P|440:184|424:132,1,120
372,104,26678,2,0,P|313:91|255:102,1,120
240,172,27184,1,0,0:0:0:0:
180,132,27352,1,0,0:0:0:0:
244,176,27521,2,0,L|252:240,1,60
191,315,27858,2,0,L|183:255,1,60
132,204,28195,2,0,P|100:212|52:196,1,60
5,132,28532,2,0,P|35:128|64:136,1,60
136,128,28869,6,0,P|160:84|232:64,1,120
212,140,29375,2,0,L|224:272,1,120
232,331,29881,2,0,P|202:330|176:315,1,60
288,288,30218,2,0,L|420:284,1,120
368,344,30723,2,0,P|336:288|368:224,1,120
396,180,31229,2,0,L|455:176,1,60
324,172,31566,5,0,0:0:0:0:
184,132,31903,1,0,0:0:0:0:
180,276,32240,1,0,0:0:0:0:
164,132,32577,1,0,0:0:0:0:
324,100,32914,6,0,L|383:92,1,60
316,172,33251,2,0,L|374:183,1,60
276,232,33588,2,0,L|328:261,1,60
220,276,33925,2,0,L|260:320,1,60
208,204,34263,6,0,P|144:192|64:196,1,120
16,200,34768,1,0,0:0:0:0:
48,136,34937,2,0,L|40:64,1,60
112,68,35274,2,0,L|118:127,1,60
128,200,35611,2,0,P|184:172|192:104,1,120
204,48,36116,2,0,B|232:46|255:19|255:19|286:49|336:40,1,120
380,44,36622,2,0,L|387:103,2,60
320,212,37296,6,0,P|216:216|180:232,1,120
136,248,37802,1,0,0:0:0:0:
76,212,37970,1,0,0:0:0:0:
100,144,38139,1,0,0:0:0:0:
28,160,38307,2,0,P|32:116|96:72,1,120
156,100,38813,2,0,L|288:96,1,120
348,96,39319,1,0,0:0:0:0:
416,224,39656,1,0,0:0:0:0:
292,296,39993,6,0,B|260:312|260:312|200:288|160:312,1,120
108,328,40498,1,0,0:0:0:0:
124,256,40667,2,0,P|112:216|88:188,1,60
32,192,41004,2,0,P|60:140|124:132,1,120
180,164,41510,2,0,P|236:180|287:141,1,120
224,108,42015,2,0,L|208:48,1,60
320,84,42352,2,0,P|396:84|432:140,1,120
360,148,42858,2,0,B|340:180|348:216|348:216|356:248|340:284,1,120
332,336,43364,2,0,P|361:341|388:330,1,60
272,296,43701,6,0,L|136:280,1,120
80,276,44206,2,0,P|80:200|96:156,1,120
168,167,44712,2,0,P|173:138|162:111,2,60
296,60,45386,6,0,L|376:76,1,60
406,155,45723,2,0,L|348:144,1,60
257,196,46060,2,0,L|316:208,1,60
244,124,46397,2,0,P|188:164|192:232,1,120
136,268,46903,2,0,L|4:252,1,120
52,188,47409,1,0,0:0:0:0:
20,124,47577,1,0,0:0:0:0:
64,68,47746,1,0,0:0:0:0:
240,108,48083,6,0,L|324:124,1,60
368,136,48420,2,0,P|368:172|352:212,1,60
285,266,48757,2,0,P|284:236|291:208,1,60
228,312,49094,2,0,P|152:320|104:288,1,120
64,348,49600,2,0,L|88:224,1,120
96,160,50105,1,0,0:0:0:0:
168,160,50274,1,0,0:0:0:0:
136,96,50442,1,0,0:0:0:0:
316,96,50779,5,0,0:0:0:0:
316,96,50947,1,0,0:0:0:0:
316,96,51116,2,0,P|360:92|432:136,1,120
472,180,51622,1,0,0:0:0:0:
400,196,51791,2,0,B|379:262|379:262|392:324,1,120
336,360,52296,2,0,L|192:364,1,120
144,360,52802,2,0,P|128:332|128:300,1,60
204,304,53139,6,0,P|188:244|128:224,2,120
276,300,53982,2,0,L|344:296,2,60
423,228,54487,2,0,L|364:232,1,60
495,152,54824,2,0,L|436:156,1,60
336,120,55161,1,0,0:0:0:0:
304,108,55498,1,0,0:0:0:0:
272,96,55836,6,0,P|208:80|144:104,1,135.000005149841
88,140,56510,1,0,0:0:0:0:
212,188,56847,2,0,P|215:232|206:276,1,90.0000034332277
268,300,57352,1,0,0:0:0:0:
348,236,57521,2,0,L|396:228,1,45.0000017166138
440,184,57858,6,0,P|416:128|428:84,1,90.0000034332277
360,72,58364,1,0,0:0:0:0:
308,116,58532,2,0,P|260:116|200:100,1,90.0000034332277
168,148,59038,2,0,L|164:244,2,90.0000034332277
60,228,60049,6,0,L|12:228,2,45.0000017166138
120,256,60555,2,0,P|168:264|220:240,1,90.0000034332277
248,196,61060,1,0,0:0:0:0:
344,160,61229,2,0,P|344:240|312:280,1,135.000005149841
256,316,61903,1,0,0:0:0:0:
196,284,62072,2,0,L|185:240,2,45.0000017166138
136,192,62577,2,0,P|184:192|232:168,1,90.0000034332277
196,112,63083,1,0,0:0:0:0:
228,52,63251,6,0,L|292:64,1,45.0000017166138
304,120,63588,2,0,L|360:116,1,45.0000017166138
356,204,63925,6,0,P|344:268|364:328,2,120
160,144,64937,1,0,0:0:0:0:
160,144,65105,2,0,P|92:152|60:60,1,180
204,40,65779,1,0,0:0:0:0:
204,40,65947,2,0,P|272:32|320:52,1,120
380,88,66454,1,0,0:0:0:0:
320,124,66622,2,0,P|312:184|324:252,1,120
380,284,67128,2,0,L|437:299,1,60
332,336,67465,6,0,L|274:320,1,60
204,308,67802,2,0,P|144:320|104:264,1,120
64,224,68307,2,0,B|56:188|56:188|64:144,1,60
132,168,68645,2,0,B|136:145|136:145|128:109,1,60
235,52,68982,6,0,L|176:56,1,60
308,52,69319,2,0,P|328:112|300:168,1,120
296,232,69824,1,0,0:0:0:0:
228,252,69993,1,0,0:0:0:0:
172,208,70161,2,0,L|108:200,1,60
68,260,70498,6,0,P|44:224|60:152,1,120
124,124,71004,1,0,0:0:0:0:
220,76,71173,1,0,0:0:0:0:
372,224,71678,2,0,L|424:216,3,30
384,188,72015,6,0,P|356:112|308:96,1,120
252,108,72521,2,0,L|124:120,1,120
60,128,73027,1,0,0:0:0:0:
136,196,73195,2,0,P|136:260|164:312,1,120
228,332,73701,1,0,0:0:0:0:
280,284,73869,2,0,L|404:288,1,120
472,288,74375,2,0,P|465:318|449:343,1,60
452,204,74712,5,0,0:0:0:0:
488,140,74881,1,0,0:0:0:0:
416,140,75049,1,0,0:0:0:0:
384,204,75218,2,0,P|296:216|256:200,2,120
424,144,76060,2,0,L|432:76,2,60
468,200,76566,2,0,P|468:248|424:312,1,120
360,292,77072,2,0,P|360:344|376:364,1,60
288,284,77409,6,0,L|200:276,1,60
287,213,77746,2,0,L|228:208,1,60
352,244,78083,2,0,P|360:204|344:172,1,60
293,86,78420,2,0,P|287:115|296:144,1,60
360,60,78757,2,0,P|336:32|252:32,1,120
192,60,79263,1,0,0:0:0:0:
248,104,79431,2,0,L|236:168,1,60
292,251,79768,2,0,L|304:192,1,60
344,300,80105,6,0,P|268:284|204:292,1,120
192,352,80611,2,0,P|148:300|168:240,1,120
164,180,81116,2,0,L|108:160,1,60
272,124,81454,5,0,0:0:0:0:
376,100,81622,1,0,0:0:0:0:
404,204,81791,1,0,0:0:0:0:
304,240,81959,2,0,P|273:276|259:217,1,120
244,156,82465,2,0,L|200:156,3,30
228,120,82802,6,0,P|240:72|300:40,1,120
304,112,83307,2,0,L|316:248,1,120
320,304,83813,1,0,0:0:0:0:
244,244,83982,2,0,P|179:225|154:158,1,120
136,116,84487,1,0,0:0:0:0:
196,72,84656,2,0,L|324:64,1,120
384,92,85161,2,0,B|392:120|392:120|388:164,1,60
376,260,85498,5,0,0:0:0:0:
308,236,85667,1,0,0:0:0:0:
264,296,85836,1,0,0:0:0:0:
160,264,86004,1,0,0:0:0:0:
192,124,86341,1,0,0:0:0:0:
340,208,86678,6,0,P|340:140|296:104,1,120
236,88,87184,1,0,0:0:0:0:
220,160,87352,2,0,P|220:228|264:264,1,120
328,268,87858,2,0,L|408:272,1,60
420,168,88195,6,0,L|361:165,2,60
492,160,88701,2,0,P|504:96|460:44,1,120
404,44,89206,2,0,L|320:40,1,60
249,101,89543,2,0,L|308:104,2,60
176,96,90049,2,0,B|164:164|164:164|180:228,1,120
248,203,90555,2,0,P|250:233|237:260,1,60
320,192,90892,5,0,0:0:0:0:
408,76,91229,1,0,0:0:0:0:
268,52,91566,1,0,0:0:0:0:
180,168,91903,1,0,0:0:0:0:
288,260,92240,6,0,P|348:284|392:228,1,120
432,196,92746,1,0,0:0:0:0:
360,184,92914,2,0,P|352:120|368:64,1,120
408,8,93420,1,0,0:0:0:0:
276,88,93588,6,0,L|284:16,2,60
264,160,94094,2,0,P|192:176|144:144,1,120
116,96,94600,1,0,0:0:0:0:
76,156,94768,1,0,0:0:0:0:
112,275,94937,6,0,P|120:252|116:216,2,60
48,248,95442,2,0,P|44:292|112:344,1,120
164,360,95948,1,0,0:0:0:0:
276,268,96285,2,0,L|340:280,2,60
208,248,96791,2,0,P|208:176|248:136,1,120
308,140,97296,1,0,0:0:0:0:
256,192,97970,12,0,101678,0:0:0:0:
