osu file format v14

[General]
AudioFilename: cg2.mp3
AudioLeadIn: 1500
PreviewTime: 71847
Countdown: 0
SampleSet: Soft
StackLeniency: 0.7
Mode: 1
LetterboxInBreaks: 0
WidescreenStoryboard: 1

[Editor]
DistanceSpacing: 1.2
BeatDivisor: 4
GridSize: 4
TimelineZoom: 1.7

[Metadata]
Title:Yume Iro Harmony (TV Size)
TitleUnicode:夢色ハーモニー (TV Size)
Artist:CINDERELLA PROJECT
ArtistUnicode:CINDERELLA PROJECT
Creator:searchingfor
Version:Oni
Source:アイドルマスター シンデレラガールズ
Tags:im@s CINDERELLA cute passion cool
BeatmapID:993179
BeatmapSetID:438421

[Difficulty]
HPDrainRate:7
CircleSize:4.8
OverallDifficulty:7
ApproachRate:8.5
SliderMultiplier:1.2
SliderTickRate:1

[Events]
//Background and Video events
0,0,"bg.jpg",0,0
//Break Periods
2,10179,11880
//Storyboard Layer 0 (Background)
//Storyboard Layer 1 (Fail)
//Storyboard Layer 2 (Pass)
//Storyboard Layer 3 (Foreground)
//Storyboard Sound Samples

[TimingPoints]
457,337.078651685393,4,2,1,20,1,0
4586,337.078651685393,4,2,1,20,1,0
12690,337.078651685393,4,2,1,40,1,0
23476,-100,4,2,1,55,0,0
34263,-100,4,2,1,50,0,0
55836,-133.333333333333,4,2,1,45,0,0
63925,-100,4,2,1,50,0,0
69319,-100,4,2,1,55,0,0
72015,-100,4,2,1,60,0,1
82128,-100,4,2,1,60,0,0
82802,-100,4,2,1,60,0,1
90892,-100,4,2,1,65,0,1
93588,-100,4,2,1,50,0,0
101678,337.078651685393,4,2,1,30,1,0

[Colours]
Combo1 : 255,128,0
Combo2 : 255,0,128
Combo3 : 0,255,128
Combo4 : 128,0,255

[HitObjects]
256,192,457,5,0,0:0:0:0:
256,192,794,1,2,0:0:0:0:
256,192,962,1,0,0:0:0:0:
256,192,1299,1,0,0:0:0:0:
256,192,1636,1,0,0:0:0:0:
256,192,2816,5,2,0:0:0:0:
256,192,2985,1,2,0:0:0:0:
256,192,3153,1,0,0:0:0:0:
256,192,3490,1,2,0:0:0:0:
256,192,3659,1,0,0:0:0:0:
256,192,3996,1,0,0:0:0:0:
256,192,4333,1,0,0:0:0:0:
256,192,5597,5,2,0:0:0:0:
256,192,5765,1,2,0:0:0:0:
256,192,5934,1,0,0:0:0:0:
256,192,6271,1,2,0:0:0:0:
256,192,6439,1,0,0:0:0:0:
256,192,6777,1,0,0:0:0:0:
256,192,7114,1,0,0:0:0:0:
256,192,7619,1,0,0:0:0:0:
256,192,7956,1,2,0:0:0:0:
256,192,8293,5,2,0:0:0:0:
256,192,8462,1,2,0:0:0:0:
256,192,8630,1,0,0:0:0:0:
256,192,8968,1,2,0:0:0:0:
256,192,9136,1,0,0:0:0:0:
256,192,9473,1,0,0:0:0:0:
256,192,9979,1,12,0:0:0:0:
256,192,12690,5,0,0:0:0:0:
256,192,12858,1,0,0:0:0:0:
256,192,13027,1,0,0:0:0:0:
256,192,13195,1,2,0:0:0:0:
256,192,13532,1,0,0:0:0:0:
256,192,13869,5,2,0:0:0:0:
256,192,14038,1,0,0:0:0:0:
256,192,14206,1,0,0:0:0:0:
256,192,14375,1,0,0:0:0:0:
256,192,14543,1,2,0:0:0:0:
256,192,14881,1,0,0:0:0:0:
256,192,15049,1,0,0:0:0:0:
256,192,15386,5,0,0:0:0:0:
256,192,15555,1,0,0:0:0:0:
256,192,15723,1,0,0:0:0:0:
256,192,15892,1,2,0:0:0:0:
256,192,16229,1,0,0:0:0:0:
256,192,16566,2,0,L|420:192,2,150
256,192,17746,5,0,0:0:0:0:
256,192,17914,1,0,0:0:0:0:
256,192,18083,1,0,0:0:0:0:
256,192,18251,1,2,0:0:0:0:
256,192,18588,1,2,0:0:0:0:
256,192,18757,1,0,0:0:0:0:
256,192,19094,5,0,0:0:0:0:
256,192,19263,1,0,0:0:0:0:
256,192,19431,1,0,0:0:0:0:
256,192,19600,1,2,0:0:0:0:
256,192,19937,1,2,0:0:0:0:
256,192,20105,1,0,0:0:0:0:
256,192,20442,1,12,0:0:0:0:
256,192,20779,5,0,0:0:0:0:
256,192,21116,1,0,0:0:0:0:
256,192,21453,1,0,0:0:0:0:
256,192,21791,1,0,0:0:0:0:
256,192,22128,2,0,L|440:192,2,180
256,192,23476,5,0,0:0:0:0:
256,192,23645,1,0,0:0:0:0:
256,192,23813,1,2,0:0:0:0:
256,192,23982,1,0,0:0:0:0:
256,192,24319,1,0,0:0:0:0:
256,192,24487,1,2,0:0:0:0:
256,192,24656,1,0,0:0:0:0:
256,192,24824,5,0,0:0:0:0:
256,192,24909,1,0,0:0:0:0:
256,192,24992,1,0,0:0:0:0:
256,192,25161,1,2,0:0:0:0:
256,192,25329,1,0,0:0:0:0:
256,192,25667,1,0,0:0:0:0:
256,192,25836,1,2,0:0:0:0:
256,192,26004,1,2,0:0:0:0:
256,192,26173,5,0,0:0:0:0:
256,192,26257,1,0,0:0:0:0:
256,192,26341,1,0,0:0:0:0:
256,192,26510,1,2,0:0:0:0:
256,192,26678,1,0,0:0:0:0:
256,192,27015,1,0,0:0:0:0:
256,192,27184,1,2,0:0:0:0:
256,192,27352,1,0,0:0:0:0:
256,192,27521,5,0,0:0:0:0:
256,192,27689,1,2,0:0:0:0:
256,192,27858,1,0,0:0:0:0:
256,192,27942,1,0,0:0:0:0:
256,192,28027,1,2,0:0:0:0:
256,192,28195,5,0,0:0:0:0:
256,192,28364,1,0,0:0:0:0:
256,192,28532,1,2,0:0:0:0:
256,192,28701,1,0,0:0:0:0:
256,192,28869,5,0,0:0:0:0:
256,192,29038,1,0,0:0:0:0:
256,192,29206,1,2,0:0:0:0:
256,192,29375,1,0,0:0:0:0:
256,192,29712,1,0,0:0:0:0:
256,192,29881,1,2,0:0:0:0:
256,192,29965,1,0,0:0:0:0:
256,192,30049,1,0,0:0:0:0:
256,192,30218,5,0,0:0:0:0:
256,192,30386,1,0,0:0:0:0:
256,192,30555,1,2,0:0:0:0:
256,192,30723,1,0,0:0:0:0:
256,192,31060,1,0,0:0:0:0:
256,192,31229,1,2,0:0:0:0:
256,192,31397,1,0,0:0:0:0:
256,192,31566,5,12,0:0:0:0:
256,192,31650,1,0,0:0:0:0:
256,192,31734,1,0,0:0:0:0:
256,192,31903,1,12,0:0:0:0:
256,192,31987,1,0,0:0:0:0:
256,192,32072,1,0,0:0:0:0:
256,192,32240,5,0,0:0:0:0:
256,192,32325,1,2,0:0:0:0:
256,192,32409,1,2,0:0:0:0:
256,192,32577,1,0,0:0:0:0:
256,192,32662,1,2,0:0:0:0:
256,192,32746,1,2,0:0:0:0:
256,192,32914,5,0,0:0:0:0:
256,192,33083,1,2,0:0:0:0:
256,192,33251,1,0,0:0:0:0:
256,192,33420,1,2,0:0:0:0:
256,192,33588,1,0,0:0:0:0:
256,192,33757,1,2,0:0:0:0:
256,192,33925,1,0,0:0:0:0:
256,192,34010,1,0,0:0:0:0:
256,192,34094,1,2,0:0:0:0:
256,192,34178,1,0,0:0:0:0:
256,192,34263,5,4,0:0:0:0:
256,192,34600,5,0,0:0:0:0:
256,192,34768,1,2,0:0:0:0:
256,192,34937,1,0,0:0:0:0:
256,192,35105,1,2,0:0:0:0:
256,192,35274,1,0,0:0:0:0:
256,192,35442,1,2,0:0:0:0:
256,192,35611,1,2,0:0:0:0:
256,192,35948,5,0,0:0:0:0:
256,192,36116,1,2,0:0:0:0:
256,192,36454,1,2,0:0:0:0:
256,192,36622,1,0,0:0:0:0:
256,192,36791,1,0,0:0:0:0:
256,192,36875,1,0,0:0:0:0:
256,192,36959,1,2,0:0:0:0:
256,192,37296,5,0,0:0:0:0:
256,192,37465,1,0,0:0:0:0:
256,192,37633,1,0,0:0:0:0:
256,192,37802,1,2,0:0:0:0:
256,192,37970,1,0,0:0:0:0:
256,192,38139,1,2,0:0:0:0:
256,192,38307,1,0,0:0:0:0:
256,192,38645,5,2,0:0:0:0:
256,192,38813,1,0,0:0:0:0:
256,192,39150,1,0,0:0:0:0:
256,192,39319,1,2,0:0:0:0:
256,192,39487,1,2,0:0:0:0:
256,192,39572,1,0,0:0:0:0:
256,192,39656,1,4,0:0:0:0:
256,192,39993,5,0,0:0:0:0:
256,192,40330,1,0,0:0:0:0:
256,192,40498,1,2,0:0:0:0:
256,192,40667,1,0,0:0:0:0:
256,192,40836,1,0,0:0:0:0:
256,192,41004,1,2,0:0:0:0:
256,192,41341,5,2,0:0:0:0:
256,192,41510,1,0,0:0:0:0:
256,192,41847,1,0,0:0:0:0:
256,192,42015,1,2,0:0:0:0:
256,192,42184,1,0,0:0:0:0:
256,192,42268,1,0,0:0:0:0:
256,192,42352,2,0,L|396:192,2,120
256,192,43364,1,2,0:0:0:0:
256,192,43532,1,0,0:0:0:0:
256,192,43701,5,0,0:0:0:0:
256,192,44038,1,2,0:0:0:0:
256,192,44206,1,0,0:0:0:0:
256,192,44543,1,0,0:0:0:0:
256,192,44712,1,0,0:0:0:0:
256,192,44881,1,0,0:0:0:0:
256,192,44965,1,0,0:0:0:0:
256,192,45049,1,2,0:0:0:0:
256,192,45386,5,0,0:0:0:0:
256,192,45555,1,2,0:0:0:0:
256,192,45723,1,0,0:0:0:0:
256,192,45807,1,0,0:0:0:0:
256,192,45892,1,2,0:0:0:0:
256,192,46060,1,0,0:0:0:0:
256,192,46229,1,0,0:0:0:0:
256,192,46397,1,0,0:0:0:0:
256,192,46734,5,0,0:0:0:0:
256,192,46903,1,2,0:0:0:0:
256,192,47240,1,2,0:0:0:0:
256,192,47409,1,0,0:0:0:0:
256,192,47577,1,2,0:0:0:0:
256,192,47661,1,0,0:0:0:0:
256,192,47746,1,0,0:0:0:0:
256,192,48083,5,0,0:0:0:0:
256,192,48251,1,2,0:0:0:0:
256,192,48420,1,0,0:0:0:0:
256,192,48504,1,0,0:0:0:0:
256,192,48588,1,2,0:0:0:0:
256,192,48757,1,0,0:0:0:0:
256,192,48925,1,0,0:0:0:0:
256,192,49094,1,0,0:0:0:0:
256,192,49431,5,0,0:0:0:0:
256,192,49600,1,2,0:0:0:0:
256,192,49768,1,0,0:0:0:0:
256,192,49852,1,0,0:0:0:0:
256,192,49937,1,2,0:0:0:0:
256,192,50105,1,0,0:0:0:0:
256,192,50274,1,2,0:0:0:0:
256,192,50442,1,2,0:0:0:0:
256,192,50779,5,0,0:0:0:0:
256,192,50948,1,2,0:0:0:0:
256,192,51116,1,0,0:0:0:0:
256,192,51454,1,0,0:0:0:0:
256,192,51622,1,0,0:0:0:0:
256,192,51706,1,0,0:0:0:0:
256,192,51791,1,0,0:0:0:0:
256,192,52128,5,0,0:0:0:0:
256,192,52296,1,2,0:0:0:0:
256,192,52633,1,0,0:0:0:0:
256,192,52802,1,2,0:0:0:0:
256,192,53139,1,0,0:0:0:0:
256,192,53307,5,2,0:0:0:0:
256,192,53476,1,0,0:0:0:0:
256,192,53813,1,2,0:0:0:0:
256,192,53982,1,0,0:0:0:0:
256,192,54150,1,0,0:0:0:0:
256,192,54234,1,0,0:0:0:0:
256,192,54319,1,0,0:0:0:0:
256,192,54487,1,2,0:0:0:0:
256,192,54656,1,2,0:0:0:0:
256,192,54740,1,0,0:0:0:0:
256,192,54824,1,0,0:0:0:0:
256,192,54993,1,0,0:0:0:0:
256,192,55161,5,0,0:0:0:0:
256,192,55498,1,0,0:0:0:0:
256,192,55836,2,0,L|360:192,2,90.0000034332277
256,192,56847,1,0,0:0:0:0:
256,192,57015,1,2,0:0:0:0:
256,192,57099,1,0,0:0:0:0:
256,192,57184,1,0,0:0:0:0:
256,192,57352,1,0,0:0:0:0:
256,192,57521,1,0,0:0:0:0:
256,192,57689,1,0,0:0:0:0:
256,192,57858,5,0,0:0:0:0:
256,192,58195,1,0,0:0:0:0:
256,192,58364,1,2,0:0:0:0:
256,192,58532,1,0,0:0:0:0:
256,192,58869,1,0,0:0:0:0:
256,192,59038,1,0,0:0:0:0:
256,192,59206,1,0,0:0:0:0:
256,192,59375,1,0,0:0:0:0:
256,192,59543,1,2,0:0:0:0:
256,192,59712,1,0,0:0:0:0:
256,192,60049,5,0,0:0:0:0:
256,192,60218,1,0,0:0:0:0:
256,192,60386,1,2,0:0:0:0:
256,192,60555,1,0,0:0:0:0:
256,192,60892,1,0,0:0:0:0:
256,192,61229,2,0,L|360:192,2,90.0000034332277
256,192,62240,5,0,0:0:0:0:
256,192,62409,1,0,0:0:0:0:
256,192,62493,1,0,0:0:0:0:
256,192,62577,1,2,0:0:0:0:
256,192,62746,1,0,0:0:0:0:
256,192,62914,1,0,0:0:0:0:
256,192,63251,5,0,0:0:0:0:
256,192,63420,1,0,0:0:0:0:
256,192,63588,1,2,0:0:0:0:
256,192,63757,1,2,0:0:0:0:
256,192,63925,5,0,0:0:0:0:
256,192,64094,1,8,0:0:0:0:
256,192,64263,1,0,0:0:0:0:
256,192,64431,1,8,0:0:0:0:
256,192,64600,1,0,0:0:0:0:
256,192,64937,5,0,0:0:0:0:
256,192,65105,1,2,0:0:0:0:
256,192,65273,1,0,0:0:0:0:
256,192,65358,1,2,0:0:0:0:
256,192,65442,1,0,0:0:0:0:
256,192,65611,1,2,0:0:0:0:
256,192,65779,1,0,0:0:0:0:
256,192,65948,1,2,0:0:0:0:
256,192,66116,1,0,0:0:0:0:
256,192,66285,1,0,0:0:0:0:
256,192,66622,5,0,0:0:0:0:
256,192,66959,1,2,0:0:0:0:
256,192,67128,1,0,0:0:0:0:
256,192,67465,1,0,0:0:0:0:
256,192,67633,1,2,0:0:0:0:
256,192,67802,1,0,0:0:0:0:
256,192,67970,1,2,0:0:0:0:
256,192,68055,1,2,0:0:0:0:
256,192,68139,1,0,0:0:0:0:
256,192,68307,5,2,0:0:0:0:
256,192,68476,1,0,0:0:0:0:
256,192,68645,1,2,0:0:0:0:
256,192,68982,1,0,0:0:0:0:
256,192,69150,1,0,0:0:0:0:
256,192,69319,5,0,0:0:0:0:
256,192,69403,1,0,0:0:0:0:
256,192,69487,1,0,0:0:0:0:
256,192,69656,1,2,0:0:0:0:
256,192,69824,1,0,0:0:0:0:
256,192,70161,1,0,0:0:0:0:
256,192,70329,1,2,0:0:0:0:
256,192,70498,1,0,0:0:0:0:
256,192,70836,5,2,0:0:0:0:
256,192,71004,1,4,0:0:0:0:
256,192,71173,1,4,0:0:0:0:
256,192,71678,5,4,0:0:0:0:
256,192,71763,1,0,0:0:0:0:
256,192,71847,1,2,0:0:0:0:
256,192,71931,1,0,0:0:0:0:
256,192,72015,1,0,0:0:0:0:
256,192,72184,1,0,0:0:0:0:
256,192,72352,1,2,0:0:0:0:
256,192,72521,1,0,0:0:0:0:
256,192,72858,1,0,0:0:0:0:
256,192,73027,1,2,0:0:0:0:
256,192,73195,1,0,0:0:0:0:
256,192,73364,1,0,0:0:0:0:
256,192,73448,1,0,0:0:0:0:
256,192,73532,5,0,0:0:0:0:
256,192,73701,1,2,0:0:0:0:
256,192,73869,1,0,0:0:0:0:
256,192,74206,1,0,0:0:0:0:
256,192,74291,1,0,0:0:0:0:
256,192,74375,1,2,0:0:0:0:
256,192,74543,1,0,0:0:0:0:
256,192,74712,1,0,0:0:0:0:
256,192,74881,1,8,0:0:0:0:
256,192,75049,5,2,0:0:0:0:
256,192,75218,1,0,0:0:0:0:
256,192,75555,1,0,0:0:0:0:
256,192,75723,1,0,0:0:0:0:
256,192,75892,1,0,0:0:0:0:
256,192,76229,5,2,0:0:0:0:
256,192,76397,1,0,0:0:0:0:
256,192,76566,1,2,0:0:0:0:
256,192,76734,1,2,0:0:0:0:
256,192,76819,1,0,0:0:0:0:
256,192,76903,1,0,0:0:0:0:
256,192,77072,1,2,0:0:0:0:
256,192,77409,5,0,0:0:0:0:
256,192,77577,1,2,0:0:0:0:
256,192,77746,1,0,0:0:0:0:
256,192,77914,1,0,0:0:0:0:
256,192,78083,1,2,0:0:0:0:
256,192,78167,1,0,0:0:0:0:
256,192,78251,1,2,0:0:0:0:
256,192,78420,1,0,0:0:0:0:
256,192,78757,5,0,0:0:0:0:
256,192,78925,1,0,0:0:0:0:
256,192,79094,1,0,0:0:0:0:
256,192,79263,1,2,0:0:0:0:
256,192,79431,1,0,0:0:0:0:
256,192,79515,1,2,0:0:0:0:
256,192,79600,1,0,0:0:0:0:
256,192,79768,1,0,0:0:0:0:
256,192,79937,1,2,0:0:0:0:
256,192,80105,1,0,0:0:0:0:
256,192,80274,5,0,0:0:0:0:
256,192,80442,1,2,0:0:0:0:
256,192,80611,1,0,0:0:0:0:
256,192,80779,1,0,0:0:0:0:
256,192,80864,1,0,0:0:0:0:
256,192,80948,1,0,0:0:0:0:
256,192,81116,1,0,0:0:0:0:
256,192,81454,5,4,0:0:0:0:
256,192,81622,1,4,0:0:0:0:
256,192,81791,1,4,0:0:0:0:
256,192,81959,1,2,0:0:0:0:
256,192,82296,5,0,0:0:0:0:
256,192,82465,1,2,0:0:0:0:
256,192,82549,1,2,0:0:0:0:
256,192,82633,1,2,0:0:0:0:
256,192,82802,5,0,0:0:0:0:
256,192,82971,1,0,0:0:0:0:
256,192,83139,1,2,0:0:0:0:
256,192,83308,1,0,0:0:0:0:
256,192,83645,1,0,0:0:0:0:
256,192,83814,1,2,0:0:0:0:
256,192,83982,1,0,0:0:0:0:
256,192,84066,1,0,0:0:0:0:
256,192,84151,1,0,0:0:0:0:
256,192,84319,5,0,0:0:0:0:
256,192,84487,1,2,0:0:0:0:
256,192,84656,1,0,0:0:0:0:
256,192,84993,1,0,0:0:0:0:
256,192,85162,1,2,0:0:0:0:
256,192,85498,5,6,0:0:0:0:
256,192,85667,1,6,0:0:0:0:
256,192,85836,1,6,0:0:0:0:
256,192,86004,1,4,0:0:0:0:
256,192,86341,1,4,0:0:0:0:
256,192,86678,5,0,0:0:0:0:
256,192,87015,1,0,0:0:0:0:
256,192,87184,1,2,0:0:0:0:
256,192,87352,1,0,0:0:0:0:
256,192,87521,1,0,0:0:0:0:
256,192,87605,1,0,0:0:0:0:
256,192,87689,1,0,0:0:0:0:
256,192,87774,1,0,0:0:0:0:
256,192,87858,5,2,0:0:0:0:
256,192,88027,1,2,0:0:0:0:
256,192,88195,1,0,0:0:0:0:
256,192,88364,1,2,0:0:0:0:
256,192,88701,1,0,0:0:0:0:
256,192,88785,1,0,0:0:0:0:
256,192,88869,1,0,0:0:0:0:
256,192,89038,1,0,0:0:0:0:
256,192,89206,5,2,0:0:0:0:
256,192,89375,1,2,0:0:0:0:
256,192,89543,1,0,0:0:0:0:
256,192,89712,1,2,0:0:0:0:
256,192,90049,1,0,0:0:0:0:
256,192,90133,1,0,0:0:0:0:
256,192,90218,1,0,0:0:0:0:
256,192,90386,1,0,0:0:0:0:
256,192,90555,1,0,0:0:0:0:
256,192,90892,5,6,0:0:0:0:
256,192,91060,1,0,0:0:0:0:
256,192,91229,1,6,0:0:0:0:
256,192,91397,1,0,0:0:0:0:
256,192,91566,5,4,0:0:0:0:
256,192,91650,1,0,0:0:0:0:
256,192,91734,1,2,0:0:0:0:
256,192,91903,1,4,0:0:0:0:
256,192,91987,1,0,0:0:0:0:
256,192,92071,1,2,0:0:0:0:
256,192,92240,5,0,0:0:0:0:
256,192,92409,1,0,0:0:0:0:
256,192,92577,1,2,0:0:0:0:
256,192,92746,1,0,0:0:0:0:
256,192,92914,2,0,L|356:192,2,90
256,192,93588,5,0,0:0:0:0:
256,192,93757,1,0,0:0:0:0:
256,192,93925,1,2,0:0:0:0:
256,192,94094,1,0,0:0:0:0:
256,192,94431,1,0,0:0:0:0:
256,192,94600,1,2,0:0:0:0:
256,192,94684,1,0,0:0:0:0:
256,192,94768,1,0,0:0:0:0:
256,192,94937,5,0,0:0:0:0:
256,192,95106,1,0,0:0:0:0:
256,192,95274,1,2,0:0:0:0:
256,192,95443,1,0,0:0:0:0:
256,192,95780,1,0,0:0:0:0:
256,192,95949,1,2,0:0:0:0:
256,192,96032,1,0,0:0:0:0:
256,192,96116,1,0,0:0:0:0:
256,192,96285,5,0,0:0:0:0:
256,192,96454,1,0,0:0:0:0:
256,192,96622,1,2,0:0:0:0:
256,192,96791,2,0,L|416:192,2,150
256,192,97970,12,0,101678,0:0:0:0:
