osu file format v14

[General]
AudioFilename: cg2.mp3
AudioLeadIn: 1500
PreviewTime: 71847
Countdown: 0
SampleSet: Soft
StackLeniency: 0.7
Mode: 0
LetterboxInBreaks: 0
WidescreenStoryboard: 1

[Editor]
DistanceSpacing: 1
BeatDivisor: 4
GridSize: 4
TimelineZoom: 1.7

[Metadata]
Title:Yume Iro Harmony (TV Size)
TitleUnicode:夢色ハーモニー (TV Size)
Artist:CINDERELLA PROJECT
ArtistUnicode:CINDERELLA PROJECT
Creator:searchingfor
Version:Debut
Source:アイドルマスター シンデレラガールズ
Tags:im@s CINDERELLA cute passion cool
BeatmapID:953531
BeatmapSetID:438421

[Difficulty]
HPDrainRate:4
CircleSize:3
OverallDifficulty:3
ApproachRate:4
SliderMultiplier:0.9
SliderTickRate:1

[Events]
//Background and Video events
0,0,"bg.jpg",0,0
//Break Periods
//Storyboard Layer 0 (Background)
//Storyboard Layer 1 (Fail)
//Storyboard Layer 2 (Pass)
//Storyboard Layer 3 (Foreground)
//Storyboard Sound Samples

[TimingPoints]
457,337.078651685393,4,2,1,20,1,0
4586,337.078651685393,4,2,1,20,1,0
12690,337.078651685393,4,2,1,40,1,0
23476,-100,4,2,1,55,0,0
34263,-100,4,2,1,50,0,0
55836,-100,4,2,1,45,0,0
63925,-100,4,2,1,50,0,0
69319,-100,4,2,1,55,0,0
72015,-100,4,2,1,60,0,1
82128,-100,4,2,1,60,0,0
82802,-100,4,2,1,60,0,1
90892,-100,4,2,1,65,0,1
93588,-100,4,2,1,50,0,0
101678,337.078651685393,4,2,1,30,1,0

[Colours]
Combo1 : 255,128,0
Combo2 : 255,0,128
Combo3 : 0,255,128
Combo4 : 128,0,255

[HitObjects]
64,112,12690,6,0,P|80:196|64:248,1,135,12|0,0:0|0:0,0:0:0:0:
120,316,13532,1,0,0:0:0:0:
208,308,13869,2,0,P|304:292|368:360,1,180,8|0,0:0|0:0,0:0:0:0:
452,344,14881,1,0,0:0:0:0:
480,212,15386,6,0,P|500:156|496:112,1,90,8|0,0:0|0:0,0:0:0:0:
412,112,16060,2,0,P|392:168|396:216,1,90,8|0,0:0|0:0,0:0:0:0:
312,236,16734,2,0,B|239:261|239:261|182:223|192:156,1,180,8|8,0:0|0:0,0:0:0:0:
228,92,17746,5,2,0:0:0:0:
316,104,18083,2,0,L|408:108,2,90,8|0|8,0:0|0:0|0:0,0:0:0:0:
296,192,19094,1,2,0:0:0:0:
208,176,19431,2,0,P|188:220|196:272,2,90,8|0|8,0:0|0:0|0:0,0:0:0:0:
288,216,20442,1,2,0:0:0:0:
376,200,20779,6,0,P|400:148|388:92,1,100,8|0,0:0|0:0,0:0:0:0:
316,100,21454,2,0,L|208:96,1,90,8|0,0:0|0:0,0:0:0:0:
136,92,22128,2,0,P|102:183|140:268,2,180,8|8|8,0:0|0:0|0:0,0:0:0:0:
220,60,23813,6,0,P|280:40|324:52,1,90
392,68,24487,1,0,0:0:0:0:
332,136,24824,2,0,L|312:332,1,180
232,276,25836,1,0,0:0:0:0:
144,288,26173,6,0,P|80:300|44:288,1,90
28,212,26847,2,0,L|40:116,1,90
120,84,27521,1,0,0:0:0:0:
208,80,27858,2,0,L|300:64,2,90
168,160,28869,6,0,B|156:220|156:220|188:264|236:260,2,135
252,128,30218,2,0,B|296:117|348:129|348:129|392:108,2,135
168,100,31566,2,0,P|164:168|176:200,1,90
252,224,32240,2,0,P|265:272|256:320,1,90
168,304,32914,2,0,B|128:284|92:304|92:304|64:252|80:188,2,180
188,216,34600,6,0,P|248:208|292:244,1,100
348,284,35274,2,0,P|391:305|439:295,1,100
480,212,35948,2,0,P|488:152|472:112,1,90
400,84,36622,1,0,0:0:0:0:
320,124,36959,1,0,0:0:0:0:
244,172,37296,6,0,P|188:148|148:160,1,90
88,208,37970,2,0,L|76:264,2,45
24,144,38645,2,0,P|4:84|24:44,1,90
96,28,39319,1,0,0:0:0:0:
180,64,39656,1,0,0:0:0:0:
264,92,39993,6,0,P|252:148|268:192,1,90
340,224,40667,2,0,P|352:168|336:128,1,90
348,48,41341,1,0,0:0:0:0:
264,92,41678,2,0,L|160:84,2,90
256,180,42689,5,0,0:0:0:0:
280,268,43027,2,0,L|272:320,2,45
352,216,43701,2,0,L|456:212,1,90
496,140,44375,1,0,0:0:0:0:
412,112,44712,2,0,P|388:60|400:24,1,90
308,48,45386,6,0,L|200:52,1,90
228,140,46060,2,0,L|320:136,1,90
392,84,46734,1,0,0:0:0:0:
452,152,47072,2,0,P|456:212|432:248,2,90
364,152,48083,6,0,P|324:132|264:140,1,90
216,196,48757,1,0,0:0:0:0:
128,172,49094,2,0,L|124:64,1,90
204,40,49768,1,0,0:0:0:0:
288,72,50105,2,0,L|340:64,2,45
296,160,50779,6,0,L|300:220,2,45
208,140,51454,2,0,L|204:88,2,45
132,184,52128,2,0,P|112:236|120:284,1,90
192,312,52802,2,0,P|248:312|280:344,1,90
352,376,53476,5,0,0:0:0:0:
400,300,53813,1,0,0:0:0:0:
368,216,54150,2,0,L|376:152,2,45
284,252,54824,2,0,P|232:248|192:216,2,90
356,200,55836,6,0,P|368:108|288:64,1,180
216,52,56847,1,0,0:0:0:0:
144,108,57184,2,0,L|136:216,2,90
64,64,58195,2,0,L|12:56,2,45
48,152,58869,2,0,P|40:212|64:252,1,90
132,272,59543,2,0,P|140:224|120:180,1,90
132,96,60218,1,0,0:0:0:0:
220,80,60555,6,0,L|328:72,1,90
396,92,61229,2,0,B|400:144|384:184|384:184|332:180|288:192,1,180
208,204,62240,1,0,0:0:0:0:
136,148,62577,2,0,L|72:140,2,45
112,236,63251,2,0,P|124:284|160:312,1,90
212,240,63925,6,0,L|316:248,2,90
112,236,64937,2,0,B|108:184|144:152|144:152|244:156,1,180
320,144,65948,1,0,0:0:0:0:
388,204,66285,1,0,0:0:0:0:
300,232,66622,2,0,L|192:224,1,90
192,136,67296,2,0,L|97:129,1,90
12,116,67970,6,0,P|-4:64|4:24,2,90
68,188,68982,2,0,L|72:252,2,45
152,156,69656,2,0,L|148:104,2,45
176,244,70330,2,0,P|224:296|220:228,1,180
184,144,71341,2,0,P|220:120|280:120,1,90
340,64,72015,6,0,P|408:68|448:180,1,180
380,208,73027,1,0,0:0:0:0:
296,176,73364,2,0,P|244:168|204:188,1,90
148,248,74038,2,0,P|96:280|52:268,1,90
12,208,74712,6,0,B|4:136|4:136|64:108|128:124,1,180
200,108,75723,1,0,0:0:0:0:
256,180,76060,2,0,L|260:232,2,45
344,188,76734,2,0,P|388:212|432:216,1,90
448,128,77409,6,0,P|464:76|448:24,1,90
368,24,78083,2,0,P|352:76|360:128,1,90
280,160,78757,2,0,P|184:140|104:192,1,180
72,256,79768,1,0,0:0:0:0:
148,304,80105,6,0,P|208:312|240:288,1,90
320,316,80779,2,0,P|362:293|408:300,1,90
460,228,81454,2,0,L|508:224,2,45
396,164,82128,1,0,0:0:0:0:
340,92,82465,1,0,0:0:0:0:
264,140,82802,6,0,L|160:152,1,90
168,240,83476,2,0,L|264:228,1,90
340,196,84150,2,0,P|380:232|496:176,1,180
504,108,85161,1,0,0:0:0:0:
416,84,85498,6,0,L|420:20,2,45
372,100,86004,2,0,P|308:124|276:104,1,90
204,132,86678,2,0,P|156:120|112:152,2,90
232,264,87858,6,0,L|228:324,2,45
300,204,88532,2,0,P|356:192|396:208,1,90
436,128,89206,2,0,L|492:136,2,45
364,72,89881,2,0,P|296:44|272:52,2,90
320,148,90892,6,0,L|328:248,1,90
240,252,91566,2,0,L|232:156,1,90
268,80,92240,2,0,B|260:12|260:12|212:4|152:32,2,180
276,168,93925,6,0,P|204:196|88:172,1,180
52,252,94937,2,0,L|0:256,2,45
84,284,95442,2,0,P|164:332|216:312,1,135
284,296,96285,2,0,L|348:308,2,45
280,252,96791,1,0,0:0:0:0:
184,156,97296,1,0,0:0:0:0:
256,192,97970,12,0,101678,0:0:0:0:
