osu file format v14

[General]
AudioFilename: SAY ippai kagayaku kagayaku hoshi ni nare.mp3
AudioLeadIn: 0
PreviewTime: 62004
Countdown: 0
SampleSet: Soft
StackLeniency: 0.4
Mode: 0
LetterboxInBreaks: 0
WidescreenStoryboard: 0

[Editor]
Bookmarks: 17004,27791,38577,49364,58296,58465,58633,58718,58802,85431,85937,86442,86948
DistanceSpacing: 1
BeatDivisor: 4
GridSize: 4
TimelineZoom: 2.599999

[Metadata]
Title:Star!!
TitleUnicode:Star!!
Artist:CINDERELLA PROJECT
ArtistUnicode:CINDERELLA PROJECT
Creator:Yamicchi
Version:Extra
Source:アイドルマスター シンデレラガールズ
Tags:tv size A1 Pictures opening op the idolm@ster cinderella girls im@s imas idolmaster season1 ss1 Starlight Stage MONACA LeKhanhHoa DreaM117er Underforest Kami-senpai Akitoshi 0109- toybot LMT Left 諸星きらり Moroboshi Kirari 赤城みりあ Akagi Miria 城ヶ崎莉嘉 Jougasaki Rika 多田李衣菜 Tada Riina 前川みくMaekawa Miku アナスタシア Anastasia 新田美波 Nitta Minami 神崎蘭子 Kanzaki Ranko 双葉杏 Futaba Anzu 緒方智絵里 Ogata Chieri 三村かな子 Mimura Kanako 本田未央 Honda Mio 渋谷凜 Shibuya Rin 島村卯月 Shimamura Uzuki
BeatmapID:1325142
BeatmapSetID:628547

[Difficulty]
HPDrainRate:6
CircleSize:4
OverallDifficulty:8.6
ApproachRate:9
SliderMultiplier:1.8
SliderTickRate:1

[Events]
//Background and Video events
0,0,"BG.jpg",0,0
//Break Periods
//Storyboard Layer 0 (Background)
//Storyboard Layer 1 (Fail)
//Storyboard Layer 2 (Pass)
//Storyboard Layer 3 (Foreground)
//Storyboard Sound Samples

[TimingPoints]
825,337.0786516854,4,2,1,50,1,0
825,-125,4,2,1,50,0,0
11611,-166.6666666667,4,2,1,60,0,0
12117,-142.8571428571,4,2,1,65,0,0
12622,-125,4,2,1,70,0,0
13128,-111.1111111111,4,2,1,75,0,0
13633,-83.33333333333,4,2,1,80,0,0
14308,-83.33333333333,4,2,1,75,0,0
14982,-83.33333333333,4,2,1,70,0,0
15656,-83.33333333333,4,2,1,75,0,0
16330,-83.33333333333,4,2,1,80,0,0
17004,-83.33333333333,4,2,10,80,0,0
17089,-83.33333333333,4,2,1,80,0,0
27791,-125,4,2,1,60,0,0
38577,-100,4,2,1,70,0,0
49364,-125,4,2,1,60,0,0
54083,-100,4,2,1,70,0,0
62847,-83.33333333333,4,2,10,80,0,1
62931,-83.33333333333,4,2,1,80,0,1
73296,-100,4,2,1,80,0,0
73633,-83.33333333333,4,2,10,80,0,1
73718,-83.33333333333,4,2,1,80,0,1
84420,-125,4,2,1,60,0,0
84926,-100,4,2,1,65,0,0
85431,-83.33333333333,4,2,1,70,0,0
85937,-83.33333333333,4,2,1,75,0,0
86442,-71.42857142857,4,2,1,80,0,0
88423,-71.42857142857,4,2,1,60,0,0

[Colours]
Combo1 : 153,183,238
Combo2 : 245,238,146
Combo3 : 250,169,171
Combo4 : 164,227,180

[HitObjects]
44,288,150,5,2,0:0:0:0:
44,288,487,1,2,0:0:0:0:
120,136,825,6,0,P|136:176|152:280,1,144,6|0,0:0|0:0,0:0:0:0:
288,92,1499,1,2,0:0:0:0:
288,92,1667,1,0,0:0:0:0:
248,224,1836,1,2,0:0:0:0:
248,224,2004,1,0,0:0:0:0:
350,149,2173,6,0,L|500:144,1,144,4|0,0:0|0:0,0:0:0:0:
500,240,2678,2,0,P|460:236|432:220,1,72,6|0,0:0|0:0,0:0:0:0:
350,149,3016,1,0,0:0:0:0:
347,325,3184,2,0,P|330:288|330:256,1,72,2|0,0:0|0:0,0:0:0:0:
493,144,3521,6,0,L|349:148,1,144,4|0,0:0|0:0,0:0:0:0:
100,44,4195,1,2,0:0:0:0:
208,72,4364,1,0,0:0:0:0:
130,152,4532,2,0,P|88:156|56:156,1,72,2|0,0:0|0:0,0:0:0:0:
238,180,4869,6,0,P|264:236|232:328,1,144,4|0,0:0|0:0,0:0:0:0:
160,252,5375,2,0,B|220:240|220:240|304:268|304:268|392:252,1,216,4|0,0:0|0:0,0:0:0:0:
160,252,6218,5,6,0:0:0:0:
144,348,6386,1,0,0:0:0:0:
152,232,6555,1,0,0:0:0:0:
152,368,6723,6,0,P|104:356|8:348,1,144,6|0,0:0|0:0,0:0:0:0:
10,347,7229,1,0,0:0:0:0:
224,288,7398,6,0,P|272:276|368:268,1,144,2|0,0:0|0:0,0:0:0:0:
365,267,7904,1,0,0:0:0:0:
230,180,8072,6,0,P|174:192|118:276,1,144,6|0,0:0|0:0,0:0:0:0:
8,180,8577,2,0,L|4:108,1,72,2|0,0:0|0:0,0:0:0:0:
168,48,8914,6,0,B|224:72|272:48|272:48|304:56|304:56|352:16|408:24|400:88|352:80,1,288,4|0,0:0|0:0,0:0:0:0:
353,80,9757,1,0,0:0:0:0:
276,192,9926,1,0,0:0:0:0:
488,272,10094,6,0,L|336:264,1,144,6|2,0:0|0:0,0:0:0:0:
176,256,10600,1,6,0:0:0:0:
248,288,10937,5,2,0:0:0:0:
353,80,11105,1,0,0:0:0:0:
353,80,11190,1,0,0:0:0:0:
353,80,11274,1,8,0:0:0:0:
336,248,11442,1,0,0:0:0:0:
172,112,11611,5,0,3:2:0:0:
147,100,11695,1,0,0:0:0:0:
121,95,11779,1,0,0:0:0:0:
94,97,11863,1,0,0:0:0:0:
69,106,11948,1,8,0:0:0:0:
47,122,12032,1,0,0:0:0:0:
36,144,12117,5,0,3:2:0:0:
63,159,12201,1,0,0:0:0:0:
82,184,12285,1,0,0:0:0:0:
88,214,12369,1,0,0:0:0:0:
81,245,12454,1,8,0:0:0:0:
63,270,12538,1,0,0:0:0:0:
43,293,12622,6,0,L|95:289,1,36,0|0,3:2|0:0,0:0:0:0:
159,245,12791,2,0,L|211:249,1,36
275,293,12959,2,0,L|327:289,1,36,8|0,0:0|0:0,0:0:0:0:
400,256,13128,6,0,P|408:228|408:208,1,40.49999876404,0|0,3:2|0:0,0:0:0:0:
324,120,13296,2,0,P|344:140|361:150,1,40.49999876404
479,122,13465,2,0,P|450:129|433:139,1,40.49999876404,8|0,0:0|0:0,0:0:0:0:
332,224,13633,5,0,3:2:0:0:
325,267,13717,1,0,0:0:0:0:
345,307,13801,1,0,0:0:0:0:
384,329,13885,1,0,0:0:0:0:
428,325,13970,1,8,0:0:0:0:
462,297,14054,1,0,0:0:0:0:
475,254,14139,6,0,P|443:247|412:244,1,53.99999835205,2|0,3:2|0:0,0:0:0:0:
345,307,14308,1,0,0:0:0:0:
316,335,14392,1,0,0:0:0:0:
279,345,14476,1,0,0:0:0:0:
243,345,14560,1,0,0:0:0:0:
213,331,14645,1,8,3:1:0:0:
195,307,14729,1,0,0:0:0:0:
189,283,14813,1,0,0:0:0:0:
192,260,14898,1,0,0:0:0:0:
218,226,14982,6,0,L|280:228,1,53.9999983520508,0|0,3:0|0:0,0:0:0:0:
382,151,15150,2,0,L|320:149,1,53.9999983520508
232,208,15319,2,0,L|294:210,1,53.9999983520508,8|0,0:0|0:0,0:0:0:0:
396,132,15487,2,0,L|342:130,1,53.9999983520508
276,74,15656,5,0,3:2:0:0:
254,78,15740,1,0,0:0:0:0:
230,84,15824,1,0,0:0:0:0:
206,90,15909,1,0,0:0:0:0:
181,80,15993,1,8,3:1:0:0:
152,86,16077,1,0,0:0:0:0:
122,94,16162,1,0,0:0:0:0:
89,103,16246,1,0,0:0:0:0:
55,115,16330,5,0,3:2:0:0:
38,152,16414,1,0,0:0:0:0:
48,192,16499,1,0,0:0:0:0:
76,223,16583,1,0,0:0:0:0:
121,228,16667,1,8,3:1:0:0:
164,210,16751,1,0,0:0:0:0:
184,164,16836,1,0,0:0:0:0:
172,114,16920,1,0,0:0:0:0:
122,94,17004,6,0,B|133:131|109:167|109:167|85:203|102:248,1,161.9999950562,6|0,0:1|0:0,0:0:0:0:
128,324,17341,1,10,0:0:0:0:
244,220,17510,1,2,0:0:0:0:
277,373,17678,1,0,0:0:0:0:
217,306,17847,1,0,0:0:0:0:
370,273,18016,2,0,P|388:320|380:384,1,107.9999967041,8|0,0:0|0:0,0:0:0:0:
464,180,18353,6,0,B|409:156|409:156|281:172,1,161.9999950562,2|0,0:0|0:0,0:0:0:0:
244,220,18690,1,10,0:0:0:0:
140,76,18858,2,0,B|194:99|194:99|322:83,1,161.9999950562,2|0,0:0|0:0,0:0:0:0:
360,36,19195,1,2,0:0:0:0:
464,180,19364,2,0,B|476:216|476:216|468:292,1,107.9999967041,8|0,0:0|0:0,0:0:0:0:
288,332,19701,6,0,B|252:292|172:292|136:336|136:336|164:332|188:348,1,215.9999934082,2|8,0:0|0:0,0:0:0:0:
380,312,20207,1,2,0:0:0:0:
200,228,20375,1,2,0:0:0:0:
180,343,20544,1,0,0:0:0:0:
360,197,20712,1,8,0:0:0:0:
318,179,20796,1,0,0:0:0:0:
272,177,20881,1,0,0:0:0:0:
229,193,20965,1,0,0:0:0:0:
200,228,21049,6,0,B|192:167|192:167|228:112|200:56,1,161.9999950562
196,32,21386,1,8,0:0:0:0:
440,32,21555,2,0,P|396:100|294:62,1,161.9999950562,2|0,0:0|0:0,0:0:0:0:
276,32,21892,1,0,0:0:0:0:
200,228,22060,1,10,0:0:0:0:
136,80,22229,1,0,0:0:0:0:
348,32,22398,6,0,B|364:216,1,161.9999950562,6|0,0:1|0:0,0:0:0:0:
366,231,22735,1,8,0:0:0:0:
472,100,22903,2,0,B|456:284,1,161.9999950562,6|0,0:1|0:0,0:0:0:0:
448,336,23240,1,2,0:0:0:0:
312,119,23409,1,8,0:0:0:0:
512,185,23577,1,2,0:0:0:0:
256,296,23746,6,0,P|196:280|88:276,1,161.9999950562,6|0,0:1|0:0,0:0:0:0:
24,296,24083,1,10,0:0:0:0:
240,188,24251,2,0,P|341:227|356:338,1,215.9999934082,6|0,0:1|0:0,0:0:0:0:
88,368,24757,2,0,L|141:364,1,53.99999835205,8|0,0:0|0:0,0:0:0:0:
256,296,24926,2,0,L|202:300,1,53.99999835205
0,184,25094,5,2,0:1:0:0:
256,296,25263,1,0,0:0:0:0:
8,200,25431,1,10,0:0:0:0:
232,172,25600,1,0,0:0:0:0:
16,216,25768,1,2,0:0:0:0:
168,120,25937,1,0,0:0:0:0:
168,120,26021,1,0,0:0:0:0:
168,120,26105,1,10,0:0:0:0:
141,360,26274,5,2,0:0:0:0:
141,360,26611,1,8,0:0:0:0:
415,285,26780,2,0,B|358:281|358:281|311:298|311:298|247:295,1,161.9999950562,8|0,0:0|0:0,0:0:0:0:
178,292,27117,5,0,0:0:0:0:
380,368,27285,1,0,0:0:0:0:
380,368,27369,1,0,0:0:0:0:
380,368,27454,1,8,0:0:0:0:
292,160,27622,1,0,0:0:0:0:
292,160,27707,1,0,0:0:0:0:
292,160,27791,6,0,L|372:152,1,72,6|0,0:0|0:0,0:0:0:0:
436,36,28128,2,0,P|445:70|436:109,1,72,0|0,3:0|0:0,0:0:0:0:
361,221,28465,2,0,P|353:186|363:152,1,72,0|0,3:0|0:0,0:0:0:0:
512,248,28802,1,0,3:0:0:0:
445,188,28971,1,0,0:0:0:0:
278,366,29139,6,0,P|252:338|214:325,1,72,2|0,3:1|0:0,0:0:0:0:
71,262,29476,1,0,3:0:0:0:
73,352,29645,2,0,P|109:342|140:317,1,72,0|0,0:0|3:0,0:0:0:0:
187,181,29982,2,0,P|175:216|183:255,1,72,0|0,0:0|3:0,0:0:0:0:
266,224,30319,1,0,0:0:0:0:
192,50,30487,6,0,P|164:114|187:181,1,144,2|0,3:1|3:0,3:0:0:0:
334,113,30993,2,0,L|262:118,1,72,0|0,0:0|3:0,0:0:0:0:
176,260,31330,2,0,L|247:254,1,72
334,113,31667,1,0,0:0:0:0:
192,50,31836,6,0,P|163:114|186:181,1,144,2|0,3:1|3:0,3:0:0:0:
44,108,32341,1,0,0:0:0:0:
89,273,32510,1,2,3:1:0:0:
19,203,32678,1,0,0:0:0:0:
19,203,32763,1,0,0:0:0:0:
19,203,32847,1,0,3:0:0:0:
115,176,33016,1,0,0:0:0:0:
160,341,33184,6,0,L|236:336,1,72,2|0,3:1|0:0,0:0:0:0:
355,270,33521,2,0,L|279:265,1,72,0|0,3:0|0:0,0:0:0:0:
231,336,33858,2,0,L|239:180,1,144,0|0,3:0|3:0,3:0:0:0:
288,116,34364,1,0,0:0:0:0:
115,176,34532,6,0,P|80:184|32:168,1,72,2|0,3:1|0:0,0:0:0:0:
136,31,34869,1,0,3:0:0:0:
136,32,35038,2,0,B|128:60|136:88|136:88|180:96|200:140,1,144
188,232,35544,1,0,3:0:0:0:
115,176,35712,1,0,0:0:0:0:
304,96,35881,6,0,L|300:176,1,72,2|0,3:1|0:0,0:0:0:0:
368,300,36218,2,0,L|364:228,1,72,0|0,3:0|0:0,0:0:0:0:
232,56,36555,2,0,P|222:97|240:148,1,72,0|0,3:0|0:0,0:0:0:0:
440,252,36892,2,0,P|445:216|435:182,1,72,0|0,3:0|0:0,0:0:0:0:
304,96,37229,5,2,3:1:0:0:
304,96,37566,1,0,0:0:0:0:
192,208,37735,2,0,L|196:256,3,36,2|0|0|0,0:1|0:0|0:0|0:0,0:0:0:0:
132,292,38072,1,0,0:0:0:0:
97,299,38156,1,0,0:0:0:0:
62,290,38240,1,0,0:0:0:0:
35,267,38324,1,0,0:0:0:0:
21,234,38409,1,0,0:0:0:0:
23,198,38493,1,0,0:0:0:0:
48,156,38577,6,0,L|208:140,1,135,4|0,0:0|0:0,0:0:0:0:
220,124,38914,2,8,P|236:80|228:32,1,90,10|0,0:0|0:0,0:0:0:0:
228,212,39251,1,2,0:0:0:0:
228,212,39420,1,0,0:0:0:0:
332,48,39589,1,8,0:0:0:0:
317,220,39757,1,0,0:0:0:0:
488,160,39926,6,0,P|500:212|488:252,1,90,2|0,0:0|0:0,0:0:0:0:
256,312,40263,1,8,0:0:0:0:
408,208,40431,1,2,0:0:0:0:
408,208,40600,1,0,0:0:0:0:
188,148,40768,2,0,L|80:160,1,90,2|8,0:0|0:0,0:0:0:0:
268,100,41105,1,0,0:0:0:0:
230,341,41274,6,0,P|212:277|237:216,1,135
269,193,41611,1,10,0:0:0:0:
98,157,41780,1,0,0:0:0:0:
98,157,41948,1,0,0:0:0:0:
62,328,42117,1,2,0:0:0:0:
269,193,42285,1,10,0:0:0:0:
331,367,42454,2,0,P|358:332|365:288,1,90
357,186,42791,5,0,0:0:0:0:
276,296,42959,1,8,0:0:0:0:
480,248,43128,1,0,0:0:0:0:
336,72,43296,1,2,0:0:0:0:
480,248,43465,1,0,0:0:0:0:
272,176,43633,2,0,L|172:184,1,90,10|0,0:0|0:0,0:0:0:0:
380,296,43971,6,0,L|221:281,1,135
208,280,44308,1,8,0:0:0:0:
308,112,44476,1,2,0:0:0:0:
105,96,44645,1,0,0:0:0:0:
105,96,44813,1,0,0:0:0:0:
280,260,44982,1,8,0:0:0:0:
77,244,45150,1,0,0:0:0:0:
183,84,45319,6,0,L|328:76,1,135,2|0,0:0|0:0,0:0:0:0:
356,76,45656,1,8,0:0:0:0:
240,200,45825,2,0,L|448:208,1,180,2|0,0:0|0:0,0:0:0:0:
512,72,46330,2,0,L|508:164,1,90,8|0,0:0|0:0,0:0:0:0:
476,320,46667,6,0,P|432:328|372:304,1,90,2|0,0:0|0:0,0:0:0:0:
216,348,47004,2,0,P|173:335|129:343,1,90,8|0,0:0|0:0,0:0:0:0:
274,170,47341,1,2,0:0:0:0:
296,320,47510,1,0,0:0:0:0:
156,265,47678,1,8,0:0:0:0:
280,148,47847,1,0,0:0:0:0:
308,300,48016,6,0,L|356:292,3,45
384,264,48353,2,0,L|432:256,3,45,8|0|0|0,0:0|0:0|0:0|0:0,0:0:0:0:
476,320,48690,5,0,3:0:0:0:
512,117,49027,1,0,3:0:0:0:
308,300,49364,6,0,P|200:292|144:292,1,144,4|0,0:1|0:0,0:0:0:0:
98,233,49869,1,2,3:1:0:0:
98,233,50038,2,0,P|94:193|110:153,1,72,2|0,3:1|0:0,0:0:0:0:
182,205,50375,1,0,0:0:0:0:
80,319,50544,1,2,0:0:0:0:
230,351,50712,6,0,P|300:316|376:336,1,144,2|0,3:1|0:0,0:0:0:0:
448,288,51218,1,2,3:1:0:0:
448,288,51386,1,0,3:0:0:0:
363,163,51555,2,0,P|359:199|372:240,1,72,2|0,0:1|0:0,0:0:0:0:
448,192,51892,1,2,0:1:0:0:
346,76,52060,6,0,P|304:96|276:176,1,108,0|0,3:0|0:0,0:0:0:0:
276,187,52398,2,0,L|284:287,1,72,2|0,0:1|3:0,0:0:0:0:
180,320,52735,2,0,L|188:220,1,72,2|0,0:1|3:0,0:0:0:0:
196,136,53072,1,2,0:0:0:0:
29,126,53240,1,0,0:0:0:0:
104,276,53409,5,2,3:1:0:0:
110,179,53577,1,0,0:0:0:0:
17,320,53746,1,0,0:0:0:0:
191,232,53914,1,2,0:1:0:0:
360,328,54083,6,0,P|364:296|364:268,1,45,2|0,3:1|0:0,0:0:0:0:
276,188,54251,2,0,P|301:207|325:221,1,45,2|0,0:0|0:0,0:0:0:0:
439,185,54420,2,0,P|409:197|385:211,1,45,2|0,0:0|0:0,0:0:0:0:
276,296,54589,6,0,B|228:312|228:312|112:292,1,135,4|0,0:1|0:0,0:0:0:0:
104,292,54926,1,0,0:0:0:0:
68,104,55094,1,10,0:0:0:0:
32,240,55263,1,0,0:0:0:0:
226,222,55431,2,0,P|276:216|332:216,1,90,2|0,0:0|0:0,0:0:0:0:
204,132,55768,1,8,0:0:0:0:
392,254,55937,6,0,P|400:202|380:158,1,90,4|0,0:1|0:0,0:0:0:0:
204,132,56274,1,0,0:0:0:0:
374,40,56442,1,10,0:0:0:0:
256,24,56611,1,0,0:0:0:0:
396,158,56780,1,2,0:0:0:0:
204,132,56948,1,0,0:0:0:0:
204,132,57032,1,0,0:0:0:0:
204,132,57117,1,8,0:0:0:0:
275,347,57285,6,0,B|296:308|276:264|276:264|256:220|280:168,1,180,4|0,0:1|0:0,0:0:0:0:
420,88,57791,2,0,L|516:96,2,90,10|0|0,0:0|0:0|0:0,0:0:0:0:
277,173,58296,1,2,0:0:0:0:
388,4,58465,1,8,0:0:0:0:
199,63,58633,1,0,0:0:0:0:
199,63,58718,1,0,0:0:0:0:
199,63,58802,6,0,P|148:92|64:80,1,135,2|0,0:1|0:0,0:0:0:0:
40,64,59139,2,0,P|48:116|48:160,1,90,8|0,0:0|0:0,0:0:0:0:
24,304,59476,1,2,0:0:0:0:
112,192,59645,1,0,0:0:0:0:
149,371,59813,1,10,0:0:0:0:
251,213,59982,6,0,B|298:208|298:208|342:220|342:220|390:216,1,135,2|0,0:1|0:0,0:0:0:0:
424,212,60319,1,0,0:0:0:0:
200,292,60487,1,8,0:0:0:0:
320,100,60656,1,0,0:0:0:0:
243,372,60824,5,2,0:0:0:0:
212,364,60908,1,0,0:0:0:0:
180,364,60992,1,0,0:0:0:0:
149,371,61076,1,0,0:0:0:0:
105,369,61162,5,10,0:0:0:0:
65,349,61245,1,0,0:0:0:0:
41,312,61329,1,0,0:0:0:0:
42,267,61413,1,0,0:0:0:0:
66,230,61498,5,8,0:1:0:0:
339,186,61667,1,8,0:0:0:0:
44,148,61836,1,8,0:0:0:0:
44,148,62173,5,2,0:1:0:0:
64,138,62257,1,0,0:0:0:0:
90,132,62341,1,0,0:0:0:0:
121,135,62426,1,0,0:0:0:0:
151,154,62510,1,2,0:1:0:0:
190,161,62594,1,0,0:0:0:0:
234,156,62678,1,0,0:0:0:0:
275,128,62763,1,0,0:0:0:0:
299,80,62847,6,0,B|280:120|296:160|296:160|312:200|296:248,1,161.9999950562,6|0,0:1|0:0,0:0:0:0:
284,284,63184,2,0,P|228:300|176:288,1,107.999996704102,8|0,0:0|0:0,0:0:0:0:
376,124,63521,1,2,0:0:0:0:
380,360,63690,1,0,0:0:0:0:
276,176,63858,1,8,0:0:0:0:
441,265,64027,1,2,0:0:0:0:
220,344,64195,6,0,P|196:280|252:200,1,161.9999950562,2|0,0:1|0:0,0:0:0:0:
276,176,64532,1,8,0:0:0:0:
488,276,64701,2,0,B|437:282|437:282|381:266|381:266|329:274,1,161.9999950562,2|0,0:1|0:0,0:0:0:0:
284,284,65038,1,0,0:0:0:0:
420,92,65207,2,0,P|444:132|444:196,1,107.9999967041,10|0,0:0|0:0,0:0:0:0:
284,284,65544,6,0,B|220:268|220:268|112:288,1,161.9999950562,4|0,0:1|0:0,0:0:0:0:
84,280,65881,2,0,P|58:233|58:179,1,107.9999967041,8|0,0:0|0:0,0:0:0:0:
240,60,66218,1,2,0:0:0:0:
160,208,66386,1,0,0:0:0:0:
72,65,66555,1,10,0:0:0:0:
104,60,66639,1,0,0:0:0:0:
136,56,66723,1,0,0:0:0:0:
168,52,66808,1,0,0:0:0:0:
200,48,66892,6,0,B|240:60|240:60|368:44,1,161.9999950562,2|0,0:1|0:0,0:0:0:0:
400,40,67229,1,8,0:0:0:0:
512,192,67398,2,0,B|472:204|472:204|344:188,1,161.9999950562,2|0,0:1|0:0,0:0:0:0:
312,184,67735,1,0,0:0:0:0:
200,312,67903,2,0,B|236:304|236:304|312:316,1,107.9999967041,10|0,0:0|0:0,0:0:0:0:
120,344,68240,5,4,0:1:0:0:
156,152,68409,1,0,0:0:0:0:
120,344,68577,1,8,0:0:0:0:
60,124,68746,2,0,L|256:112,1,161.9999950562,2|0,0:0|0:0,0:0:0:0:
260,132,69083,1,0,0:0:0:0:
200,312,69251,1,10,0:0:0:0:
332,196,69420,1,0,0:0:0:0:
272,376,69589,5,4,0:1:0:0:
132,260,69757,1,0,0:0:0:0:
423,165,69926,1,8,0:0:0:0:
200,312,70094,2,0,B|232:296|272:300|272:300|300:320|336:320|336:320|376:300|420:304,1,215.9999934082,2|0,0:0|0:0,0:0:0:0:
504,320,70600,1,10,0:0:0:0:
328,232,70768,1,0,0:0:0:0:
152,384,70937,5,6,0:1:0:0:
115,168,71105,1,0,0:0:0:0:
320,243,71274,1,10,0:0:0:0:
103,243,71442,1,0,0:0:0:0:
211,55,71611,1,2,0:0:0:0:
400,264,71780,2,0,L|512:252,1,107.999996704102,2|8,0:0|0:0,0:0:0:0:
320,152,72117,6,0,P|328:228|328:336,1,161.9999950562,2|0,0:0|0:0,0:0:0:0:
312,356,72454,1,0,0:0:0:0:
176,221,72622,1,8,0:0:0:0:
220,360,72791,1,0,0:0:0:0:
77,328,72959,2,0,P|128:300|208:304,1,107.9999967041,2|0,0:0|0:0,0:0:0:0:
320,152,73296,1,10,0:0:0:0:
294,119,73381,1,0,0:0:0:0:
250,109,73465,1,0,0:0:0:0:
202,123,73549,1,0,0:0:0:0:
167,164,73633,6,0,B|204:196|244:188|244:188|268:244|352:236,1,161.9999950562,6|0,0:1|0:0,0:0:0:0:
348,228,73971,2,0,P|404:216|460:216,1,107.9999967041,8|0,0:0|0:0,0:0:0:0:
376,4,74308,1,2,0:0:0:0:
320,152,74476,1,0,0:0:0:0:
477,127,74645,1,8,0:0:0:0:
421,276,74813,1,2,0:0:0:0:
421,276,74898,1,0,0:0:0:0:
421,276,74982,6,0,P|344:248|264:312,1,161.9999950562,2|0,0:1|0:0,0:0:0:0:
260,324,75319,1,8,0:0:0:0:
168,176,75487,2,0,P|140:253|204:333,1,161.9999950562,2|0,0:1|0:0,0:0:0:0:
216,337,75824,1,0,0:0:0:0:
408,248,75993,2,0,P|352:234|296:252,1,107.9999967041,10|0,0:0|0:0,0:0:0:0:
96,148,76330,6,0,L|268:136,1,161.9999950562,4|0,0:1|0:0,0:0:0:0:
296,120,76667,2,0,P|312:68|296:16,1,107.9999967041,8|0,0:0|0:0,0:0:0:0:
96,148,77004,1,2,0:0:0:0:
220,68,77173,1,0,0:0:0:0:
144,255,77341,1,10,0:0:0:0:
89,1,77510,1,0,0:0:0:0:
213,160,77678,5,2,0:1:0:0:
28,238,77847,1,0,0:0:0:0:
188,359,78016,1,8,0:0:0:0:
200,180,78184,1,2,0:0:0:0:
72,344,78353,2,0,P|128:336|192:336,1,107.9999967041
431,368,78690,2,0,P|377:367|324:360,1,107.9999967041,8|0,0:0|0:0,0:0:0:0:
200,180,79027,5,4,0:1:0:0:
404,220,79195,1,0,0:0:0:0:
200,180,79364,1,8,0:0:0:0:
440,292,79532,2,0,P|484:232|448:152,1,161.9999950562,4|0,0:1|0:0,0:0:0:0:
416,140,79869,1,0,0:0:0:0:
212,260,80038,1,10,0:0:0:0:
380,68,80207,1,0,0:0:0:0:
361,287,80375,5,6,0:1:0:0:
121,172,80544,1,0,0:0:0:0:
341,169,80712,1,8,0:0:0:0:
234,362,80881,2,0,B|169:370|132:326|132:326|68:312|24:376,1,215.9999934082,4|0,0:1|0:0,0:0:0:0:
212,260,81386,2,0,P|228:208|208:148,1,107.999996704102,10|0,0:0|0:0,0:0:0:0:
0,64,81723,5,6,0:1:0:0:
132,256,81892,1,0,0:0:0:0:
233,46,82060,1,8,0:0:0:0:
64,164,82229,1,0,0:0:0:0:
64,164,82313,1,0,0:0:0:0:
64,164,82398,1,8,0:0:0:0:
160,0,82566,1,0,0:0:0:0:
96,240,82735,1,0,0:0:0:0:
404,160,82903,5,8,0:1:0:0:
96,240,83240,1,8,0:0:0:0:
404,160,83409,2,0,P|408:260|408:336,1,161.9999950562,8|0,0:1|0:0,0:0:0:0:
440,348,83746,5,0,0:0:0:0:
232,277,83914,1,0,0:0:0:0:
232,277,83999,1,0,0:0:0:0:
232,277,84083,1,8,0:0:0:0:
456,232,84251,1,0,0:0:0:0:
236,360,84420,5,4,3:1:0:0:
200,354,84504,1,0,0:0:0:0:
170,334,84588,1,0,0:0:0:0:
151,304,84672,1,0,0:0:0:0:
147,268,84757,1,8,0:0:0:0:
157,234,84841,1,0,0:0:0:0:
180,207,84926,5,0,3:2:0:0:
220,225,85010,1,0,0:0:0:0:
265,223,85094,1,0,0:0:0:0:
307,207,85178,1,0,0:0:0:0:
348,191,85263,1,8,0:0:0:0:
393,191,85347,1,0,0:0:0:0:
434,208,85431,6,0,L|440:144,1,53.99999835205,0|0,3:2|0:0,0:0:0:0:
512,80,85600,2,0,L|448:74,1,53.99999835205
384,2,85768,2,0,L|378:66,1,53.99999835205,8|0,0:0|0:0,0:0:0:0:
306,207,85937,6,0,P|325:187|348:172,1,53.99999835205,0|0,3:2|0:0,0:0:0:0:
242,96,86105,2,0,P|215:89|191:77,1,53.99999835205
179,206,86274,2,0,P|186:231|188:258,1,53.99999835205,8|0,0:0|0:0,0:0:0:0:
434,208,86442,5,0,3:0:0:0:
490,228,86527,1,0,0:0:0:0:
510,284,86610,1,0,0:0:0:0:
477,337,86694,1,0,0:0:0:0:
417,346,86779,1,8,0:0:0:0:
373,303,86863,1,0,0:0:0:0:
437,278,86948,5,4,0:1:0:0:
256,192,87032,12,0,88423,0:0:0:0:
