osu file format v14

[General]
AudioFilename: audio.mp3
AudioLeadIn: 0
PreviewTime: 62002
Countdown: 0
SampleSet: Soft
StackLeniency: 0.7
Mode: 0
LetterboxInBreaks: 0
WidescreenStoryboard: 1

[Editor]
DistanceSpacing: 0.5
BeatDivisor: 4
GridSize: 32
TimelineZoom: 3.399999

[Metadata]
Title:Star!! (TV Size)
TitleUnicode:Star!! (TV Size)
Artist:CINDERELLA PROJECT
ArtistUnicode:CINDERELLA PROJECT
Creator:Kyutei
Version:door weapon's Hard
Source:アイドルマスター シンデレラガールズ
Tags:Anya Melfissa Anya_Melfissa Pile AyameMyMommy door_weapon door weapon dog_food dog food AsuKow Erisu Mayuzumi Fuyuko Kagayaki A1 Pictures opening op the idolm@ster cinderella girls im@s imas idolmaster season1 ss1 Starlight Stage MONACA 諸星きらり Moroboshi Kirari 赤城みりあ Akagi Miria 城ヶ崎莉嘉 Jougasaki Rika 多田李衣菜 Tada Riina 前川みく Maekawa Miku アナスタシア Anastasia 新田美波 Nitta Minami 神崎蘭子 Kanzaki Ranko 双葉杏 Futaba Anzu 緒方智絵里 Ogata Chieri 三村かな子 Mimura Kanako 本田未央 Honda Mio 渋谷凜 Shibuya Rin 島村卯月 Shimamura Uzuki 大橋彩香 Ohashi Ayaka 福原綾香 Fukuhara Ayaka 原紗友里 Hara Sayuri 上坂すみれ Uesaka Sumire 洲崎綾 Suzaki Aya 内田真礼 Uchida Maaya 五十嵐裕美 Igarashi Hiromi 大坪由佳 Ohtsubo Yuka 大空 直美 Oozora Naomi 山本希望 Yamamoto Nozomi 松嵜麗 Matsuzaki Rei 黒沢ともよ Kurosawa Tomoyo 高森奈津美 Takamori Natsumi 青木瑠璃子 Aoki Ruriko Anime Japanese Jpop J-pop
BeatmapID:2824282
BeatmapSetID:1362074

[Difficulty]
HPDrainRate:5
CircleSize:3.7
OverallDifficulty:6
ApproachRate:7.8
SliderMultiplier:1.5
SliderTickRate:1

[Events]
//Background and Video events
0,0,"imas star.jpg",0,0
Video,-160,"op.mp4"
//Break Periods
//Storyboard Layer 0 (Background)
//Storyboard Layer 1 (Fail)
//Storyboard Layer 2 (Pass)
//Storyboard Layer 3 (Foreground)
//Storyboard Layer 4 (Overlay)
//Storyboard Sound Samples

[TimingPoints]
-524,337.0786516854,4,2,1,50,1,0
150,-142.857142857143,4,2,1,50,0,0
824,-142.857142857143,4,2,1,50,0,0
4784,-142.857142857143,4,2,1,50,0,0
4869,-142.857142857143,4,2,1,50,0,0
7650,-142.857142857143,4,2,1,50,0,0
7734,-142.857142857143,4,2,1,50,0,0
10852,-142.857142857143,4,2,1,50,0,0
10936,-142.857142857143,4,2,1,50,0,0
11610,340.909090909099,4,2,1,50,1,0
11610,-100,4,2,1,50,0,0
12116,-100,4,2,1,65,0,0
12121,-100,4,2,1,65,0,0
12621,-100,4,2,1,70,0,0
12632,-100,4,2,1,70,0,0
12973,333.333333333341,4,2,1,70,1,0
13127,-100,4,2,1,75,0,0
13139,-100,4,2,1,75,0,0
13633,-100,4,2,1,80,0,0
13639,-100,4,2,1,80,0,0
14223,-100,4,2,1,80,0,0
14306,337.078651685401,4,2,1,50,1,0
14306,-100,4,2,1,50,0,0
14390,-100,4,2,1,50,0,0
14474,-100,4,2,1,50,0,0
14559,-100,4,2,1,50,0,0
14643,-100,4,2,1,50,0,0
14727,-100,4,2,1,50,0,0
14811,-100,4,2,1,50,0,0
14896,-100,4,2,1,50,0,0
14980,-100,4,2,1,50,0,0
15064,-100,4,2,1,50,0,0
15149,-100,4,2,1,50,0,0
15233,-100,4,2,1,50,0,0
15317,-100,4,2,1,50,0,0
15401,-100,4,2,1,50,0,0
15486,-100,4,2,1,50,0,0
15570,-100,4,2,1,50,0,0
15655,-100,4,2,1,75,0,0
16329,-100,4,2,1,80,0,0
23154,-100,4,2,1,80,0,0
23238,-100,4,2,1,80,0,0
27031,-100,4,2,1,80,0,0
27115,-100,4,2,1,80,0,0
27789,-125,4,2,1,60,0,0
36132,-125,4,2,1,5,0,0
36216,-125,4,2,1,60,0,0
36469,-125,4,2,1,5,0,0
36553,-125,4,2,1,60,0,0
36806,-125,4,2,1,5,0,0
36890,-125,4,2,1,60,0,0
37143,-125,4,2,1,5,0,0
37227,-125,4,2,1,60,0,0
37733,-100,4,2,1,60,0,0
38575,-100,4,2,1,70,0,0
38828,-100,4,2,1,5,0,0
38913,-100,4,2,1,70,0,0
43884,-100,4,2,1,5,0,0
43969,-100,4,2,1,70,0,0
45570,-100,4,2,1,5,0,0
45654,-100,4,2,1,70,0,0
49362,-111.111111111111,4,2,1,60,0,0
54587,-100,4,2,1,70,0,0
62171,-90.9090909090909,4,2,1,70,0,0
62845,-90.9090909090909,4,2,2,80,0,1
62929,-90.9090909090909,4,2,1,80,0,1
72957,-90.9090909090909,4,2,1,80,0,0
73631,-90.9090909090909,4,2,2,80,0,1
73716,-90.9090909090909,4,2,1,80,0,1
81637,-90.9090909090909,4,2,1,5,0,1
81722,-90.9090909090909,4,2,1,80,0,1
83154,-90.9090909090909,4,2,1,5,0,1
83238,-90.9090909090909,4,2,1,80,0,1
83323,-90.9090909090909,4,2,1,5,0,1
83407,-90.9090909090909,4,2,1,80,0,0
83660,-90.9090909090909,4,2,1,5,0,0
83744,-90.9090909090909,4,2,1,80,0,0
84418,-100,4,2,1,80,0,0
88463,-100,4,2,1,40,0,0

[Colours]
Combo1 : 17,254,176
Combo2 : 173,255,95
Combo3 : 255,88,100
Combo4 : 255,94,55

[HitObjects]
98,19,150,5,2,2:0:0:0:
108,148,487,1,2,2:0:0:0:
225,67,824,2,0,B|304:69|284:128|374:136,1,157.499995193482,2|0,2:0|0:0,0:0:0:0:
455,114,1498,2,0,P|446:84|415:61,1,52.4999983978272,2|2,2:0|2:0,0:0:0:0:
366,138,1835,1,2,2:0:0:0:
362,134,2003,2,0,P|310:139|257:158,1,104.999996795654,2|0,2:0|0:0,0:0:0:0:
86,90,2678,2,0,P|106:26|146:14,1,104.999996795654,2|2,2:0|2:0,0:0:0:0:
211,59,3183,1,2,2:0:0:0:
332,24,3520,6,0,B|349:89|412:91|412:91|455:48|516:67,1,209.999993591309,2|2,2:0|2:0,0:0:0:0:
482,151,4363,1,2,2:0:0:0:
482,151,4531,1,2,2:0:0:0:
407,295,4868,2,0,P|365:265|295:258,1,104.999996795654,2|0,2:0|0:0,0:0:0:0:
225,304,5374,2,0,P|160:296|205:226,1,157.499995193482,2|0,2:0|0:0,0:0:0:0:
245,92,6217,6,0,P|235:51|231:23,2,52.4999983978272,2|0|2,2:0|0:0|2:0,0:0:0:0:
313,164,6722,2,0,P|348:127|399:129,1,104.999996795654,2|2,2:0|2:0,0:0:0:0:
471,190,7228,1,2,2:0:0:0:
471,190,7397,2,0,P|453:243|437:312,1,104.999996795654,2|2,2:0|2:0,0:0:0:0:
355,340,7902,1,2,2:0:0:0:
355,340,8071,2,0,P|310:320|323:222,1,157.499995193482,2|2,2:0|2:0,0:0:0:0:
420,133,8913,6,0,B|303:123|379:34|236:30,1,209.999993591309,2|0,2:0|0:0,0:0:0:0:
187,91,9756,1,2,2:0:0:0:
187,91,9925,1,2,2:0:0:0:
107,39,10093,2,0,P|61:45|24:111,1,104.999996795654,2|2,2:0|2:0,0:0:0:0:
62,172,10599,2,0,L|40:276,1,104.999996795654,2|2,2:0|2:0,0:0:0:0:
79,360,11104,1,2,1:2:0:0:
90,353,11189,1,0,1:2:0:0:
102,349,11273,1,8,1:2:0:0:
193,204,11610,5,4,1:2:0:0:
260,269,11780,2,2,L|249:320,2,37.5,2|2|2,0:0|0:0|1:2,0:0:0:0:
342,210,12121,2,0,B|390:155|390:155|446:217,1,150,2|0,2:0|0:0,0:0:0:0:
496,290,12632,1,0,1:2:0:0:
430,342,12803,1,2,0:0:0:0:
430,342,12888,1,2,0:0:0:0:
430,342,12973,1,2,1:2:0:0:
343,306,13139,2,0,B|283:316|283:316|263:341|263:341|190:355,1,150,2|0,2:0|0:0,0:0:0:0:
111,310,13639,2,0,P|109:266|146:236,1,75,2|2,1:2|0:0,0:0:0:0:
138,241,13889,1,2,0:0:0:0:
149,243,13973,1,2,1:2:0:0:
231,182,14139,5,2,2:0:0:0:
221,105,14306,2,0,P|215:41|213:0,1,75,0|8,1:2|2:0,0:0:0:0:
323,81,14643,2,0,P|361:89|418:103,1,75,0|8,1:2|2:0,0:0:0:0:
483,159,14980,2,0,P|455:196|417:195,1,75,0|8,1:2|2:0,0:0:0:0:
346,172,15317,1,0,1:2:0:0:
299,246,15485,1,8,2:0:0:0:
362,315,15654,2,0,L|350:360,3,37.5,0|0|0|0,1:2|1:2|1:2|1:0,0:0:0:0:
337,363,15991,2,0,P|288:342|212:341,1,112.5,4|0,1:2|0:0,0:0:0:0:
212,346,16328,1,0,1:2:0:0:
131,298,16497,1,8,2:0:0:0:
131,298,16581,1,8,0:0:0:0:
131,298,16665,2,0,P|150:270|167:260,3,37.5,8|0|0|0,1:2|1:0|1:0|1:0,0:0:0:0:
170,261,17002,6,0,B|252:261|224:210|306:207,1,150,4|8,1:2|2:0,0:0:0:0:
384,266,17508,2,0,B|432:279|432:279|481:249|456:176,1,150,2|0,2:0|1:2,0:0:0:0:
451,96,18014,2,0,P|415:104|393:133,1,75,8|0,2:0|0:0,0:0:0:0:
295,79,18351,2,0,L|313:-9,1,75,2|0,1:2|0:0,0:0:0:0:
197,46,18688,1,10,2:0:0:0:
197,46,18856,2,0,B|152:69|152:69|120:23|66:33,1,150,2|2,1:2|1:2,0:0:0:0:
0,91,19362,1,8,2:0:0:0:
25,256,19699,6,0,P|71:199|153:212,1,150,6|8,1:2|2:0,0:0:0:0:
233,245,20205,2,0,P|253:172|274:93,1,150,2|0,2:0|1:2,0:0:0:0:
328,36,20710,2,0,P|350:62|352:88,3,37.5,10|2|2|2,2:0|2:0|2:0|2:0,0:0:0:0:
352,83,21047,2,0,L|504:114,1,150,2|8,1:2|2:0,0:0:0:0:
484,259,21553,2,0,P|457:211|397:200,1,112.5,2|0,1:2|0:0,0:0:0:0:
386,205,21890,1,2,1:2:0:0:
330,267,22058,1,8,2:0:0:0:
376,342,22227,1,2,2:0:0:0:
282,366,22396,6,0,B|239:362|211:386|211:386|232:338|280:333,1,150,6|8,1:2|2:0,0:0:0:0:
317,257,22901,2,0,B|344:210|324:159|324:159|304:189|325:203,1,150,2|2,1:2|1:2,0:0:0:0:
429,232,23407,2,0,P|474:223|490:179,1,75,10|2,2:0|2:0,0:0:0:0:
428,125,23744,2,0,P|438:69|454:16,1,112.5,6|0,1:2|0:0,0:0:0:0:
451,5,24081,1,10,2:0:0:0:
343,39,24249,2,0,B|263:40|279:100|186:93,1,150,2|0,1:2|1:2,0:0:0:0:
106,61,24755,2,0,L|97:97,3,37.5,10|2|2|2,2:0|2:0|2:0|2:0,0:0:0:0:
94,108,25092,6,0,L|104:207,1,75,6|2,1:2|1:2,0:0:0:0:
196,266,25429,2,0,P|213:242|208:198,1,75,10|2,2:0|2:0,0:0:0:0:
169,100,25766,1,2,1:2:0:0:
244,53,25935,1,10,2:0:0:0:
244,53,26019,1,10,2:0:0:0:
244,53,26103,1,10,2:0:0:0:
305,114,26272,6,0,B|358:128|358:128|363:135|363:135|416:151,1,112.5,6|0,1:2|0:0,0:0:0:0:
421,149,26609,1,10,2:0:0:0:
395,50,26778,1,10,2:0:0:0:
285,196,27115,2,0,L|258:329,1,112.5,10|0,2:0|1:0,0:0:0:0:
269,314,27452,2,0,P|323:318|355:284,1,75,2|8,1:2|0:0,0:0:0:0:
346,299,27705,1,8,0:0:0:0:
346,287,27789,1,6,1:2:0:0:
480,167,28126,6,0,L|469:81,1,60,2|0,1:2|0:0,0:0:0:0:
410,37,28463,2,0,P|359:35|354:113,1,120,0|0,1:0|1:0,0:0:0:0:
365,178,28969,1,2,0:0:0:0:
365,178,29137,2,0,P|412:184|484:215,1,120,2|0,1:3|1:0,0:0:0:0:
440,306,29643,2,0,P|393:300|321:269,2,120,2|2|2,0:0|0:0|0:0,0:0:0:0:
478,211,30485,6,0,P|469:152|408:141,1,120,2|2,1:3|1:2,0:0:0:0:
332,179,30991,2,0,P|318:120|301:62,1,120,2|2,0:2|0:2,0:0:0:0:
238,2,31497,2,0,P|215:31|216:68,1,60,0|2,1:2|0:2,0:0:0:0:
216,160,31834,2,0,P|177:140|139:131,1,60,2|0,1:3|0:0,0:0:0:0:
98,68,32171,1,2,1:2:0:0:
98,68,32339,2,0,P|40:83|17:155,1,120,0|0,1:2|0:0,0:0:0:0:
56,216,32845,1,0,1:2:0:0:
56,216,33182,1,2,1:3:0:0:
184,313,33519,6,0,L|256:333,1,60,2|0,1:2|0:0,0:0:0:0:
321,286,33856,2,0,B|385:303|375:344|430:349,1,120,2|0,1:2|1:2,0:0:0:0:
501,297,34362,1,2,0:2:0:0:
501,297,34530,2,0,P|482:244|412:246,1,120,2|2,1:3|1:2,0:0:0:0:
356,156,35036,2,0,P|366:94|384:26,1,120,2|0,0:2|0:0,0:0:0:0:
278,61,35542,2,0,P|242:51|213:41,1,60,0|2,1:2|0:0,0:0:0:0:
211,42,35794,5,2,0:0:0:0:
202,45,35879,2,0,P|186:75|186:101,1,60,2|0,1:3|0:0,0:0:0:0:
249,177,36216,2,0,L|236:243,1,60,2|0,1:2|0:0,0:0:0:0:
181,325,36553,2,0,P|140:329|121:344,1,60,2|0,1:2|0:0,0:0:0:0:
62,250,36890,2,0,P|23:235|8:216,1,60,2|0,1:2|0:0,0:0:0:0:
101,161,37227,5,6,1:3:0:0:
321,50,37733,1,6,1:2:0:0:
321,50,37817,1,2,1:2:0:0:
321,50,37901,2,0,P|361:27|406:40,1,75,2|2,1:2|1:2,0:0:0:0:
456,104,38238,2,0,L|447:148,3,37.5,10|10|10|8,0:2|0:2|0:2|0:2,0:0:0:0:
442,150,38575,6,0,B|352:130|352:130|334:166|291:170,2,150,6|10|2,3:3|0:2|1:2,0:0:0:0:
496,229,39418,1,0,1:2:0:0:
496,229,39587,2,0,L|474:325,1,75,8|2,0:2|0:2,0:0:0:0:
392,370,39924,2,0,P|343:335|381:249,1,150,2|10,1:2|0:2,0:0:0:0:
423,176,40429,2,0,P|428:136|401:100,1,75,2|0,0:2|1:2,0:0:0:0:
333,42,40766,1,2,1:2:0:0:
333,42,40935,2,0,P|288:31|260:20,1,75,8|2,0:2|0:2,0:0:0:0:
175,89,41272,6,0,P|106:97|43:146,1,150,2|10,1:2|0:2,0:0:0:0:
0,213,41778,2,0,P|47:236|80:211,1,75,2|0,0:2|1:2,0:0:0:0:
170,201,42115,1,2,1:2:0:0:
170,201,42283,2,0,P|156:235|146:271,1,75,10|2,0:2|0:2,0:0:0:0:
164,365,42620,1,0,1:2:0:0:
257,336,42789,1,2,0:1:0:0:
257,336,42957,2,0,P|285:311|322:310,1,75,10|2,0:1|0:1,0:0:0:0:
408,356,43294,1,2,1:2:0:0:
408,356,43463,1,2,1:2:0:0:
470,292,43631,2,0,P|484:229|501:160,1,112.5,10|0,0:2|0:0,0:0:0:0:
493,170,43969,6,0,P|468:146|423:142,1,75,6|0,1:2|0:0,0:0:0:0:
343,188,44306,1,10,0:2:0:0:
343,188,44474,2,0,P|327:117|343:42,1,150,2|0,0:2|1:2,0:0:0:0:
196,0,44980,2,0,P|194:38|222:71,1,75,8|2,0:2|0:2,0:0:0:0:
249,158,45317,2,0,P|206:98|108:98,1,150,2|10,1:2|0:2,0:0:0:0:
41,185,45823,2,0,B|81:196|130:218|130:218|161:207|162:174,1,150,6|0,1:2|1:2,0:0:0:0:
134,87,46328,2,0,P|117:43|134:3,1,75,10|2,0:2|0:2,0:0:0:0:
242,59,46665,6,0,B|297:70|284:110|353:118,1,112.5,2|0,1:2|0:0,0:0:0:0:
348,113,47002,2,0,B|372:82|372:82|362:45,1,75,10|0,0:2|0:0,0:0:0:0:
460,126,47339,1,2,1:2:0:0:
460,126,47508,2,0,L|443:210,1,75,2|10,1:2|0:2,0:0:0:0:
463,292,47845,6,0,P|429:227|334:239,1,150,6|2,1:2|1:2,0:0:0:0:
267,261,48351,2,0,L|257:339,1,75,10|10,0:2|0:2,0:0:0:0:
252,345,48603,1,8,0:2:0:0:
248,355,48688,1,8,0:3:0:0:
51,261,49025,1,8,0:3:0:0:
163,129,49362,6,0,P|186:37|280:30,1,202.499993820191,4|0,1:2|1:2,0:0:0:0:
348,100,50036,2,0,L|494:136,1,134.999995880127,2|10,1:2|0:2,0:0:0:0:
437,230,50542,1,2,0:2:0:0:
437,230,50710,2,0,P|417:286|332:281,1,134.999995880127,2|2,1:2|0:2,0:0:0:0:
249,285,51216,1,2,1:2:0:0:
249,285,51384,2,0,P|263:229|337:207,1,134.999995880127,0|8,1:2|0:2,0:0:0:0:
245,69,51974,5,0,1:0:0:0:
235,71,52058,2,0,B|197:67|177:36|177:36|104:77|125:157,1,202.499993820191,0|0,1:2|1:2,0:0:0:0:
182,215,52733,2,0,P|191:250|187:208,1,134.999995880127,2|10,1:2|0:2,0:0:0:0:
315,241,53238,1,2,0:2:0:0:
315,241,53407,2,0,P|388:242|401:127,1,202.499993820191,2|2,1:2|1:2,0:0:0:0:
330,87,54081,1,0,1:2:0:0:
245,83,54249,1,10,0:2:0:0:
195,151,54418,1,10,0:2:0:0:
233,230,54587,6,0,B|305:235|284:301|369:306,1,150,6|2,1:2|1:2,0:0:0:0:
451,278,55092,2,0,P|439:233|399:221,1,75,10|2,0:2|0:2,0:0:0:0:
342,153,55429,2,0,L|356:68,1,75,2|0,1:2|0:0,0:0:0:0:
396,0,55766,1,8,0:2:0:0:
396,0,55935,2,0,P|343:63|277:36,1,150,2|2,0:2|0:2,0:0:0:0:
196,12,56440,2,0,P|158:18|137:50,1,75,10|2,0:2|0:2,0:0:0:0:
148,141,56778,1,2,1:2:0:0:
148,141,56946,2,0,P|185:134|206:102,1,75,2|8,1:2|0:0,0:0:0:0:
286,46,57283,6,0,B|344:62|344:62|364:90|364:90|422:105,1,150,6|0,1:2|1:2,0:0:0:0:
486,182,57789,2,0,P|459:215|464:258,1,75,8|0,0:2|0:0,0:0:0:0:
488,353,58126,1,0,1:2:0:0:
488,353,58294,2,0,P|451:343|403:335,1,75,0|8,1:2|0:2,0:0:0:0:
298,361,58631,1,2,0:0:0:0:
290,352,58716,1,2,0:0:0:0:
282,342,58800,2,0,P|277:266|335:219,2,150,0|8|2,1:2|0:2|1:2,0:0:0:0:
189,361,59643,1,2,1:2:0:0:
114,310,59811,1,10,0:2:0:0:
151,224,59980,6,0,P|164:150|191:70,1,150,6|0,1:2|1:2,0:0:0:0:
250,13,60485,2,0,P|274:47|272:82,1,75,8|0,0:2|1:2,0:0:0:0:
255,168,60823,1,8,0:2:0:0:
255,168,60991,1,2,1:2:0:0:
322,229,61160,2,0,L|367:217,3,37.5,10|0|2|0,0:2|1:0|1:2|1:0,0:0:0:0:
369,218,61497,5,10,1:2:0:0:
428,153,61665,1,10,1:2:0:0:
386,76,61834,1,10,1:2:0:0:
146,42,62171,5,2,1:2:0:0:
234,81,62339,2,0,L|244:40,2,41.2500012588501,0|0|10,1:2|1:2|0:2,0:0:0:0:
172,171,62676,5,8,0:2:0:0:
172,183,62761,1,8,0:2:0:0:
177,194,62845,2,0,B|194:194|207:207|207:207|190:161|136:152|95:175,2,165.000005035401,6|8|2,1:2|0:2|1:2,0:0:0:0:
144,278,63688,1,2,1:2:0:0:
218,340,63856,2,0,P|270:327|281:287,1,82.5000025177003,10|2,0:2|0:2,0:0:0:0:
339,222,64193,2,0,B|397:241|397:241|427:281|427:281|496:301,1,165.000005035401,2|8,1:2|0:2,0:0:0:0:
473,187,64699,2,0,P|469:143|407:128,1,82.5000025177003,2|0,1:2|0:0,0:0:0:0:
350,87,65036,1,2,1:2:0:0:
350,87,65205,2,0,L|372:-28,1,82.5000025177003,10|0,0:2|0:0,0:0:0:0:
238,50,65542,6,0,P|200:76|215:157,1,123.75000377655,2|0,1:2|0:0,0:0:0:0:
215,154,65879,2,0,B|255:164|255:164|262:171|262:171|315:185,1,82.5000025177003,8|0,0:2|0:0,0:0:0:0:
394,157,66216,1,2,1:2:0:0:
394,157,66384,1,2,1:2:0:0:
465,234,66553,2,0,L|446:324,1,82.5000025177003,10|0,0:2|0:0,0:0:0:0:
364,371,66890,2,0,B|333:341|334:294|334:294|323:337|279:349,1,165.000005035401,2|8,1:2|0:2,0:0:0:0:
238,254,67396,2,0,P|186:236|152:323,1,165.000005035401,6|0,1:2|1:2,0:0:0:0:
64,362,67901,1,8,0:2:0:0:
3,291,68070,5,0,1:0:0:0:
6,279,68154,1,0,1:0:0:0:
10,267,68238,2,0,P|18:220|28:177,1,82.5000025177003,2|2,1:2|0:2,0:0:0:0:
106,136,68575,1,10,0:2:0:0:
174,199,68744,2,0,P|225:157|192:49,1,165.000005035401,2|2,1:2|1:2,0:0:0:0:
318,14,69249,2,0,P|359:28|398:40,1,82.5000025177003,8|2,0:2|0:2,0:0:0:0:
470,113,69587,1,2,1:2:0:0:
470,113,69755,2,0,P|425:116|391:161,1,82.5000025177003,2|10,0:2|0:2,0:0:0:0:
430,229,70092,2,0,P|397:303|372:387,1,165.000005035401,2|0,1:2|1:2,0:0:0:0:
296,300,70598,1,8,0:2:0:0:
208,340,70766,6,0,P|168:334|140:289,1,82.5000025177003,2|4,0:2|1:2,0:0:0:0:
173,214,71103,1,2,0:2:0:0:
173,214,71272,2,0,P|182:172|193:135,1,82.5000025177003,10|2,0:2|0:2,0:0:0:0:
273,53,71609,1,2,1:2:0:0:
273,53,71778,2,0,P|297:96|290:136,1,82.5000025177003,2|8,1:2|0:2,0:0:0:0:
259,230,72115,2,0,P|306:164|391:162,1,165.000005035401,4|0,1:2|1:2,0:0:0:0:
395,168,72536,1,0,1:2:0:0:
402,177,72620,2,0,L|510:194,1,82.5000025177003,8|0,0:2|1:2,0:0:0:0:
438,276,72957,5,2,1:2:0:0:
470,353,73126,2,0,P|490:352|508:337,2,41.2500012588501,0|0|10,1:2|1:2|0:2,0:0:0:0:
363,338,73463,5,8,0:2:0:0:
354,328,73547,1,8,0:2:0:0:
347,317,73631,2,0,P|264:315|232:383,2,165.000005035401,6|8|2,1:2|0:2|1:2,0:0:0:0:
416,257,74474,1,2,1:2:0:0:
379,174,74642,2,0,P|386:137|398:85,1,82.5000025177003,10|2,0:2|0:2,0:0:0:0:
303,42,74979,2,0,B|212:62|212:62|178:41|194:-5,1,165.000005035401,2|8,1:2|0:2,0:0:0:0:
88,57,75485,2,0,P|64:94|74:135,1,82.5000025177003,2|0,1:2|0:0,0:0:0:0:
150,204,75822,1,2,1:2:0:0:
150,204,75991,2,0,P|140:238|131:287,1,82.5000025177003,10|0,0:2|0:0,0:0:0:0:
217,361,76328,6,0,P|281:361|286:286,1,123.75000377655,2|0,1:2|0:0,0:0:0:0:
297,299,76665,2,0,P|324:269|375:272,1,82.5000025177003,8|0,0:2|0:0,0:0:0:0:
459,315,77002,1,2,1:2:0:0:
459,315,77171,2,0,P|471:272|481:233,1,82.5000025177003,2|10,1:2|0:2,0:0:0:0:
457,146,77508,1,2,1:2:0:0:
461,150,77676,2,0,P|421:143|391:101,1,82.5000025177003,2|2,1:2|0:2,0:0:0:0:
333,44,78014,1,8,0:2:0:0:
260,92,78182,2,0,B|230:191|309:161|269:264,1,165.000005035401,2|0,1:2|1:2,0:0:0:0:
203,316,78687,1,8,0:2:0:0:
116,278,78856,5,0,1:0:0:0:
116,278,78940,1,0,1:0:0:0:
116,278,79024,2,0,P|105:232|127:188,1,82.5000025177003,2|2,1:2|0:2,0:0:0:0:
202,153,79361,1,10,0:2:0:0:
280,205,79530,2,0,B|367:213|338:281|435:276,1,165.000005035401,2|2,1:2|1:2,0:0:0:0:
492,200,80036,2,0,P|483:159|475:115,1,82.5000025177003,8|2,0:2|0:2,0:0:0:0:
459,10,80373,2,0,P|423:42|376:29,1,82.5000025177003,2|2,1:2|0:2,0:0:0:0:
305,9,80709,1,10,0:2:0:0:
224,62,80878,2,0,B|171:48|171:48|120:98|150:146,1,165.000005035401,2|0,1:2|1:2,0:0:0:0:
230,201,81384,1,10,0:2:0:0:
42,361,81721,6,0,P|51:319|130:305,1,123.75000377655,6|0,1:2|0:0,0:0:0:0:
131,308,82058,2,0,L|223:319,1,82.5000025177003,8|0,0:2|0:0,0:0:0:0:
312,344,82395,1,0,1:2:0:0:
312,344,82564,2,0,L|301:289,2,41.2500012588501,2|0|10,0:2|0:0|0:2,0:0:0:0:
376,256,82901,2,0,B|431:249|418:217|484:200,1,123.75000377655,6|0,1:2|0:0,0:0:0:0:
494,208,83238,5,10,0:2:0:0:
459,109,83407,1,10,0:2:0:0:
462,354,83912,6,0,L|471:314,2,41.2500012588501,2|0|10,1:2|1:2|0:2,0:0:0:0:
309,292,84418,5,4,1:2:0:0:
217,329,84586,2,2,P|194:324|181:309,2,37.5,2|2|2,0:0|0:0|1:2,0:0:0:0:
236,245,84924,2,0,P|259:172|326:139,1,150,2|0,2:0|0:0,0:0:0:0:
398,183,85429,1,0,1:2:0:0:
478,122,85598,1,2,0:0:0:0:
478,122,85682,1,2,0:0:0:0:
478,122,85766,1,2,1:2:0:0:
425,34,85935,2,0,B|382:-3|382:-3|349:49|284:57,1,150,2|0,2:0|0:0,0:0:0:0:
224,20,86440,2,0,P|204:51|207:89,1,75,2|0,1:2|0:0,0:0:0:0:
210,98,86693,1,2,0:0:0:0:
217,106,86778,2,2,P|234:112|251:120,1,37.5,2|2,1:2|0:0,0:0:0:0:
263,132,86946,5,4,1:2:0:0:
256,192,87030,12,0,88463,0:0:0:0:
