osu file format v14

[General]
AudioFilename: audio.mp3
AudioLeadIn: 0
PreviewTime: 62002
Countdown: 0
SampleSet: Soft
StackLeniency: 0.7
Mode: 0
LetterboxInBreaks: 0
WidescreenStoryboard: 1

[Editor]
Bookmarks: 11610,23745,38576,49363,54588,62846,73632,84419
DistanceSpacing: 1
BeatDivisor: 4
GridSize: 32
TimelineZoom: 1.6

[Metadata]
Title:Star!! (TV Size)
TitleUnicode:Star!! (TV Size)
Artist:CINDERELLA PROJECT
ArtistUnicode:CINDERELLA PROJECT
Creator:Kyutei
Version:Mayuzumi AsuKo's Normal
Source:アイドルマスター シンデレラガールズ
Tags:Anya Melfissa Anya_Melfissa Pile AyameMyMommy door_weapon door weapon dog_food dog food AsuKow Erisu Mayuzumi Fuyuko Kagayaki A1 Pictures opening op the idolm@ster cinderella girls im@s imas idolmaster season1 ss1 Starlight Stage MONACA 諸星きらり Moroboshi Kirari 赤城みりあ Akagi Miria 城ヶ崎莉嘉 Jougasaki Rika 多田李衣菜 Tada Riina 前川みく Maekawa Miku アナスタシア Anastasia 新田美波 Nitta Minami 神崎蘭子 Kanzaki Ranko 双葉杏 Futaba Anzu 緒方智絵里 Ogata Chieri 三村かな子 Mimura Kanako 本田未央 Honda Mio 渋谷凜 Shibuya Rin 島村卯月 Shimamura Uzuki 大橋彩香 Ohashi Ayaka 福原綾香 Fukuhara Ayaka 原紗友里 Hara Sayuri 上坂すみれ Uesaka Sumire 洲崎綾 Suzaki Aya 内田真礼 Uchida Maaya 五十嵐裕美 Igarashi Hiromi 大坪由佳 Ohtsubo Yuka 大空 直美 Oozora Naomi 山本希望 Yamamoto Nozomi 松嵜麗 Matsuzaki Rei 黒沢ともよ Kurosawa Tomoyo 高森奈津美 Takamori Natsumi 青木瑠璃子 Aoki Ruriko Anime Japanese Jpop J-pop
BeatmapID:2903033
BeatmapSetID:1362074

[Difficulty]
HPDrainRate:3.5
CircleSize:3
OverallDifficulty:4
ApproachRate:5
SliderMultiplier:1.1
SliderTickRate:1

[Events]
//Background and Video events
0,0,"imas star.jpg",0,0
Video,-160,"op.mp4"
//Break Periods
//Storyboard Layer 0 (Background)
//Storyboard Layer 1 (Fail)
//Storyboard Layer 2 (Pass)
//Storyboard Layer 3 (Foreground)
//Storyboard Layer 4 (Overlay)
//Storyboard Sound Samples

[TimingPoints]
-524,337.0786516854,4,2,1,50,1,0
150,-100,4,2,1,50,0,0
824,-100,4,2,1,50,0,0
1329,-100,4,2,1,50,0,0
1498,-100,4,2,1,50,0,0
2677,-100,4,2,1,50,0,0
4784,-100,4,2,1,50,0,0
4869,-100,4,2,1,50,0,0
7650,-100,4,2,1,50,0,0
7734,-100,4,2,1,50,0,0
9756,-100,4,2,1,50,0,0
10852,-100,4,2,1,50,0,0
10936,-100,4,2,1,50,0,0
11610,340.909090909099,4,2,1,50,1,0
11611,-100,4,2,1,50,0,0
12116,-100,4,2,1,65,0,0
12121,-100,4,2,1,65,0,0
12621,-100,4,2,1,70,0,0
12632,-100,4,2,1,70,0,0
12973,333.333333333341,4,2,1,70,1,0
13127,-100,4,2,1,75,0,0
13139,-100,4,2,1,75,0,0
13633,-100,4,2,1,80,0,0
13639,-100,4,2,1,80,0,0
14223,-100,4,2,1,80,0,0
14306,337.078651685401,4,2,1,50,1,0
14306,-100,4,2,1,50,0,0
14390,-100,4,2,1,50,0,0
14474,-100,4,2,1,50,0,0
14559,-100,4,2,1,50,0,0
14643,-100,4,2,1,50,0,0
14727,-100,4,2,1,50,0,0
14811,-100,4,2,1,50,0,0
14896,-100,4,2,1,50,0,0
14980,-100,4,2,1,50,0,0
15064,-100,4,2,1,50,0,0
15149,-100,4,2,1,50,0,0
15233,-100,4,2,1,50,0,0
15317,-100,4,2,1,50,0,0
15401,-100,4,2,1,50,0,0
15486,-100,4,2,1,50,0,0
15570,-100,4,2,1,50,0,0
15655,-100,4,2,1,75,0,0
16329,-100,4,2,1,80,0,0
23154,-100,4,2,1,80,0,0
23238,-100,4,2,1,80,0,0
23744,-100,4,2,1,80,0,0
27031,-100,4,2,1,80,0,0
27115,-100,4,2,1,80,0,0
27789,-100,4,2,1,60,0,0
36132,-100,4,2,1,5,0,0
36216,-100,4,2,1,60,0,0
36469,-100,4,2,1,5,0,0
36553,-100,4,2,1,60,0,0
36806,-100,4,2,1,5,0,0
36890,-100,4,2,1,60,0,0
37143,-100,4,2,1,5,0,0
37227,-100,4,2,1,60,0,0
38575,-100,4,2,1,70,0,0
38828,-100,4,2,1,5,0,0
38913,-100,4,2,1,70,0,0
43884,-100,4,2,1,5,0,0
43969,-100,4,2,1,70,0,0
45570,-100,4,2,1,5,0,0
45654,-100,4,2,1,70,0,0
49363,-100,4,2,1,60,0,0
54587,-100,4,2,1,70,0,0
62845,-100,4,2,2,80,0,0
62929,-100,4,2,1,80,0,0
64699,-100,4,2,1,80,0,0
73631,-100,4,2,2,80,0,0
73716,-100,4,2,1,80,0,0
75148,-100,4,2,1,80,0,0
75485,-100,4,2,1,80,0,0
81552,-100,4,2,1,80,0,0
81637,-100,4,2,1,5,0,0
81722,-100,4,2,1,80,0,0
83154,-100,4,2,1,5,0,0
83238,-100,4,2,1,80,0,0
83323,-100,4,2,1,5,0,0
83407,-100,4,2,1,80,0,0
83660,-100,4,2,1,5,0,0
83744,-100,4,2,1,80,0,0
88463,-100,4,2,1,40,0,0

[Colours]
Combo1 : 17,254,176
Combo2 : 173,255,95
Combo3 : 255,88,100
Combo4 : 255,94,55

[HitObjects]
44,277,150,6,0,P|105:278|143:321,1,110,2|2,2:0|2:0,0:0:0:0:
231,367,824,2,0,B|276:380|276:380|352:355,1,110,2|0,2:0|0:0,0:0:0:0:
381,260,1498,2,0,L|326:244,2,55,2|2|2,2:0|2:0|2:0,0:0:0:0:
421,222,2003,2,0,L|399:92,1,110,2|0,2:0|0:0,0:0:0:0:
322,38,2677,1,2,2:0:0:0:
223,82,3015,1,2,2:0:0:0:
223,82,3183,1,2,2:0:0:0:
125,30,3520,6,0,B|112:78|112:78|119:99|119:99|106:147,1,110,2|0,2:0|0:0,0:0:0:0:
178,222,4194,2,0,L|169:283,2,55,2|2|2,2:0|2:0|2:0,0:0:0:0:
262,151,4868,2,0,P|329:160|357:209,1,110,2|0,2:0|0:0,0:0:0:0:
384,235,5374,2,0,B|281:249|346:285|235:311,1,165,2|0,2:0|0:0,0:0:0:0:
131,309,6217,6,0,L|140:378,2,55,2|0|2,2:0|0:0|2:0,0:0:0:0:
90,271,6722,1,2,2:0:0:0:
25,181,7059,2,0,L|34:122,1,55,2|2,2:0|2:0,0:0:0:0:
42,71,7397,1,2,2:0:0:0:
144,31,7734,2,0,L|214:47,1,55,2|2,2:0|2:0,0:0:0:0:
236,81,8071,2,0,P|282:93|345:65,1,110,2|0,2:0|0:0,0:0:0:0:
381,37,8576,1,2,2:0:0:0:
464,108,8913,6,0,L|473:-1,2,110,2|0|0,2:0|0:0|0:0,0:0:0:0:
459,162,9756,1,2,2:0:0:0:
417,264,10093,2,0,B|374:289|374:289|300:268,1,110,2|2,2:0|2:0,0:0:0:0:
268,243,10599,1,2,2:0:0:0:
182,174,10936,2,0,P|147:181|123:201,1,55,2|2,2:0|1:2,0:0:0:0:
94,233,11273,1,8,1:2:0:0:
121,327,11610,6,0,B|157:358|157:358|238:341,1,110,4|0,1:2|1:2,0:0:0:0:
241,295,12121,2,0,P|302:287|358:319,1,110,2|0,2:0|0:0,0:0:0:0:
388,339,12632,1,0,1:2:0:0:
450,251,12973,1,0,1:2:0:0:
450,251,13139,2,0,L|429:122,1,110,2|0,2:0|0:0,0:0:0:0:
397,99,13639,6,0,P|348:123|294:115,1,110,2|0,1:2|1:2,0:0:0:0:
248,85,14139,1,2,2:0:0:0:
140,62,14474,1,8,2:0:0:0:
140,62,14643,2,0,P|134:88|129:115,1,55,0|8,1:2|2:0,0:0:0:0:
102,164,14980,2,0,P|108:190|113:217,1,55,0|8,1:2|2:0,0:0:0:0:
124,271,15317,1,0,1:2:0:0:
159,375,15654,6,0,P|184:373|223:368,1,55,0|0,1:2|1:2,0:0:0:0:
266,353,15991,1,4,1:2:0:0:
375,350,16328,2,0,P|428:362|480:346,1,110,8|0,2:0|1:2,0:0:0:0:
501,238,17001,6,0,B|492:195|492:195|496:171|496:171|485:121,1,110,4|8,1:2|2:0,0:0:0:0:
469,78,17507,2,0,P|428:48|370:55,1,110,2|0,2:0|1:2,0:0:0:0:
321,77,18013,1,8,2:0:0:0:
209,98,18350,2,0,P|194:151|206:204,1,110,2|10,1:2|2:0,0:0:0:0:
247,239,18855,2,0,B|237:355,1,110,2|2,1:2|1:2,0:0:0:0:
192,375,19361,1,8,2:0:0:0:
95,322,19698,6,0,B|70:289|70:289|79:195,1,110,6|8,1:2|2:0,0:0:0:0:
58,168,20204,2,0,P|46:109|74:41,1,110,2|0,2:0|1:2,0:0:0:0:
93,19,20709,1,10,2:0:0:0:
201,44,21046,2,0,B|261:29|244:58|317:38,1,110,2|8,1:2|2:0,0:0:0:0:
363,28,21552,1,2,1:2:0:0:
472,62,21889,1,2,1:2:0:0:
472,62,22058,2,0,P|470:89|468:116,1,55,8|2,2:0|2:0,0:0:0:0:
437,162,22395,6,0,B|464:200|464:200|450:286,1,110,6|8,1:2|2:0,0:0:0:0:
429,311,22901,1,2,1:2:0:0:
321,289,23238,2,0,L|312:232,2,55,2|10|2,1:2|2:0|2:0,0:0:0:0:
280,326,23744,2,0,P|245:317|165:355,1,110,6|10,1:2|2:0,0:0:0:0:
137,379,24248,2,0,L|118:251,1,110,2|0,1:2|1:2,0:0:0:0:
107,216,24754,1,10,2:0:0:0:
112,106,25092,6,0,L|185:93,1,55,6|2,1:2|1:2,0:0:0:0:
187,45,25429,2,0,L|267:51,1,55,10|2,2:0|2:0,0:0:0:0:
294,64,25766,2,0,L|303:-1,2,55,2|10|10,1:2|2:0|2:0,0:0:0:0:
321,111,26271,1,6,1:2:0:0:
426,78,26608,1,10,2:0:0:0:
426,78,26777,1,10,2:0:0:0:
443,186,27114,2,0,L|429:313,1,110,10|2,2:0|1:2,0:0:0:0:
331,343,27789,6,0,B|311:340|295:329|295:329|275:364|231:367,1,110,6|2,1:2|1:2,0:0:0:0:
149,300,28463,2,0,P|93:289|42:331,1,110,0|0,1:0|1:0,0:0:0:0:
22,365,28968,1,2,0:0:0:0:
22,365,29136,2,0,L|16:237,1,110,2|0,1:3|1:0,0:0:0:0:
11,200,29642,1,2,0:0:0:0:
96,130,29979,1,2,0:0:0:0:
187,190,30316,1,2,0:0:0:0:
187,190,30484,6,0,L|304:175,1,110,2|2,1:3|1:2,0:0:0:0:
350,169,30990,1,2,0:2:0:0:
324,62,31327,1,2,0:2:0:0:
223,18,31664,1,2,0:2:0:0:
223,18,31833,2,0,B|173:27|173:27|156:21|156:21|98:34,1,110,2|2,1:3|1:2,0:0:0:0:
61,30,32338,2,0,B|46:88|84:82|67:138,1,110,0|0,1:2|0:0,0:0:0:0:
56,191,32844,1,0,1:2:0:0:
100,291,33181,6,0,B|149:305|149:305|205:278,1,110,2|2,1:3|1:2,0:0:0:0:
295,220,33855,2,0,L|402:245,1,110,2|0,1:2|1:2,0:0:0:0:
445,278,34361,1,2,0:2:0:0:
445,278,34529,2,0,B|454:237|454:237|451:217|451:217|459:162,1,110,2|2,1:3|1:2,0:0:0:0:
457,114,35035,2,0,P|426:82|306:109,1,165,2|0,0:2|1:2,0:0:0:0:
242,178,35879,5,2,1:3:0:0:
152,114,36216,1,2,1:2:0:0:
86,202,36553,1,2,1:2:0:0:
141,297,36890,1,2,1:2:0:0:
246,265,37227,2,0,L|362:250,1,110,6|0,1:3|0:0,0:0:0:0:
409,243,37732,2,0,P|447:288|441:342,1,110,6|2,1:2|1:2,0:0:0:0:
403,373,38238,1,10,0:2:0:0:
302,327,38575,5,6,3:3:0:0:
195,355,38912,2,0,P|140:351|79:345,1,110,10|2,0:2|1:2,0:0:0:0:
55,299,39418,1,0,1:2:0:0:
55,299,39587,1,8,0:2:0:0:
122,220,39923,2,0,B|179:205|173:242|228:226,1,110,2|10,1:2|0:2,0:0:0:0:
283,223,40429,1,2,0:2:0:0:
392,211,40766,2,0,B|399:133|399:133|386:103,1,110,2|2,1:2|0:2,0:0:0:0:
353,60,41272,6,0,P|295:45|238:84,1,110,2|10,1:2|0:2,0:0:0:0:
255,121,41778,1,2,0:2:0:0:
187,207,42115,2,0,P|154:196|132:190,1,55,2|10,1:2|0:2,0:0:0:0:
102,154,42452,1,2,0:2:0:0:
24,76,42789,2,0,P|30:43|33:15,2,55,2|10|2,0:1|0:1|0:1,0:0:0:0:
5,130,43294,1,2,1:2:0:0:
5,130,43463,2,0,P|10:157|13:184,1,55,2|10,1:2|0:2,0:0:0:0:
49,273,43968,6,0,B|91:269|91:269|113:281|113:281|165:278,1,110,6|10,1:2|0:2,0:0:0:0:
208,264,44474,2,0,P|262:257|317:261,1,110,2|0,0:2|1:2,0:0:0:0:
357,299,44980,1,8,0:2:0:0:
457,344,45317,2,0,P|469:291|449:230,1,110,2|10,1:2|0:2,0:0:0:0:
435,186,45822,2,0,P|423:132|437:80,1,110,6|0,1:2|1:2,0:0:0:0:
475,40,46327,1,10,0:2:0:0:
365,26,46665,6,0,P|307:35|244:46,1,110,2|10,1:2|0:2,0:0:0:0:
187,130,47339,1,2,1:2:0:0:
187,130,47508,2,0,P|188:159|203:197,1,55,2|10,1:2|0:2,0:0:0:0:
239,216,47844,2,0,P|257:264|240:330,1,110,6|2,1:2|1:2,0:0:0:0:
225,371,48350,2,0,P|196:366|168:362,1,55,10|10,0:2|0:2,0:0:0:0:
116,373,48688,1,8,0:3:0:0:
39,293,49025,1,8,0:3:0:0:
80,192,49362,5,4,1:2:0:0:
158,114,49699,2,0,L|144:52,2,55,0|0|2,1:2|1:2|1:2,0:0:0:0:
251,172,50373,2,0,L|309:162,1,55,10|2,0:2|0:2,0:0:0:0:
345,124,50710,2,0,B|383:108|383:108|462:132,1,110,2|2,1:2|0:2,0:0:0:0:
485,168,51216,1,2,1:2:0:0:
451,272,51553,1,2,0:2:0:0:
361,335,51890,1,2,0:2:0:0:
361,335,52058,6,0,B|316:333|316:333|301:323|301:323|238:326,1,110,0|0,1:2|0:2,0:0:0:0:
187,237,52733,2,0,P|125:236|81:267,1,110,2|10,1:2|0:2,0:0:0:0:
44,297,53238,1,2,0:2:0:0:
44,297,53407,2,0,L|34:177,1,110,2|2,1:2|0:2,0:0:0:0:
25,133,53912,1,2,1:2:0:0:
118,75,54249,2,0,L|181:89,1,55,10|10,0:2|0:2,0:0:0:0:
223,106,54587,6,0,P|273:115|334:88,1,110,6|2,1:2|1:2,0:0:0:0:
358,49,55092,2,0,P|383:37|411:35,1,55,10|2,0:2|0:2,0:0:0:0:
464,43,55429,1,2,1:2:0:0:
506,202,55935,2,0,P|457:226|403:220,1,110,2|2,0:2|0:2,0:0:0:0:
351,201,56440,2,0,P|321:202|291:204,1,55,10|2,0:2|0:2,0:0:0:0:
256,242,56778,1,2,1:2:0:0:
256,242,56946,1,2,1:2:0:0:
193,332,57283,6,0,B|132:320|143:352|86:336,1,110,6|0,1:2|1:2,0:0:0:0:
31,324,57789,2,0,P|28:273|23:192,1,110,8|0,0:2|1:2,0:0:0:0:
13,160,58294,2,0,P|16:105|19:50,1,110,0|0,1:2|0:0,0:0:0:0:
62,16,58800,1,0,1:2:0:0:
171,5,59137,1,8,0:2:0:0:
232,96,59474,2,0,P|228:122|224:163,1,55,2|2,1:2|1:2,0:0:0:0:
247,206,59811,1,10,0:2:0:0:
247,206,59980,6,0,B|306:198|290:232|353:217,1,110,6|0,1:2|1:2,0:0:0:0:
394,180,60485,1,8,0:2:0:0:
493,226,60823,1,8,0:2:0:0:
493,226,60992,2,0,P|489:254|490:281,2,55,2|10|2,1:2|0:2|1:2,0:0:0:0:
489,171,61497,2,0,P|494:135|499:94,1,55,10|10,1:2|1:2,0:0:0:0:
460,74,61834,1,10,1:2:0:0:
350,65,62171,1,2,1:2:0:0:
253,116,62507,1,10,0:2:0:0:
189,208,62845,6,0,B|238:208|238:208|251:215|251:215|299:220,1,110,6|8,1:2|0:2,0:0:0:0:
392,172,63519,2,0,L|447:194,2,55,2|2|10,1:2|1:2|0:2,0:0:0:0:
365,123,64025,2,0,P|290:143|217:104,1,165,2|8,0:2|0:2,0:0:0:0:
171,70,64699,1,2,1:2:0:0:
83,134,65036,1,2,1:2:0:0:
83,134,65204,2,0,L|78:197,1,55,10|0,0:2|0:0,0:0:0:0:
43,231,65542,6,0,B|26:290|26:290|58:355,1,110,2|8,1:2|0:2,0:0:0:0:
152,365,66216,2,0,L|221:352,1,55,2|2,1:2|1:2,0:0:0:0:
257,342,66553,1,10,0:2:0:0:
331,260,66890,2,0,P|389:253|437:303,1,110,2|8,1:2|0:2,0:0:0:0:
463,324,67396,2,0,L|475:192,1,110,6|0,1:2|1:2,0:0:0:0:
481,160,67901,1,8,0:2:0:0:
394,91,68238,6,0,L|407:28,2,55,2|2|10,1:2|0:2|0:2,0:0:0:0:
363,136,68744,1,2,1:2:0:0:
272,73,69081,2,0,L|205:92,1,55,2|8,1:2|0:2,0:0:0:0:
169,112,69418,1,2,0:2:0:0:
203,216,69755,2,0,L|216:279,1,55,2|10,0:2|0:2,0:0:0:0:
207,324,70092,2,0,P|148:337|90:300,1,110,2|0,1:2|1:2,0:0:0:0:
52,220,70766,2,0,L|-5:238,2,55,2|4|2,0:2|1:2|0:2,0:0:0:0:
93,183,71272,6,0,L|104:119,1,55,10|2,0:2|0:2,0:0:0:0:
96,73,71609,1,2,1:2:0:0:
96,73,71778,1,2,1:2:0:0:
193,21,72115,2,0,B|252:8|252:8|310:39,1,110,4|0,1:2|1:2,0:0:0:0:
332,71,72620,1,8,0:2:0:0:
437,100,72957,2,0,P|440:132|428:161,1,55,2|0,1:2|1:2,0:0:0:0:
456,202,73294,2,0,P|442:231|417:250,1,55,10|8,0:2|0:2,0:0:0:0:
373,263,73631,6,0,B|308:255|329:286|267:276,1,110,6|8,1:2|0:2,0:0:0:0:
189,196,74306,2,0,P|193:166|197:134,2,55,2|2|10,1:2|1:2|0:2,0:0:0:0:
151,236,74811,2,0,P|97:270|23:214,1,165,2|8,0:2|0:2,0:0:0:0:
6,164,75485,1,2,1:2:0:0:
50,64,75822,1,2,1:2:0:0:
50,64,75991,2,0,P|76:58|117:48,1,55,10|0,0:2|0:0,0:0:0:0:
156,66,76328,6,0,P|210:62|265:60,1,110,2|8,1:2|0:2,0:0:0:0:
375,54,77002,2,0,P|375:27|386:-1,2,55,2|2|10,1:2|1:2|0:2,0:0:0:0:
407,98,77508,1,2,1:2:0:0:
469,188,77845,2,0,P|475:214|485:257,1,55,2|8,0:2|0:2,0:0:0:0:
494,295,78182,2,0,P|450:327|397:321,1,110,2|0,1:2|1:2,0:0:0:0:
353,288,78688,1,8,0:2:0:0:
256,235,79025,6,0,P|204:218|155:240,1,110,2|10,1:2|0:2,0:0:0:0:
108,267,79530,2,0,P|98:213|86:150,1,110,2|2,1:2|1:2,0:0:0:0:
68,113,80036,1,8,0:2:0:0:
68,113,80205,1,2,0:2:0:0:
145,35,80541,2,0,P|168:24|212:29,1,55,2|10,0:2|0:2,0:0:0:0:
235,61,80879,2,0,P|259:86|346:87,1,110,2|0,1:2|1:2,0:0:0:0:
376,64,81384,1,10,0:2:0:0:
442,151,81721,6,0,P|437:202|427:264,1,110,6|8,1:2|0:2,0:0:0:0:
378,363,82395,1,0,1:2:0:0:
378,363,82564,2,0,P|350:364|323:359,1,55,2|10,0:2|0:2,0:0:0:0:
276,330,82901,1,6,1:2:0:0:
172,358,83238,1,10,0:2:0:0:
172,358,83407,1,10,0:2:0:0:
165,248,83744,2,0,L|106:265,2,55,2|2|10,0:2|1:2|0:2,0:0:0:0:
219,257,84249,1,2,0:2:0:0:
219,257,84418,6,0,B|261:246|261:246|283:253|283:253|336:243,1,110,4|0,1:2|1:2,0:0:0:0:
379,234,84923,2,0,L|366:117,1,110,2|0,2:0|0:0,0:0:0:0:
349,72,85428,1,0,1:2:0:0:
244,56,85765,1,0,1:2:0:0:
244,56,85934,2,0,P|187:68|130:35,1,110,2|0,2:0|0:0,0:0:0:0:
89,65,86439,2,0,L|114:182,1,110,2|0,1:2|1:2,0:0:0:0:
133,223,86945,1,4,1:2:0:0:
256,192,87114,12,0,88463,0:0:0:0:
