osu file format v14

[General]
AudioFilename: audio.mp3
AudioLeadIn: 0
PreviewTime: 62002
Countdown: 0
SampleSet: Soft
StackLeniency: 0.2
Mode: 0
LetterboxInBreaks: 0
WidescreenStoryboard: 1

[Editor]
DistanceSpacing: 0.8
BeatDivisor: 4
GridSize: 32
TimelineZoom: 1.7

[Metadata]
Title:Star!! (TV Size)
TitleUnicode:Star!! (TV Size)
Artist:CINDERELLA PROJECT
ArtistUnicode:CINDERELLA PROJECT
Creator:Kyutei
Version:Kagayaki's Insane
Source:アイドルマスター シンデレラガールズ
Tags:Anya Melfissa Anya_Melfissa Pile AyameMyMommy door_weapon door weapon dog_food dog food AsuKow Erisu Mayuzumi Fuyuko Kagayaki A1 Pictures opening op the idolm@ster cinderella girls im@s imas idolmaster season1 ss1 Starlight Stage MONACA 諸星きらり Moroboshi Kirari 赤城みりあ Akagi Miria 城ヶ崎莉嘉 Jougasaki Rika 多田李衣菜 Tada Riina 前川みく Maekawa Miku アナスタシア Anastasia 新田美波 Nitta Minami 神崎蘭子 Kanzaki Ranko 双葉杏 Futaba Anzu 緒方智絵里 Ogata Chieri 三村かな子 Mimura Kanako 本田未央 Honda Mio 渋谷凜 Shibuya Rin 島村卯月 Shimamura Uzuki 大橋彩香 Ohashi Ayaka 福原綾香 Fukuhara Ayaka 原紗友里 Hara Sayuri 上坂すみれ Uesaka Sumire 洲崎綾 Suzaki Aya 内田真礼 Uchida Maaya 五十嵐裕美 Igarashi Hiromi 大坪由佳 Ohtsubo Yuka 大空 直美 Oozora Naomi 山本希望 Yamamoto Nozomi 松嵜麗 Matsuzaki Rei 黒沢ともよ Kurosawa Tomoyo 高森奈津美 Takamori Natsumi 青木瑠璃子 Aoki Ruriko Anime Japanese Jpop J-pop
BeatmapID:3010370
BeatmapSetID:1362074

[Difficulty]
HPDrainRate:5
CircleSize:4.3
OverallDifficulty:8
ApproachRate:9
SliderMultiplier:1.6
SliderTickRate:0.5

[Events]
//Background and Video events
0,0,"imas star.jpg",0,0
Video,-160,"op.mp4"
//Break Periods
//Storyboard Layer 0 (Background)
//Storyboard Layer 1 (Fail)
//Storyboard Layer 2 (Pass)
//Storyboard Layer 3 (Foreground)
//Storyboard Layer 4 (Overlay)
//Storyboard Sound Samples

[TimingPoints]
-524,337.0786516854,4,2,1,50,1,0
150,-125,4,2,1,50,0,0
824,-100,4,2,1,50,0,0
4784,-100,4,2,1,50,0,0
4869,-100,4,2,1,50,0,0
7650,-100,4,2,1,50,0,0
7734,-100,4,2,1,50,0,0
8576,-125,4,2,1,50,0,0
8829,-125,4,2,1,5,0,0
8913,-100,4,2,1,50,0,0
10852,-100,4,2,1,50,0,0
10936,-100,4,2,1,50,0,0
11610,340.909090909099,4,2,1,50,1,0
11610,-90.9090909090909,4,2,1,50,0,0
12116,-90.9090909090909,4,2,1,65,0,0
12121,-90.9090909090909,4,2,1,65,0,0
12621,-90.9090909090909,4,2,1,70,0,0
12632,-90.9090909090909,4,2,1,70,0,0
12973,333.333333333341,4,2,1,70,1,0
13127,-100,4,2,1,75,0,0
13139,-90.9090909090909,4,2,1,75,0,0
13633,-90.9090909090909,4,2,1,80,0,0
13639,-90.9090909090909,4,2,1,80,0,0
14223,-90.9090909090909,4,2,1,80,0,0
14306,337.078651685401,4,2,1,50,1,0
14306,-90.9090909090909,4,2,1,50,0,0
14390,-90.9090909090909,4,2,1,50,0,0
14474,-90.9090909090909,4,2,1,50,0,0
14559,-90.9090909090909,4,2,1,50,0,0
14643,-90.9090909090909,4,2,1,50,0,0
14727,-90.9090909090909,4,2,1,50,0,0
14811,-90.9090909090909,4,2,1,50,0,0
14896,-90.9090909090909,4,2,1,50,0,0
14980,-90.9090909090909,4,2,1,50,0,0
15064,-90.9090909090909,4,2,1,50,0,0
15149,-90.9090909090909,4,2,1,50,0,0
15233,-90.9090909090909,4,2,1,50,0,0
15317,-90.9090909090909,4,2,1,50,0,0
15401,-90.9090909090909,4,2,1,50,0,0
15486,-90.9090909090909,4,2,1,50,0,0
15570,-90.9090909090909,4,2,1,50,0,0
15655,-90.9090909090909,4,2,1,75,0,0
16329,-90.9090909090909,4,2,1,80,0,0
17002,-83.3333333333333,4,2,1,80,0,0
22395,-71.4285714285714,4,2,1,80,0,0
23154,-71.4285714285714,4,2,1,80,0,0
23238,-71.4285714285714,4,2,1,80,0,0
24755,-83.3333333333333,4,2,1,80,0,0
26272,-71.4285714285714,4,2,1,80,0,0
26779,-83.3333333333333,4,2,1,80,0,0
27031,-83.3333333333333,4,2,1,80,0,0
27115,-83.3333333333333,4,2,1,80,0,0
27789,-83.3333333333333,4,2,1,60,0,0
28463,-125,4,2,1,60,0,0
29137,-90.9090909090909,4,2,1,60,0,0
29643,-125,4,2,1,60,0,0
30485,-90.9090909090909,4,2,1,60,0,0
30991,-125,4,2,1,60,0,0
31834,-83.3333333333333,4,2,1,60,0,0
32508,-125,4,2,1,60,0,0
36132,-125,4,2,1,5,0,0
36216,-125,4,2,1,60,0,0
36469,-125,4,2,1,5,0,0
36553,-125,4,2,1,60,0,0
36806,-125,4,2,1,5,0,0
36890,-125,4,2,1,60,0,0
37143,-125,4,2,1,5,0,0
37227,-125,4,2,1,60,0,0
37732,-100,4,2,1,60,0,0
38576,-100,4,2,1,70,0,0
38828,-100,4,2,1,5,0,0
38913,-100,4,2,1,70,0,0
43631,-149.253731343284,4,2,1,70,0,0
43885,-149.253731343284,4,2,1,5,0,0
43968,-100,4,2,1,70,0,0
45570,-100,4,2,1,5,0,0
45654,-100,4,2,1,70,0,0
49363,-125,4,2,1,60,0,0
54249,-100,4,2,1,60,0,0
54588,-100,4,2,1,70,0,0
59475,-90.9090909090909,4,2,1,70,0,0
62845,-83.3333333333333,4,2,2,80,0,1
62929,-83.3333333333333,4,2,1,80,0,1
66890,-71.4285714285714,4,2,1,80,0,1
68239,-83.3333333333333,4,2,1,80,0,1
72114,-71.4285714285714,4,2,1,80,0,1
72957,-90.9090909090909,4,2,1,80,0,1
73631,-83.3333333333333,4,2,2,80,0,1
73716,-83.3333333333333,4,2,1,80,0,1
81637,-83.3333333333333,4,2,1,5,0,1
81722,-83.3333333333333,4,2,1,80,0,1
83154,-83.3333333333333,4,2,1,5,0,1
83238,-83.3333333333333,4,2,1,80,0,1
83323,-83.3333333333333,4,2,1,5,0,1
83407,-83.3333333333333,4,2,1,80,0,1
83660,-83.3333333333333,4,2,1,5,0,1
83744,-83.3333333333333,4,2,1,80,0,1
84418,-90.9090909090909,4,2,1,80,0,0
88463,-90.9090909090909,4,2,1,40,0,0

[Colours]
Combo1 : 17,254,176
Combo2 : 173,255,95
Combo3 : 255,88,100
Combo4 : 255,94,55

[HitObjects]
171,206,150,6,0,B|115:197|115:197|99:186|99:186|33:176,1,128,2|2,2:0|2:0,0:0:0:0:
135,352,824,6,0,B|199:342|199:342|222:318|222:318|299:303,1,160,2|0,2:0|0:0,0:0:0:0:
282,306,1498,2,0,P|306:268|296:222,1,80,2|2,2:0|2:0,0:0:0:0:
359,181,1835,2,0,P|337:141|292:127,1,80,2|2,2:0|2:0,0:0:0:0:
251,75,2172,6,0,B|265:49|265:49|119:72,1,160,2|0,2:0|0:0,0:0:0:0:
93,129,2677,2,0,B|79:155|79:155|225:132,1,160,2|2,2:0|2:0,0:0:0:0:
251,75,3183,1,2,2:0:0:0:
425,191,3520,6,0,P|452:258|392:327,1,160,2|0,2:0|0:0,0:0:0:0:
405,323,4194,2,0,L|302:306,2,80,2|2|2,2:0|2:0|2:0,0:0:0:0:
228,219,4868,6,0,B|134:242|134:242|91:220|91:220|-18:248,2,240,2|2|0,2:0|2:0|0:0,0:0:0:0:
227,218,6217,6,0,L|209:141,2,80,2|0|2,2:0|0:0|2:0,0:0:0:0:
306,237,6722,2,0,L|263:54,1,160,2|2,2:0|2:0,0:0:0:0:
209,141,7228,1,2,2:0:0:0:
269,81,7397,6,0,L|424:44,1,160,2|2,2:0|2:0,0:0:0:0:
506,71,7902,1,2,2:0:0:0:
424,44,8071,2,0,L|462:199,1,160,2|0,2:0|0:0,0:0:0:0:
512,250,8576,6,0,B|491:262|483:286|483:286|458:268|431:265,1,96,2|0,2:0|0:0,0:0:0:0:
438,266,8913,6,0,B|351:226|290:296|290:296|231:364|145:323,1,320,2|0,2:0|0:0,0:0:0:0:
94,279,9756,2,0,B|88:237|88:237|115:192,1,80,2|2,2:0|2:0,0:0:0:0:
209,156,10093,6,0,B|156:142|156:142|137:107|137:107|48:84,1,160,2|2,2:0|2:0,0:0:0:0:
3,70,10599,1,2,2:0:0:0:
3,70,10936,6,0,B|56:56|56:56|75:21|75:21|164:-2,1,160,2|8,2:0|1:2,0:0:0:0:
257,162,11610,6,0,B|308:183|308:183|384:167|387:80,1,176.000005371094,4|0,1:2|1:2,0:0:0:0:
351,281,12121,6,0,B|402:259|402:259|478:276|481:363,1,176.000005371094,2|0,2:0|0:0,0:0:0:0:
276,369,12632,6,0,P|204:308|107:340,1,176.000005371094,0|0,1:2|1:2,0:0:0:0:
39,183,13139,6,0,P|123:193|185:135,1,176.000005371094,2|0,2:0|0:0,0:0:0:0:
314,27,13639,6,0,B|396:50|396:50|407:58|407:58|494:84,1,176.000005371094,2|0,1:2|1:2,0:0:0:0:
325,172,14139,5,2,2:0:0:0:
261,128,14306,1,0,1:2:0:0:
255,206,14474,1,8,2:0:0:0:
191,162,14643,5,0,1:2:0:0:
191,162,14812,1,8,2:0:0:0:
355,173,14980,5,0,1:2:0:0:
262,110,15149,1,8,2:0:0:0:
253,223,15317,1,0,1:2:0:0:
160,159,15486,1,8,2:0:0:0:
148,326,15654,6,0,P|112:298|52:299,1,88.000002685547,0|0,1:2|1:2,0:0:0:0:
70,293,15907,1,0,1:0:0:0:
70,293,15991,1,4,1:2:0:0:
1,160,16160,5,2,1:2:0:0:
1,160,16244,1,2,1:2:0:0:
1,160,16328,2,0,P|37:132|96:133,1,88.000002685547,2|0,1:2|1:0,0:0:0:0:
160,159,16581,5,0,1:0:0:0:
160,159,16665,2,10,P|180:168|213:169,1,44.0000013427735,10|10,0:0|0:0,0:0:0:0:
264,103,16834,6,8,P|284:94|317:93,1,44.0000013427735,10|10,0:0|0:0,0:0:0:0:
313,184,17002,6,0,B|296:205|296:205|459:182,1,191.999994140625,4|8,1:2|2:0,0:0:0:0:
376,96,17508,2,0,P|332:73|283:77,1,95.9999970703126,2|0,2:0|1:2,0:0:0:0:
154,124,17845,1,0,1:2:0:0:
92,50,18014,2,0,P|136:27|184:31,1,95.9999970703126,8|0,2:0|0:0,0:0:0:0:
313,184,18351,6,0,B|238:204|238:204|207:193|207:193|96:220,1,191.999994140625,2|10,1:2|2:0,0:0:0:0:
315,206,18856,6,0,B|236:225|236:225|204:213|204:213|130:234,1,191.999994140625,2|2,1:2|1:2,0:0:0:0:
352,361,19362,2,0,L|385:248,1,95.9999970703126,8|0,2:0|0:0,0:0:0:0:
165,328,19699,6,0,P|65:322|30:221,1,191.999994140625,6|8,1:2|2:0,0:0:0:0:
154,160,20205,2,0,L|28:118,1,95.9999970703126,2|2,2:0|1:2,0:0:0:0:
198,47,20542,1,0,1:2:0:0:
289,77,20710,2,0,L|163:35,1,95.9999970703126,10|2,2:0|2:0,0:0:0:0:
333,190,21047,6,0,B|383:206|421:163|421:163|434:102|509:100,1,191.999994140625,2|8,1:2|2:0,0:0:0:0:
345,204,21553,6,0,B|394:216|432:173|432:173|445:112|520:110,1,191.999994140625,2|2,1:2|1:2,0:0:0:0:
380,46,22058,2,0,L|254:88,1,95.9999970703126,8|2,2:0|2:0,0:0:0:0:
163,190,22395,6,0,B|106:223|97:294|127:328|187:339|209:279,1,223.999993164063,6|8,1:2|2:0,0:0:0:0:
105,111,22901,2,0,B|58:64|-12:74|-38:112|-32:173|30:179,1,223.999993164063,2|2,1:2|1:2,0:0:0:0:
163,190,23407,5,10,2:0:0:0:
264,152,23575,1,2,2:0:0:0:
365,114,23744,2,0,B|415:114|445:158|445:158|463:233|414:303,1,223.999993164063,6|10,1:2|2:0,0:0:0:0:
181,198,24249,2,0,B|132:213|116:264|116:264|122:341|188:394,1,223.999993164063,2|0,1:2|1:2,0:0:0:0:
264,152,24755,6,0,B|285:116|272:73|272:73|240:49,1,95.9999970703126,10|2,2:0|2:0,0:0:0:0:
5,150,25092,5,6,1:2:0:0:
95,192,25261,1,2,1:2:0:0:
155,66,25429,1,10,2:0:0:0:
65,25,25598,1,2,2:0:0:0:
155,66,25766,6,0,P|187:56|214:59,1,47.9999985351563,2|2,1:2|2:0,0:0:0:0:
260,140,25935,6,0,P|292:150|319:147,1,47.9999985351563,10|10,2:0|2:0,0:0:0:0:
377,79,26103,6,0,P|391:59|432:40,1,47.9999985351563,10|0,2:0|0:0,0:0:0:0:
463,128,26272,6,0,P|502:245|462:335,1,223.999993164063,6|10,1:2|2:0,0:0:0:0:
334,226,26778,1,10,2:0:0:0:
334,226,27115,6,0,P|303:224|263:240,3,47.9999985351563,10|0|0|0,2:0|1:0|1:0|1:2,0:0:0:0:
223,296,27452,6,0,P|192:298|152:282,3,47.9999985351563,2|0|8|8,1:2|1:2|0:0|0:0,0:0:0:0:
77,239,27789,6,0,B|87:262|87:262|97:192|97:192|92:186|92:186|104:109|104:109|123:92,1,191.999994140625,6|2,1:2|1:2,0:0:0:0:
111,102,28463,6,0,B|123:92|123:92|245:108,1,128,0|0,1:0|1:0,0:0:0:0:
385,159,28969,5,2,0:0:0:0:
385,159,29137,2,0,B|422:185|477:155|472:69|388:49,1,176.000005371094,2|0,1:3|1:0,0:0:0:0:
313,101,29643,6,0,P|293:135|294:171,1,64,2|0,0:0|1:0,0:0:0:0:
251,227,29980,2,0,P|270:261|302:278,1,64,2|0,0:0|1:0,0:0:0:0:
432,297,30317,5,2,0:0:0:0:
432,297,30485,2,0,B|408:340|408:340|253:366,1,176.000005371094,2|2,1:3|1:2,0:0:0:0:
188,284,30991,6,0,L|102:269,1,64,2|0,0:2|1:2,0:0:0:0:
90,175,31328,2,0,L|145:108,1,64,2|0,0:2|1:2,0:0:0:0:
329,205,31665,5,2,0:2:0:0:
329,205,31834,2,0,P|391:214|399:95,1,191.999994140625,2|2,1:3|1:2,0:0:0:0:
303,31,32339,5,0,1:2:0:0:
207,107,32508,6,0,P|154:121|72:88,1,128,2|0,1:3|1:2,0:0:0:0:
0,264,33182,6,0,P|53:250|135:283,1,128,2|2,1:3|1:2,0:0:0:0:
121,271,33856,2,0,P|180:292|242:278,1,128,2|0,1:2|1:2,0:0:0:0:
258,201,34362,2,0,L|245:157,1,32,2|0,0:2|0:0,0:0:0:0:
249,171,34530,2,0,P|190:150|128:164,1,128,2|2,1:3|1:2,0:0:0:0:
61,126,35036,2,0,P|59:94|75:58,1,64,2|0,0:2|1:2,0:0:0:0:
148,52,35373,2,0,P|174:34|213:30,1,64,0|0,0:0|1:2,0:0:0:0:
310,70,35710,6,0,L|334:114,1,32
325,98,35879,2,0,P|386:112|446:91,1,128,2|2,1:3|1:2,0:0:0:0:
213,135,36553,2,0,P|169:181|158:243,1,128,2|2,1:2|1:2,0:0:0:0:
345,222,37227,6,0,P|388:268|399:330,1,128,6|0,1:3|0:0,0:0:0:0:
328,373,37733,6,0,L|276:364,1,40,6|0,1:2|0:0,0:0:0:0:
237,299,37901,6,0,L|185:308,1,40,2|2,1:2|1:2,0:0:0:0:
118,341,38070,6,0,P|110:322|106:303,1,40,2|2,1:2|1:2,0:0:0:0:
53,233,38238,6,0,P|64:216|80:204,1,40,10|10,0:2|0:2,0:0:0:0:
114,122,38407,6,0,P|133:124|152:131,1,40,10|8,0:2|0:2,0:0:0:0:
220,198,38575,6,0,B|264:198|291:229|291:229|307:187|369:165,2,160,6|10|2,3:3|0:2|1:2,0:0:0:0:
220,198,39418,1,0,1:2:0:0:
123,130,39587,2,0,P|81:133|34:168,1,80,8|2,0:2|0:2,0:0:0:0:
156,27,39924,6,0,P|222:78|315:52,1,160,2|10,1:2|0:2,0:0:0:0:
429,4,40429,2,0,L|418:97,1,80,2|0,0:2|1:2,0:0:0:0:
297,145,40766,1,2,1:2:0:0:
297,145,40935,2,0,L|308:238,1,80,8|2,0:2|0:2,0:0:0:0:
454,318,41272,6,0,B|414:292|414:292|272:328,1,160,2|10,1:2|0:2,0:0:0:0:
199,232,41778,2,0,L|188:139,1,80,2|0,0:2|1:2,0:0:0:0:
132,297,42115,1,2,1:2:0:0:
52,248,42283,2,0,L|41:155,1,80,10|2,0:2|0:2,0:0:0:0:
111,29,42620,5,0,1:2:0:0:
164,89,42789,5,2,0:1:0:0:
246,102,42957,5,10,0:1:0:0:
314,51,43126,5,2,0:1:0:0:
450,103,43294,6,0,P|490:115|529:165,1,80,2|2,1:2|1:2,0:0:0:0:
438,280,43631,6,0,P|399:269|370:242,1,80.3999961968996,10|0,0:2|0:0,0:0:0:0:
370,242,43969,6,0,B|300:252|300:252|286:250|286:250|196:264,1,160,6|10,1:2|0:2,0:0:0:0:
124,372,44474,2,0,P|85:361|56:334,1,80.3999961968996,2|0,0:2|1:2,0:0:0:0:
144,223,44811,2,0,P|182:233|211:260,1,80.3999961968996,0|8,1:2|0:2,0:0:0:0:
54,228,45148,5,2,0:2:0:0:
54,228,45317,2,0,P|141:199|155:107,1,160,2|10,1:2|0:2,0:0:0:0:
251,310,45823,2,0,P|164:281|150:189,1,160,6|0,1:2|1:2,0:0:0:0:
283,146,46328,6,0,L|375:175,1,80,10|2,0:2|0:2,0:0:0:0:
427,273,46665,2,0,L|476:121,2,160,2|10|2,1:2|0:2|1:2,0:0:0:0:
359,170,47508,1,2,1:2:0:0:
427,273,47676,1,10,0:2:0:0:
359,170,47845,2,0,P|299:124|196:149,1,160,6|2,1:2|1:2,0:0:0:0:
286,254,48351,5,10,0:2:0:0:
286,254,48519,1,10,0:2:0:0:
195,279,48688,1,8,0:3:0:0:
143,200,49025,1,8,0:3:0:0:
52,225,49362,1,4,1:2:0:0:
94,110,49699,6,0,L|165:98,1,64,0|0,1:2|1:2,0:0:0:0:
216,151,50036,2,0,L|287:163,1,64,2|0,1:2|0:0,0:0:0:0:
343,112,50373,2,0,L|355:41,1,64,10|2,0:2|0:2,0:0:0:0:
391,177,50710,6,0,P|451:195|464:278,1,128,2|2,1:2|0:2,0:0:0:0:
395,327,51216,2,0,P|361:328|326:309,1,64,2|0,1:2|1:2,0:0:0:0:
258,328,51553,2,0,P|240:299|239:259,1,64,2|8,0:2|0:2,0:0:0:0:
161,190,51890,6,0,L|212:170,1,32,2|0,0:2|0:0,0:0:0:0:
191,179,52058,2,0,P|263:191|316:154,1,128,0|0,1:2|0:2,0:0:0:0:
307,164,52564,1,0,1:2:0:0:
225,80,52733,2,0,P|153:68|100:105,1,128,2|10,1:2|0:2,0:0:0:0:
108,94,53238,1,2,0:2:0:0:
194,182,53407,5,2,1:2:0:0:
120,243,53575,1,2,0:2:0:0:
31,211,53744,1,2,0:2:0:0:
120,243,53912,2,0,L|135:328,1,64,2|0,1:2|1:2,0:0:0:0:
253,231,54249,6,0,P|292:230|330:249,1,80,10|10,0:2|0:2,0:0:0:0:
429,351,54587,6,0,L|470:171,1,160,6|2,1:2|1:2,0:0:0:0:
403,109,55092,1,10,0:2:0:0:
312,161,55261,1,2,0:2:0:0:
260,73,55429,2,0,P|201:45|101:97,1,160,2|8,1:2|0:2,0:0:0:0:
58,183,55935,6,0,B|43:249|112:278|112:278|127:254|155:245,1,160,2|2,0:2|0:2,0:0:0:0:
244,200,56440,2,0,P|257:240|228:304,1,80,10|2,0:2|0:2,0:0:0:0:
113,277,56778,5,2,1:2:0:0:
182,329,56946,1,2,1:2:0:0:
249,276,57115,1,8,0:0:0:0:
346,286,57283,6,0,P|386:334|485:305,1,160,6|0,1:2|1:2,0:0:0:0:
428,199,57789,2,0,L|532:236,1,80,8|0,0:2|0:0,0:0:0:0:
453,103,58126,2,0,L|349:66,1,80,0|0,1:2|1:2,0:0:0:0:
277,144,58463,5,8,0:2:0:0:
185,81,58631,1,0,0:0:0:0:
92,144,58800,2,0,B|60:169|60:169|33:239|85:306,1,160,0|8,1:2|0:2,0:0:0:0:
210,307,59474,5,2,1:2:0:0:
262,219,59643,1,2,1:2:0:0:
190,150,59811,1,10,0:2:0:0:
128,240,59980,6,0,B|238:225|238:225|295:276,1,176.000005371094,6|0,1:2|1:2,0:0:0:0:
390,356,60485,2,0,L|411:243,1,88.000002685547,8|0,0:2|1:2,0:0:0:0:
286,168,60823,2,0,L|307:55,1,88.000002685547,8|2,0:2|1:2,0:0:0:0:
432,188,61160,1,10,0:2:0:0:
313,260,61328,1,2,1:2:0:0:
208,168,61497,5,10,1:2:0:0:
261,39,61665,1,10,1:2:0:0:
399,50,61834,1,10,1:2:0:0:
399,50,62171,6,0,L|466:55,1,44.0000013427735,2|0,1:2|1:2,0:0:0:0:
425,127,62339,6,0,L|492:132,1,44.0000013427735,0|0,1:2|1:2,0:0:0:0:
376,184,62508,6,0,L|332:180,1,44.0000013427735,10|8,0:2|0:2,0:0:0:0:
350,107,62676,6,0,L|306:103,1,44.0000013427735,8|8,0:2|0:2,0:0:0:0:
261,39,62845,6,0,P|186:98|72:44,1,191.999994140625,6|8,1:2|0:2,0:0:0:0:
227,252,63519,5,2,1:2:0:0:
182,348,63688,1,2,1:2:0:0:
108,272,63856,1,10,0:2:0:0:
153,176,64025,1,2,0:2:0:0:
227,252,64193,6,0,B|240:262|243:281|243:281|188:271|170:229|170:229|139:201|87:212,1,191.999994140625,2|8,1:2|0:2,0:0:0:0:
330,97,64699,6,0,B|317:107|314:126|314:126|369:116|387:74|387:74|418:46|470:57,1,191.999994140625,2|2,1:2|1:2,0:0:0:0:
512,209,65205,2,0,P|470:191|443:124,1,95.9999970703126,10|0,0:2|0:0,0:0:0:0:
418,324,65542,2,0,P|454:296|526:306,1,95.9999970703126,2|0,1:2|0:0,0:0:0:0:
359,188,65879,2,0,P|364:233|319:290,1,95.9999970703126,8|0,0:2|0:0,0:0:0:0:
162,189,66216,5,2,1:2:0:0:
242,110,66384,1,2,1:2:0:0:
280,216,66552,1,10,0:2:0:0:
200,295,66721,1,0,0:0:0:0:
162,189,66890,6,0,B|94:131|11:174|11:174|55:165|98:194,1,223.999993164063,2|8,1:2|0:2,0:0:0:0:
320,132,67396,6,0,B|388:74|471:117|471:117|427:108|384:137,1,223.999993164063,6|0,1:2|1:2,0:0:0:0:
200,87,67901,6,0,B|179:71|171:37|171:37|199:57|202:85,1,111.999996582031,8|0,0:2|0:0,0:0:0:0:
248,210,68238,5,2,1:2:0:0:
145,179,68407,1,2,0:2:0:0:
42,148,68575,1,10,0:2:0:0:
86,237,68744,6,0,P|63:342|-3:334,1,191.999994140625,2|2,1:2|1:2,0:0:0:0:
180,254,69249,1,8,0:2:0:0:
227,317,69418,2,0,L|322:343,1,95.9999970703126,2|2,0:2|1:2,0:0:0:0:
417,201,69755,5,2,0:2:0:0:
417,201,69924,1,10,0:2:0:0:
377,132,70092,2,0,B|355:96|355:96|196:53,1,191.999994140625,2|0,1:2|1:2,0:0:0:0:
94,148,70598,2,0,P|73:199|86:256,1,95.9999970703126,8|2,0:2|0:2,0:0:0:0:
233,290,70935,5,4,1:2:0:0:
271,198,71103,1,2,0:2:0:0:
173,209,71271,5,10,0:2:0:0:
331,278,71440,1,2,0:2:0:0:
313,107,71609,1,2,1:2:0:0:
271,198,71778,5,2,1:2:0:0:
271,198,71946,1,8,0:2:0:0:
185,64,72114,6,0,B|167:80|167:80|248:69|248:69|270:52|270:52|292:56|292:56|406:41,1,223.999993164063,4|0,1:2|1:2,0:0:0:0:
271,198,72620,2,0,B|257:216|257:216|136:235,1,111.999996582031,8|0,0:2|1:2,0:0:0:0:
101,156,72957,6,0,L|116:98,1,44.0000013427735,2|0,1:2|1:2,0:0:0:0:
31,136,73126,6,0,L|46:78,1,44.0000013427735,0|0,1:2|1:2,0:0:0:0:
117,85,73294,6,0,L|105:42,1,44.0000013427735,10|8,0:2|0:2,0:0:0:0:
185,64,73463,6,0,L|173:21,1,44.0000013427735,8|8,0:2|0:2,0:0:0:0:
254,90,73631,6,0,P|348:60|435:137,1,191.999994140625,6|8,1:2|0:2,0:0:0:0:
278,293,74306,5,2,1:2:0:0:
278,293,74475,1,2,1:2:0:0:
328,155,74643,5,10,0:2:0:0:
328,155,74812,1,2,0:2:0:0:
177,112,74980,6,0,B|125:143|64:121|64:121|153:162,1,191.999994140625,2|8,1:2|0:2,0:0:0:0:
351,230,75485,6,0,B|403:199|464:221|464:221|375:180,1,191.999994140625,2|2,1:2|1:2,0:0:0:0:
302,82,75991,2,0,P|265:106|256:183,1,95.9999970703126,10|0,0:2|0:0,0:0:0:0:
129,215,76328,2,0,P|166:239|175:316,1,95.9999970703126,2|0,1:2|0:0,0:0:0:0:
24,161,76665,2,0,P|60:136|134:160,1,95.9999970703126,8|0,0:2|0:0,0:0:0:0:
353,235,77002,5,2,1:2:0:0:
302,82,77171,1,2,1:2:0:0:
195,202,77339,1,10,0:2:0:0:
283,172,77508,5,2,1:2:0:0:
283,172,77676,1,2,1:2:0:0:
213,111,77845,5,2,0:2:0:0:
264,263,78013,1,8,0:2:0:0:
371,143,78182,1,2,1:2:0:0:
195,202,78351,6,0,P|170:251|179:307,1,95.9999970703126,0|0,0:0|1:2,0:0:0:0:
330,323,78688,2,0,P|353:281|352:234,1,95.9999970703126,8|0,0:2|0:0,0:0:0:0:
213,111,79025,5,2,1:2:0:0:
311,78,79193,1,2,0:2:0:0:
234,10,79362,1,10,0:2:0:0:
137,43,79530,6,0,P|97:124|6:87,1,191.999994140625,2|2,1:2|1:2,0:0:0:0:
141,180,80036,1,8,0:2:0:0:
190,233,80205,2,0,B|202:270|202:270|179:347,1,95.9999970703126,2|2,0:2|1:2,0:0:0:0:
349,265,80542,5,2,0:2:0:0:
349,265,80710,1,10,0:2:0:0:
318,196,80879,2,0,B|298:141|298:141|362:21,1,191.999994140625,2|0,1:2|1:2,0:0:0:0:
432,184,81384,2,0,P|482:195|542:169,1,95.9999970703126,10|0,0:2|0:0,0:0:0:0:
318,196,81721,6,0,P|247:179|154:247,2,191.999994140625,6|8|0,1:2|0:2|1:2,0:0:0:0:
259,286,82564,5,2,0:2:0:0:
259,286,82648,1,2,0:0:0:0:
259,286,82733,1,10,0:2:0:0:
155,244,82901,6,0,L|132:46,1,191.999994140625,6|10,1:2|0:2,0:0:0:0:
48,171,83407,1,10,0:2:0:0:
357,244,83744,6,0,L|380:46,1,191.999994140625,2|10,0:2|0:2,0:0:0:0:
217,120,84418,6,0,P|137:135|63:77,1,176.000005371094,4|0,1:2|1:2,0:0:0:0:
69,273,84924,6,0,P|149:258|223:316,1,176.000005371094,2|0,2:0|0:0,0:0:0:0:
376,175,85429,6,0,B|311:163|311:163|285:132|285:132|208:118,1,176.000005371094,0|0,1:2|1:2,0:0:0:0:
220,311,85935,6,0,B|285:299|285:299|311:268|311:268|388:254,1,176.000005371094,2|0,2:0|0:0,0:0:0:0:
192,192,86440,6,0,B|151:178|151:178|101:99|183:31,1,176.000005371094,2|0,1:2|1:2,0:0:0:0:
365,82,86946,5,4,1:2:0:0:
256,192,87030,12,0,88463,0:0:0:0:
