osu file format v14

[General]
AudioFilename: audio.mp3
AudioLeadIn: 0
PreviewTime: 208409
Countdown: 0
SampleSet: Soft
StackLeniency: 0.7
Mode: 0
LetterboxInBreaks: 0
WidescreenStoryboard: 1

[Editor]
Bookmarks: 14618,26341,48410,53927,64962,89789,109788,120823,126340,137375,162202,173237,184271,209099,229788,232547,262892
DistanceSpacing: 1.7
BeatDivisor: 4
GridSize: 32
TimelineZoom: 1.2

[Metadata]
Title:Shine!!
TitleUnicode:Shine!!
Artist:CINDERELLA PROJECT
ArtistUnicode:CINDERELLA PROJECT
Creator:Ninjaking311
Version:Mrgglock's Insane
Source:アイドルマスター シンデレラガールズ
Tags:Mrgglock Japanese cinderella girls the idolmaster idolm@ster imas im@s op opening season two 2 anime full ver version 島村卯月 Shimamura Uzuki 渋谷凛 Shibuya Rin 本田未央 Honda Mio 赤城みりあ Akagi Miria アナスタシア Anastasia 緒方智絵里 Ogata Chieri 神崎蘭子 Kanzaki Lanko 城ヶ崎莉嘉 Jogasaki Rika 多田李衣奈 Tada Riina 新田美波 Nitta Minami 双葉杏 Hutaba Anzu 前川みく Maekawa Miku 三村かな子 Mimura Kanako 諸星きらり Moroboshi Kirari pop jpop j-pop
BeatmapID:3507010
BeatmapSetID:1703779

[Difficulty]
HPDrainRate:5
CircleSize:3.6
OverallDifficulty:8
ApproachRate:9
SliderMultiplier:1.74
SliderTickRate:1

[Events]
//Background and Video events
0,0,"bg.jpg",0,0
Video,-4700,"vid.m4v"
//Break Periods
2,209299,218843
//Storyboard Layer 0 (Background)
//Storyboard Layer 1 (Fail)
//Storyboard Layer 2 (Pass)
//Storyboard Layer 3 (Foreground)
//Storyboard Layer 4 (Overlay)
//Storyboard Sound Samples

[TimingPoints]
825,344.827586206897,4,2,0,55,1,0
1514,-100,4,2,1,55,0,0
2204,-181.818181818182,4,2,1,55,0,0
14100,-250,4,2,1,55,0,0
14531,-142.857142857143,4,2,1,55,0,0
14618,-100,4,2,1,75,0,0
17376,-100,4,2,1,80,0,0
22893,344.827586206897,3,2,1,85,1,0
24962,344.827586206897,4,2,1,85,1,0
24962,-181.818181818182,4,2,1,85,0,0
26341,-117.647058823529,4,2,1,60,0,0
34530,-117.647058823529,4,2,1,5,0,0
34617,-117.647058823529,4,2,1,60,0,0
37375,-117.647058823529,4,2,1,70,0,0
48324,-117.647058823529,4,2,1,5,0,0
48410,-181.818181818182,4,2,1,60,0,0
53841,-181.818181818182,4,2,1,5,0,0
53927,-117.647058823529,4,2,1,70,0,0
56686,-100,4,2,1,70,0,0
59358,-100,4,2,1,5,0,0
59444,-100,4,2,1,70,0,0
63582,-100,4,2,1,80,0,0
64272,-181.818181818182,4,2,14,80,0,0
64444,-181.818181818182,4,2,12,80,0,0
64617,-181.818181818182,4,2,10,80,0,0
64789,-181.818181818182,4,2,12,80,0,0
64962,-86.6551126516464,4,2,14,85,0,0
65306,-86.6551126516464,4,2,17,85,0,0
65651,-86.6551126516464,4,2,16,85,0,0
65996,-86.6551126516464,4,2,17,85,0,0
66341,-86.6551126516464,4,2,18,85,0,0
66686,-86.6551126516464,4,2,14,85,0,0
67030,-86.6551126516464,4,2,13,85,0,0
67548,-86.6551126516464,4,2,11,85,0,0
68065,-86.6551126516464,4,2,1,85,0,0
69789,-86.6551126516464,4,2,11,85,0,0
69962,-86.6551126516464,4,2,13,85,0,0
70134,-86.6551126516464,4,2,11,85,0,0
70306,-86.6551126516464,4,2,18,85,0,0
70651,-86.6551126516464,4,2,17,85,0,0
71686,-86.6551126516464,4,2,16,85,0,0
72030,-86.6551126516464,4,2,17,85,0,0
73151,-86.6551126516464,4,2,17,5,0,0
73237,-86.6551126516464,4,2,14,85,0,0
73410,-86.6551126516464,4,2,1,85,0,0
73582,-86.6551126516464,4,2,12,85,0,0
73755,-86.6551126516464,4,2,10,85,0,0
74099,-86.6551126516464,4,2,12,85,0,0
74444,-86.6551126516464,4,2,18,85,0,0
75306,-86.6551126516464,4,2,14,80,0,0
75479,-86.6551126516464,4,2,12,80,0,0
75651,-86.6551126516464,4,2,10,80,0,0
75824,-86.6551126516464,4,2,12,80,0,0
75996,-86.6551126516464,4,2,14,85,0,0
76341,-86.6551126516464,4,2,17,85,0,0
76686,-86.6551126516464,4,2,16,85,0,0
77030,-86.6551126516464,4,2,17,85,0,0
77375,-86.6551126516464,4,2,18,85,0,0
77720,-86.6551126516464,4,2,14,85,0,0
78065,-86.6551126516464,4,2,13,85,0,0
78582,-86.6551126516464,4,2,11,85,0,0
79789,-86.6551126516464,4,2,1,85,0,0
80824,-86.6551126516464,4,2,11,85,0,0
80996,-86.6551126516464,4,2,13,85,0,0
81168,-86.6551126516464,4,2,11,85,0,0
81341,-86.6551126516464,4,2,18,85,0,0
81686,-86.6551126516464,4,2,17,85,0,0
82720,-86.6551126516464,4,2,16,85,0,0
83065,-86.6551126516464,4,2,17,85,0,0
84272,-86.6551126516464,4,2,15,90,0,0
84789,-86.6551126516464,4,2,13,90,0,0
85306,-86.6551126516464,4,2,11,90,0,0
85737,-86.6551126516464,4,2,11,5,0,0
85824,-86.6551126516464,4,2,11,90,0,0
85996,-86.6551126516464,4,2,18,90,0,0
86082,-86.6551126516464,4,2,18,5,0,0
86169,-86.6551126516464,4,2,18,90,0,0
86341,-86.6551126516464,4,2,13,90,0,0
86686,-86.6551126516464,4,2,11,90,0,0
87030,-100,4,2,17,85,0,0
87203,-100,4,2,1,85,0,0
89789,-100,4,2,1,80,0,0
95306,344.827586206897,3,2,1,80,1,0
97375,344.827586206897,4,2,1,80,1,0
97375,-181.818181818182,4,2,1,80,0,0
98754,-142.857142857143,4,2,1,50,0,0
103150,-142.857142857143,4,2,1,5,0,0
103237,-142.857142857143,4,2,1,50,0,0
107030,-117.647058823529,4,2,1,60,0,0
109788,-117.647058823529,4,2,1,70,0,0
117978,-117.647058823529,4,2,1,5,0,0
118064,-117.647058823529,4,2,1,70,0,0
120737,-117.647058823529,4,2,1,5,0,0
120823,-181.818181818182,4,2,1,60,0,0
125995,-181.818181818182,4,2,1,60,0,0
126254,-181.818181818182,4,2,1,5,0,0
126340,-117.647058823529,4,2,1,70,0,0
129099,-100,4,2,1,70,0,0
135995,-100,4,2,1,80,0,0
136685,-181.818181818182,4,2,14,80,0,0
136857,-181.818181818182,4,2,12,80,0,0
137030,-181.818181818182,4,2,10,80,0,0
137202,-181.818181818182,4,2,12,80,0,0
137375,-86.9565217391304,4,2,14,85,0,0
137719,-86.9565217391304,4,2,17,85,0,0
138064,-86.9565217391304,4,2,16,85,0,0
138409,-86.9565217391304,4,2,17,85,0,0
138754,-86.9565217391304,4,2,18,85,0,0
139099,-86.9565217391304,4,2,14,85,0,0
139443,-86.9565217391304,4,2,13,85,0,0
139961,-86.9565217391304,4,2,11,85,0,0
140478,-86.9565217391304,4,2,1,85,0,0
142202,-86.9565217391304,4,2,11,85,0,0
142375,-86.9565217391304,4,2,13,85,0,0
142547,-86.9565217391304,4,2,11,85,0,0
142719,-86.9565217391304,4,2,18,85,0,0
143064,-86.9565217391304,4,2,17,85,0,0
144099,-86.9565217391304,4,2,16,85,0,0
144443,-86.9565217391304,4,2,17,85,0,0
145564,-86.9565217391304,4,2,17,5,0,0
145650,-86.9565217391304,4,2,14,85,0,0
145823,-86.9565217391304,4,2,1,85,0,0
145995,-86.9565217391304,4,2,12,85,0,0
146168,-86.9565217391304,4,2,10,85,0,0
146512,-86.9565217391304,4,2,12,85,0,0
146857,-86.9565217391304,4,2,18,85,0,0
147719,-86.9565217391304,4,2,14,80,0,0
147892,-86.9565217391304,4,2,12,80,0,0
148064,-86.9565217391304,4,2,10,80,0,0
148237,-86.9565217391304,4,2,12,80,0,0
148409,-86.9565217391304,4,2,14,85,0,0
148754,-86.9565217391304,4,2,17,85,0,0
149099,-86.9565217391304,4,2,16,85,0,0
149443,-86.9565217391304,4,2,17,85,0,0
149788,-86.9565217391304,4,2,18,85,0,0
150133,-86.9565217391304,4,2,14,85,0,0
150478,-86.9565217391304,4,2,13,85,0,0
150995,-86.9565217391304,4,2,11,85,0,0
152202,-86.9565217391304,4,2,1,85,0,0
153237,-86.9565217391304,4,2,11,85,0,0
153409,-86.9565217391304,4,2,13,85,0,0
153581,-86.9565217391304,4,2,11,85,0,0
153754,-86.9565217391304,4,2,18,85,0,0
154099,-86.9565217391304,4,2,17,85,0,0
155133,-86.9565217391304,4,2,16,85,0,0
155478,-86.9565217391304,4,2,17,85,0,0
156685,-86.9565217391304,4,2,15,90,0,0
157202,-86.9565217391304,4,2,13,90,0,0
157719,-86.9565217391304,4,2,11,90,0,0
158150,-86.9565217391304,4,2,11,5,0,0
158237,-86.9565217391304,4,2,11,90,0,0
158409,-86.9565217391304,4,2,18,90,0,0
158495,-86.9565217391304,4,2,18,5,0,0
158582,-86.9565217391304,4,2,18,90,0,0
158754,-86.9565217391304,4,2,13,90,0,0
159099,-86.9565217391304,4,2,11,90,0,0
159443,-100,4,2,17,85,0,0
159616,-100,4,2,1,85,0,0
162202,-142.857142857143,4,2,1,65,0,0
173237,-117.647058823529,4,2,1,70,0,0
178754,-100,4,2,1,70,0,0
181512,-100,4,2,1,75,0,0
184185,-100,4,2,1,75,0,0
184271,-100,4,2,1,80,0,0
195306,-100,4,2,1,85,0,0
209099,-181.818181818182,4,2,1,85,0,0
220133,-181.818181818182,4,2,1,50,0,0
229443,-250,4,2,1,50,0,0
229702,-181.818181818182,4,2,1,5,0,0
229788,-100,4,2,1,75,0,0
231857,-100,4,2,14,75,0,0
232030,-100,4,2,12,75,0,0
232202,-100,4,2,10,75,0,0
232375,-100,4,2,12,75,0,0
232547,-86.9565217391304,4,2,14,85,0,0
232892,-86.9565217391304,4,2,17,85,0,0
233237,-86.9565217391304,4,2,16,85,0,0
233581,-86.9565217391304,4,2,17,85,0,0
233926,-86.9565217391304,4,2,18,85,0,0
234271,-86.9565217391304,4,2,14,85,0,0
234616,-86.9565217391304,4,2,13,85,0,0
235133,-86.9565217391304,4,2,11,85,0,0
235650,-86.9565217391304,4,2,1,85,0,0
237375,-86.9565217391304,4,2,11,85,0,0
237547,-86.9565217391304,4,2,13,85,0,0
237719,-86.9565217391304,4,2,11,85,0,0
237892,-86.9565217391304,4,2,18,85,0,0
238237,-86.9565217391304,4,2,17,85,0,0
239271,-86.9565217391304,4,2,16,85,0,0
239616,-86.9565217391304,4,2,17,85,0,0
240736,-86.9565217391304,4,2,17,5,0,0
240822,-86.9565217391304,4,2,14,85,0,0
240995,-86.9565217391304,4,2,1,85,0,0
241168,-86.9565217391304,4,2,12,85,0,0
241340,-86.9565217391304,4,2,10,85,0,0
241685,-86.9565217391304,4,2,12,85,0,0
242030,-86.9565217391304,4,2,18,85,0,0
242892,-86.9565217391304,4,2,14,80,0,0
243064,-86.9565217391304,4,2,12,80,0,0
243237,-86.9565217391304,4,2,10,80,0,0
243409,-86.9565217391304,4,2,12,80,0,0
243581,-86.9565217391304,4,2,14,85,0,0
243926,-86.9565217391304,4,2,17,85,0,0
244271,-86.9565217391304,4,2,16,85,0,0
244616,-86.9565217391304,4,2,17,85,0,0
244961,-86.9565217391304,4,2,18,85,0,0
245306,-86.9565217391304,4,2,14,85,0,0
245650,-86.9565217391304,4,2,13,85,0,0
246168,-86.9565217391304,4,2,11,85,0,0
247375,-86.9565217391304,4,2,1,85,0,0
248409,-86.9565217391304,4,2,11,85,0,0
248581,-86.9565217391304,4,2,13,85,0,0
248754,-86.9565217391304,4,2,11,85,0,0
248926,-86.9565217391304,4,2,18,85,0,0
249271,-86.9565217391304,4,2,17,85,0,0
250306,-86.9565217391304,4,2,16,85,0,0
250650,-86.9565217391304,4,2,17,85,0,0
251857,-86.9565217391304,4,2,15,90,0,0
252375,-86.9565217391304,4,2,13,90,0,0
252892,-86.9565217391304,4,2,11,90,0,0
253237,-86.9565217391304,4,2,18,90,0,0
253926,-86.9565217391304,4,2,13,90,0,0
254271,-86.9565217391304,4,2,17,90,0,0
254443,-86.9565217391304,4,2,16,90,0,0
254616,-86.9565217391304,4,2,17,85,0,0
255823,-86.9565217391304,4,2,16,85,0,0
256168,-86.9565217391304,4,2,17,85,0,0
257375,-86.9565217391304,4,2,15,85,0,0
257892,-86.9565217391304,4,2,13,85,0,0
258409,-86.9565217391304,4,2,11,85,0,0
258840,-86.9565217391304,4,2,11,5,0,0
258927,-86.9565217391304,4,2,11,85,0,0
259099,-86.9565217391304,4,2,18,85,0,0
259185,-86.9565217391304,4,2,18,5,0,0
259272,-86.9565217391304,4,2,18,85,0,0
259443,-86.9565217391304,4,2,13,85,0,0
259788,-86.9565217391304,4,2,11,85,0,0
260133,-100,4,2,17,85,0,0
260306,-100,4,2,1,85,0,0
268409,344.827586206897,3,2,1,85,1,0
274615,344.827586206897,4,2,1,80,1,0
274615,-142.857142857143,4,2,1,80,0,0
276856,-142.857142857143,4,2,19,95,0,0

[Colours]
Combo1 : 164,100,240
Combo2 : 230,110,150
Combo3 : 100,200,200
Combo4 : 130,120,255

[HitObjects]
35,344,2204,6,0,B|187:396|142:241|302:294,1,287.100008761597,2|2,0:0|0:0,0:0:0:0:
420,347,3583,2,0,L|426:251,1,95.7000029205323,2|2,0:0|0:0,0:0:0:0:
506,143,4273,2,0,L|499:47,1,95.7000029205323,2|0,0:0|0:0,0:0:0:0:
308,0,4962,6,0,B|361:45|365:120|303:165|303:165|255:140|260:88,1,287.100008761597,2|0,0:0|0:0,0:0:0:0:
153,7,6342,2,0,L|41:15,1,95.7000029205323
4,136,7031,2,0,L|116:144,1,95.7000029205323,2|2,0:0|0:0,0:0:0:0:
277,235,7721,6,0,B|239:303|261:376|261:376|222:310|131:310,1,287.100008761597,0|2,0:0|0:0,0:0:0:0:
231,151,9100,2,0,B|302:143|302:143|363:183|363:183|434:174|434:174|396:171|371:143,1,287.100008761597
278,3,10480,6,0,B|301:41|344:42|344:42|131:68,1,287.100008761597,2|0,0:0|0:0,0:0:0:0:
18,185,11859,2,0,B|78:158|137:215|116:299|43:302|43:302|79:280|75:243,1,287.100008761597
195,189,13238,6,0,B|247:159|247:159|388:198,1,191.400005841065,0|2,0:0|0:0,0:0:0:0:
420,271,14100,6,0,P|428:297|402:273,1,87,2|2,0:0|0:0,0:0:0:0:
413,288,14618,6,0,L|428:183,1,87,6|2,1:2|0:0,0:0:0:0:
343,79,14962,1,10,0:0:0:0:
276,211,15135,2,0,B|172:237|212:159|102:188,1,174,4|10,1:2|0:0,0:0:0:0:
2,286,15652,1,6,0:3:0:0:
138,268,15825,1,10,0:3:0:0:
37,134,15997,6,0,L|49:40,1,87,6|2,1:2|0:0,0:0:0:0:
189,3,16342,1,10,0:0:0:0:
251,155,16514,2,0,P|197:167|140:67,1,174,6|8,1:2|0:0,0:0:0:0:
283,12,17031,1,6,0:3:0:0:
314,19,17117,1,6,0:3:0:0:
340,39,17203,1,10,0:3:0:0:
356,67,17290,1,10,0:3:0:0:
359,99,17376,6,0,L|336:275,1,174,6|10,1:2|0:0,0:0:0:0:
216,359,17893,2,0,P|174:336|161:297,1,87,2|0,0:0|1:2,0:0:0:0:
255,176,18238,2,0,P|256:223|228:254,1,87,2|8,1:2|0:0,0:0:0:0:
56,230,18583,6,0,B|84:178|84:178|51:52,1,174,2|0,0:0|0:0,0:0:0:0:
189,5,19100,1,10,0:0:0:0:
228,147,19273,2,0,P|281:158|323:139,1,87,2|0,0:0|1:2,0:0:0:0:
439,76,19618,2,0,P|402:116|398:162,1,87,2|8,1:2|0:0,0:0:0:0:
472,274,19962,1,2,0:0:0:0:
294,306,20135,6,0,B|313:329|338:333|338:333|203:344,1,174,2|8,1:2|0:0,0:0:0:0:
223,194,20652,2,0,B|322:164|307:235|390:211,1,174,2|2,1:2|1:2,0:0:0:0:
292,99,21169,1,10,0:0:0:0:
128,170,21342,2,0,L|146:359,1,174,2|0,1:2|1:2,0:0:0:0:
279,281,21859,2,0,P|329:277|382:377,1,174,10|2,0:0|1:2,0:0:0:0:
508,293,22376,1,2,1:2:0:0:
413,178,22549,1,10,0:0:0:0:
380,181,22635,1,2,0:0:0:0:
348,184,22721,1,2,0:0:0:0:
315,187,22807,1,2,0:0:0:0:
283,190,22893,6,0,L|268:99,1,87,14|2,0:0|0:0,0:0:0:0:
127,62,23237,1,2,1:2:0:0:
157,245,23410,2,0,L|172:153,1,87,14|2,0:0|0:0,0:0:0:0:
242,20,23755,1,2,1:2:0:0:
283,190,23927,6,0,P|331:201|367:189,1,87,14|2,0:0|1:2,0:0:0:0:
414,49,24272,1,2,1:2:0:0:
254,105,24444,2,0,P|212:131|195:165,1,87,14|6,0:0|0:3,0:0:0:0:
250,301,24789,1,10,0:3:0:0:
368,217,24962,6,0,B|416:268|416:331|369:371|369:371|376:338|349:303,1,239.250007301331,6|8,1:2|0:0,0:0:0:0:
266,284,25996,1,4,0:3:0:0:
126,296,26168,1,8,0:3:0:0:
126,296,26255,1,8,0:3:0:0:
126,296,26341,6,0,B|151:243|151:243|121:137,1,147.900002820969,4|2,1:2|1:2,0:0:0:0:
93,35,26858,1,2,0:0:0:0:
41,149,27030,1,2,1:2:0:0:
168,81,27203,2,0,L|255:90,1,73.9500014104843,2|0,0:0|1:2,0:0:0:0:
322,185,27548,6,0,L|235:194,1,73.9500014104843,2|0,0:0|1:2,0:0:0:0:
172,293,27893,1,2,0:0:0:0:
280,355,28065,2,0,P|282:313|268:278,1,73.9500014104843,2|2,1:2|0:0,0:0:0:0:
395,305,28410,2,0,P|393:263|407:228,2,73.9500014104843,2|2|2,1:2|0:0|1:2,0:0:0:0:
510,254,28927,1,2,0:0:0:0:
413,125,29099,6,0,B|356:120|356:120|326:140|326:140|249:132,1,147.900002820969,2|2,1:2|1:2,0:0:0:0:
148,164,29617,2,0,P|177:133|183:101,1,73.9500014104843,2|0,0:0|1:2,0:0:0:0:
59,171,29962,2,0,P|71:211|96:232,1,73.9500014104843,2|0,0:0|1:2,0:0:0:0:
97,90,30306,2,0,P|55:80|24:91,1,73.9500014104843,2|0,0:0|1:2,0:0:0:0:
187,76,30651,2,0,P|174:35|149:14,1,73.9500014104843,2|0,0:0|1:2,0:0:0:0:
242,150,30996,2,0,P|271:119|277:87,1,73.9500014104843,2|0,0:0|1:2,0:0:0:0:
367,1,31341,1,8,0:0:0:0:
384,125,31513,1,0,1:2:0:0:
499,33,31686,1,8,0:3:0:0:
499,33,31772,1,8,0:3:0:0:
499,33,31858,6,0,B|468:83|468:83|505:186,1,147.900002820969,0|2,1:2|1:2,0:0:0:0:
462,287,32375,1,2,0:0:0:0:
351,218,32548,2,0,L|432:206,1,73.9500014104843,2|2,1:2|0:0,0:0:0:0:
383,326,32893,1,2,1:2:0:0:
257,260,33065,6,0,B|177:236|194:302|103:274,1,147.900002820969,2|2,0:0|0:0,0:0:0:0:
10,207,33582,1,2,1:2:0:0:
46,327,33755,1,2,0:0:0:0:
98,190,33927,2,0,L|88:109,1,73.9500014104843,2|2,1:2|0:0,0:0:0:0:
184,9,34272,2,0,B|160:61|160:61|188:129,1,110.925002115727,10|0,1:2|0:0,0:0:0:0:
197,131,34617,6,0,P|246:131|304:221,1,147.900002820969,14|0,0:0|1:2,0:0:0:0:
454,222,35134,2,0,B|411:227|390:194|390:194|401:234|368:262,1,147.900002820969,14|8,0:0|0:0,0:0:0:0:
282,364,35651,2,0,L|291:269,1,73.9500014104843,8|4,0:3|0:3,0:0:0:0:
184,171,35996,5,10,0:0:0:0:
326,139,36168,1,10,0:3:0:0:
213,252,36341,1,2,1:2:0:0:
244,100,36513,2,0,P|216:31|127:31,1,147.900002820969,6|0,1:2|1:2,0:0:0:0:
42,86,37030,1,8,0:0:0:0:
44,113,37116,1,0,0:0:0:0:
46,141,37202,1,8,0:3:0:0:
48,168,37288,1,8,0:3:0:0:
50,196,37375,6,0,B|103:192|103:192|141:215|141:215|199:210,1,147.900002820969,4|8,1:2|0:0,0:0:0:0:
268,112,37893,1,2,0:0:0:0:
268,112,37979,1,2,0:0:0:0:
268,112,38065,1,2,1:2:0:0:
367,188,38237,2,0,L|357:114,1,73.9500014104843,2|0,1:2|0:0,0:0:0:0:
471,208,38582,6,0,P|452:258|357:289,1,147.900002820969,10|2,0:0|1:2,0:0:0:0:
264,362,39099,2,0,L|186:355,1,73.9500014104843,10|2,0:0|0:0,0:0:0:0:
153,349,39358,1,2,0:0:0:0:
153,349,39444,2,0,P|140:309|152:279,1,73.9500014104843,2|2,0:0|1:2,0:0:0:0:
295,231,39789,2,0,P|266:262|234:266,1,73.9500014104843,10|2,0:0|0:0,0:0:0:0:
149,136,40134,6,0,B|173:123|187:97|187:97|173:210,1,147.900002820969,0|10,1:2|0:0,0:0:0:0:
58,235,40651,1,2,0:0:0:0:
58,235,40737,1,2,0:0:0:0:
58,235,40824,1,2,0:0:0:0:
0,107,40996,2,0,L|78:97,1,73.9500014104843,2|0,1:2|0:0,0:0:0:0:
196,16,41341,6,0,B|288:-3|255:59|361:32,1,147.900002820969,10|2,0:0|1:2,0:0:0:0:
439,111,41858,2,0,L|353:119,1,73.9500014104843,8|2,0:0|0:0,0:0:0:0:
332,146,42117,1,2,0:0:0:0:
332,146,42203,2,0,L|258:139,1,73.9500014104843,2|0,1:2|1:2,0:0:0:0:
157,214,42548,1,10,0:0:0:0:
183,101,42720,1,2,0:0:0:0:
266,243,42893,6,0,B|316:265|316:265|424:245,1,147.900002820969,4|8,1:2|0:0,0:0:0:0:
490,353,43410,2,0,B|440:331|440:331|332:351,1,147.900002820969,0|2,0:0|1:2,0:0:0:0:
251,259,43927,1,2,0:0:0:0:
192,370,44099,1,10,0:0:0:0:
127,261,44272,6,0,L|136:174,1,73.9500014104843,2|0,0:0|1:2,0:0:0:0:
17,233,44617,2,0,L|24:306,1,73.9500014104843,8|0,0:0|1:0,0:0:0:0:
34,354,44875,1,8,0:0:0:0:
34,354,44962,2,0,P|76:363|107:349,1,73.9500014104843,2|2,1:2|1:2,0:0:0:0:
215,247,45306,1,10,0:0:0:0:
263,384,45479,1,2,1:2:0:0:
332,222,45651,6,0,B|384:217|384:217|417:242|417:242|477:237,1,147.900002820969,6|10,1:2|0:0,0:0:0:0:
482,89,46168,2,0,P|451:119|446:159,1,73.9500014104843,6|0,1:2|0:0,0:0:0:0:
376,20,46513,2,0,B|297:0|316:62|230:41,1,147.900002820969,2|0,1:2|1:2,0:0:0:0:
133,116,47030,5,14,1:2:0:0:
257,134,47203,1,8,0:3:0:0:
152,33,47375,1,4,0:3:0:0:
186,198,47548,2,0,P|234:229|318:212,1,147.900002820969,14|4,0:0|0:3,0:0:0:0:
436,174,48065,2,0,B|417:227|417:227|438:286,1,110.925002115727,8|0,0:3|0:0,0:0:0:0:
446,303,48410,6,0,B|371:278|381:333|306:311,1,143.550004380798,6|0,1:2|1:2,0:0:0:0:
241,264,49099,1,0,1:2:0:0:
125,379,49444,1,10,0:0:0:0:
95,219,49789,6,0,B|121:169|121:169|90:68,1,143.550004380798,2|2,1:2|1:2,0:0:0:0:
73,7,50479,1,0,1:2:0:0:
198,110,50824,1,8,0:0:0:0:
325,9,51168,6,0,B|298:41|300:80|319:111|319:111|322:83|347:72,1,143.550004380798,2|0,1:2|1:2,0:0:0:0:
400,35,51858,1,0,1:2:0:0:
357,185,52203,1,10,0:0:0:0:
511,149,52548,6,0,B|487:142|472:113|472:113|486:221,1,143.550004380798,2|0,1:2|1:2,0:0:0:0:
495,281,53237,1,0,1:2:0:0:
344,264,53582,2,0,L|353:351,1,71.7750021903992,8|0,0:0|0:0,0:0:0:0:
375,376,53927,6,0,B|318:367|318:367|281:382|281:382|226:373,1,147.900002820969,6|8,1:2|0:0,0:0:0:0:
145,281,54444,1,2,0:0:0:0:
246,205,54617,2,0,L|235:290,1,73.9500014104843,2|0,1:2|1:2,0:0:0:0:
155,181,54962,2,0,L|145:107,1,73.9500014104843,8|0,0:0|0:0,0:0:0:0:
257,10,55306,6,0,B|346:-8|316:56|415:35,1,147.900002820969,2|8,1:2|0:0,0:0:0:0:
501,110,55824,1,2,0:0:0:0:
391,170,55996,2,0,L|306:161,1,73.9500014104843,2|0,1:2|1:2,0:0:0:0:
277,281,56341,1,10,0:0:0:0:
229,164,56513,1,2,0:0:0:0:
104,245,56686,6,0,P|156:258|205:231,1,87,14|2,0:0|1:2,0:0:0:0:
155,107,57030,1,2,1:2:0:0:
25,198,57203,2,0,P|11:250|38:299,1,87,14|0,0:0|0:0,0:0:0:0:
70,118,57548,1,2,1:2:0:0:
116,262,57720,1,2,1:2:0:0:
244,145,57893,6,0,B|311:140|311:140|345:167|345:167|411:162,1,174,14|0,0:0|1:2,0:0:0:0:
510,269,58410,2,0,L|422:258,1,87,8|0,0:0|1:2,0:0:0:0:
347,361,58755,1,0,1:2:0:0:
263,227,58927,1,8,0:0:0:0:
192,377,59099,2,0,B|131:350|131:350|63:381,1,130.5,10|0,0:0|0:0,0:0:0:0:
44,373,59444,6,0,L|33:277,1,87,14|2,0:0|1:2,0:0:0:0:
52,139,59789,1,2,1:2:0:0:
177,217,59962,2,0,P|128:229|78:204,1,87,14|0,0:0|0:0,0:0:0:0:
209,125,60306,1,2,1:2:0:0:
255,265,60479,1,2,1:2:0:0:
341,111,60651,6,0,B|385:88|426:113|426:113|439:167|502:176,1,174,14|0,0:0|1:2,0:0:0:0:
443,27,61168,1,10,0:0:0:0:
329,131,61341,1,10,1:2:0:0:
329,131,61427,1,8,0:0:0:0:
329,131,61513,2,0,L|340:231,1,87,8|6,0:0|0:3,0:0:0:0:
396,353,61858,1,10,0:3:0:0:
441,212,62030,1,2,1:2:0:0:
308,312,62203,6,0,P|259:321|220:306,1,87,12|2,0:0|1:2,0:0:0:0:
141,159,62548,2,0,P|173:196|179:238,1,87,10|2,0:0|1:2,0:0:0:0:
132,373,62893,1,10,0:0:0:0:
82,233,63065,1,2,1:2:0:0:
29,370,63237,1,10,0:0:0:0:
163,286,63410,1,2,1:2:0:0:
0,191,63582,5,10,1:2:0:0:
180,271,63755,1,10,1:2:0:0:
12,384,63927,1,10,1:2:0:0:
29,370,64272,6,0,L|24:309,3,47.8500014602662,2|2|2|2,0:0|0:0|0:0|0:0,0:0:0:0:
105,148,64962,6,0,P|156:135|207:158,1,100.397999341261,6|0,1:2|0:0,0:0:0:0:
327,291,65306,2,0,P|290:253|284:197,1,100.397999341261,10|0,0:0|0:0,0:0:0:0:
392,51,65651,1,2,1:2:0:0:
457,231,65824,1,0,1:2:0:0:
307,112,65996,2,0,L|192:101,1,100.397999341261,10|0,0:0|0:0,0:0:0:0:
40,7,66341,6,0,P|24:62|50:106,1,100.397999341261,2|0,1:2|0:0,0:0:0:0:
102,284,66686,2,0,P|120:238|103:192,1,100.397999341261,10|0,0:0|0:0,0:0:0:0:
297,177,67030,2,0,B|192:142|207:233|89:188,1,200.795998682521,2|8,1:2|0:0,0:0:0:0:
237,84,67548,1,2,0:0:0:0:
254,260,67720,6,0,L|243:373,1,100.397999341261,2|0,1:2|0:0,0:0:0:0:
429,306,68065,2,0,B|447:281|482:278|482:278|340:258,1,200.795998682521,14|0,0:0|1:2,0:0:0:0:
259,378,68582,1,0,1:2:0:0:
179,226,68755,1,10,0:0:0:0:
113,383,68927,1,2,0:0:0:0:
263,279,69099,5,2,1:2:0:0:
85,248,69272,1,2,0:0:0:0:
239,144,69444,2,0,B|317:136|317:136|355:163|355:163|433:156,1,200.795998682521,10|2,0:0|1:2,0:0:0:0:
509,3,69962,1,2,1:2:0:0:
449,170,70134,1,10,0:0:0:0:
347,15,70306,6,0,P|386:37|401:103,1,100.397999341261,2|0,0:0|1:2,0:0:0:0:
319,236,70651,1,2,0:0:0:0:
240,83,70824,2,0,B|178:56|178:56|39:90,1,200.795998682521,10|0,0:0|1:2,0:0:0:0:
15,255,71341,1,0,1:2:0:0:
155,158,71513,1,10,0:0:0:0:
164,329,71686,6,0,P|104:343|55:317,1,100.397999341261,2|0,0:0|1:2,0:0:0:0:
141,175,72030,1,2,0:0:0:0:
251,345,72203,2,0,B|351:309|346:399|442:364,1,200.795998682521,10|0,0:0|1:2,0:0:0:0:
508,206,72720,1,0,1:2:0:0:
345,259,72893,2,0,B|316:187|316:187|350:112,1,150.596999011891,10|0,0:0|0:0,0:0:0:0:
334,78,73237,6,0,P|305:24|181:38,1,200.795998682521,14|2,0:0|1:2,0:0:0:0:
75,156,73755,2,0,L|64:35,1,100.397999341261,10|0,0:0|0:0,0:0:0:0:
212,211,74099,2,0,L|223:90,1,100.397999341261,10|0,0:0|1:2,0:0:0:0:
100,297,74444,6,0,B|178:292|178:292|213:322|213:322|300:317,1,200.795998682521,14|8,0:0|0:0,0:0:0:0:
416,201,74962,2,0,P|372:231|364:290,1,100.397999341261,8|0,1:2|1:2,0:0:0:0:
510,192,75306,1,10,0:0:0:0:
358,112,75479,1,6,0:3:0:0:
503,23,75651,1,10,0:3:0:0:
425,180,75824,1,10,0:0:0:0:
335,12,75996,6,0,L|231:24,1,100.397999341261,6|0,1:2|1:2,0:0:0:0:
71,121,76341,2,0,L|175:133,1,100.397999341261,10|0,0:0|0:0,0:0:0:0:
320,252,76686,1,2,1:2:0:0:
257,72,76858,1,0,1:2:0:0:
134,230,77031,2,0,L|238:218,1,100.397999341261,10|0,0:0|0:0,0:0:0:0:
388,348,77375,6,0,P|347:312|343:251,1,100.397999341261,2|0,1:2|0:0,0:0:0:0:
453,115,77720,2,0,P|440:172|391:203,1,100.397999341261,10|0,0:0|0:0,0:0:0:0:
233,85,78065,2,0,B|262:69|282:39|282:39|262:183,1,200.795998682521,2|8,1:2|0:0,0:0:0:0:
219,334,78582,1,2,0:0:0:0:
62,240,78755,6,0,L|174:230,1,100.397999341261,2|0,1:2|0:0,0:0:0:0:
341,242,79099,2,0,P|248:257|245:353,1,200.795998682521,8|0,0:0|1:2,0:0:0:0:
394,378,79617,1,0,1:2:0:0:
327,221,79789,1,10,0:0:0:0:
467,319,79962,1,2,0:0:0:0:
476,148,80134,6,0,P|419:133|374:157,1,100.397999341261,2|0,1:2|0:0,0:0:0:0:
281,302,80479,2,0,P|322:260|324:209,1,100.397999341261,8|0,0:0|0:0,0:0:0:0:
182,128,80824,1,2,1:2:0:0:
196,297,80996,1,2,1:2:0:0:
52,205,81168,2,0,L|170:221,1,100.397999341261,10|2,0:0|1:2,0:0:0:0:
306,117,81513,6,0,P|264:158|262:209,1,100.397999341261,12|2,0:0|1:2,0:0:0:0:
443,295,81858,1,10,0:0:0:0:
399,112,82030,1,0,1:2:0:0:
300,276,82203,5,8,0:0:0:0:
461,176,82375,1,0,1:2:0:0:
363,335,82548,5,10,0:0:0:0:
318,149,82720,1,2,1:2:0:0:
219,312,82893,6,0,L|99:302,1,100.397999341261,8|2,0:0|0:0,0:0:0:0:
61,120,83237,1,10,0:0:0:0:
220,227,83410,1,0,1:2:0:0:
33,275,83582,5,8,0:0:0:0:
151,134,83754,1,0,1:2:0:0:
219,312,83927,5,10,0:0:0:0:
94,207,84099,1,0,1:2:0:0:
301,130,84272,6,0,B|360:147|373:195|373:195|382:145|452:120,1,200.795998682521,14|0,1:2|1:2,0:0:0:0:
292,1,84789,2,0,P|224:16|177:149,1,200.795998682521,14|0,1:2|1:2,0:0:0:0:
61,283,85306,2,0,L|74:181,1,100.397999341261,14|0,1:2|1:2,0:0:0:0:
180,342,85651,2,0,L|116:352,1,50.1989996706303,10|0,0:0|0:0,0:0:0:0:
241,275,85996,2,0,L|264:214,1,50.1989996706303,14|0,1:2|0:0,0:0:0:0:
269,363,86341,1,2,1:2:0:0:
357,250,86513,2,0,P|396:286|397:361,1,100.397999341261,8|6,0:0|0:3,0:0:0:0:
497,244,86858,1,8,0:3:0:0:
355,157,87031,6,0,L|250:172,1,87,6|2,1:2|0:0,0:0:0:0:
197,298,87375,1,10,0:0:0:0:
102,183,87548,2,0,B|131:220|131:269|96:298|96:298|90:270|71:252,1,174,6|10,1:2|0:0,0:0:0:0:
3,127,88065,1,6,0:3:0:0:
48,267,88238,1,14,0:3:0:0:
186,151,88410,6,0,L|280:163,1,87,14|2,0:0|1:2,0:0:0:0:
362,44,88755,1,2,1:2:0:0:
416,181,88927,2,0,B|402:239|402:239|433:295|433:295|418:370,1,174,14|8,0:0|0:0,0:0:0:0:
279,380,89444,1,6,0:3:0:0:
248,373,89530,1,2,0:0:0:0:
222,353,89616,1,10,0:3:0:0:
206,325,89703,1,2,0:0:0:0:
203,293,89789,6,0,B|230:245|230:245|202:122,1,174,6|10,1:2|0:0,0:0:0:0:
39,158,90306,2,0,L|128:166,1,87,2|0,0:0|1:2,0:0:0:0:
209,43,90651,2,0,L|120:51,1,87,2|8,1:2|0:0,0:0:0:0:
249,155,90996,6,0,B|343:186|321:104|423:133,1,174,2|0,0:0|0:0,0:0:0:0:
507,244,91513,1,10,0:0:0:0:
359,258,91686,2,0,P|389:288|399:330,1,87,2|0,0:0|1:2,0:0:0:0:
232,376,92030,2,0,P|262:345|304:335,1,87,2|8,1:2|0:0,0:0:0:0:
467,384,92375,1,2,0:0:0:0:
376,239,92548,6,0,B|390:57,1,174,2|8,1:2|0:0,0:0:0:0:
280,166,93065,2,0,B|241:144|199:164|199:164|190:218|133:237,1,174,2|2,1:2|1:2,0:0:0:0:
4,187,93582,1,10,0:0:0:0:
62,327,93755,2,0,B|184:309|184:309|234:336,1,174,2|0,1:2|1:2,0:0:0:0:
369,280,94272,2,0,P|319:284|266:184,1,174,10|2,0:0|1:2,0:0:0:0:
344,62,94789,1,2,1:2:0:0:
461,152,94962,1,10,0:0:0:0:
464,185,95048,1,2,0:0:0:0:
467,217,95134,1,2,0:0:0:0:
470,250,95220,1,2,0:0:0:0:
473,282,95306,6,0,P|435:294|383:278,1,87,14|2,0:0|0:0,0:0:0:0:
284,179,95650,1,2,1:2:0:0:
240,345,95823,2,0,P|278:357|330:341,1,87,14|2,0:0|0:0,0:0:0:0:
369,200,96168,1,2,1:2:0:0:
193,180,96340,6,0,L|203:275,1,87,14|2,0:0|1:2,0:0:0:0:
108,381,96685,1,2,1:2:0:0:
101,205,96857,2,0,L|91:300,1,87,14|6,0:0|0:3,0:0:0:0:
200,384,97202,1,10,0:3:0:0:
281,259,97375,6,0,B|409:225|378:335|517:293,1,239.250007301331,6|8,1:2|0:0,0:0:0:0:
458,209,98409,1,4,0:3:0:0:
512,90,98581,1,8,0:3:0:0:
512,90,98668,1,8,0:3:0:0:
512,90,98754,6,0,L|371:82,1,121.799996282959,4|2,1:2|1:2,0:0:0:0:
327,149,99271,1,2,0:0:0:0:
327,149,99443,2,0,P|308:122|274:106,1,60.8999981414796,2|2,1:2|0:0,0:0:0:0:
207,58,99788,2,0,P|193:87|196:125,1,60.8999981414796,0|2,1:2|0:0,0:0:0:0:
127,209,100133,6,0,L|194:201,1,60.8999981414796,0|2,1:2|0:0,0:0:0:0:
259,287,100478,2,0,L|319:294,1,60.8999981414796,0|2,1:2|0:0,0:0:0:0:
147,224,100823,2,0,L|214:216,1,60.8999981414796,2|2,1:2|0:0,0:0:0:0:
279,302,101168,2,0,L|339:309,1,60.8999981414796,2|2,1:2|0:0,0:0:0:0:
441,246,101512,6,0,P|450:217|441:183,1,60.8999981414796,2|0,1:2|0:0,0:0:0:0:
463,88,101857,2,0,P|483:110|517:119,1,60.8999981414796,2|2,1:2|0:0,0:0:0:0:
426,260,102202,2,0,P|435:231|426:197,1,60.8999981414796,0|2,1:2|0:0,0:0:0:0:
448,102,102547,2,0,P|468:124|502:133,1,60.8999981414796,0|2,1:2|0:0,0:0:0:0:
381,35,102892,6,0,B|334:25|334:25|289:38,1,91.3499972122193,0|0,1:2|0:0,0:0:0:0:
277,54,103237,2,0,L|273:88,3,30.4499990707398,0|0|2|0,1:2|0:0|0:0|0:0,0:0:0:0:
254,123,103581,2,0,L|258:157,3,30.4499990707398,0|0|8|0,1:2|0:0|0:0|0:0,0:0:0:0:
240,199,103926,1,0,1:2:0:0:
140,253,104099,1,8,0:3:0:0:
140,253,104185,1,8,0:3:0:0:
140,253,104271,6,0,P|189:297|190:353,1,121.799996282959,0|2,1:2|1:2,0:0:0:0:
277,382,104788,1,2,0:0:0:0:
277,382,104961,2,0,L|350:376,1,60.8999981414796,2|2,1:2|0:0,0:0:0:0:
398,297,105306,2,0,L|325:291,1,60.8999981414796,2|2,1:2|0:0,0:0:0:0:
413,204,105650,6,0,P|452:214|471:241,1,60.8999981414796,0|2,1:2|0:0,0:0:0:0:
339,154,105995,2,0,P|367:125|400:122,1,60.8999981414796,2|2,1:2|0:0,0:0:0:0:
257,187,106340,2,0,P|246:148|260:118,1,60.8999981414796,2|2,1:2|0:0,0:0:0:0:
250,276,106685,2,0,P|210:266|192:239,1,60.8999981414796,2|0,1:2|0:0,0:0:0:0:
73,231,107030,6,0,B|98:185|98:185|74:78,1,147.900002820969,6|0,1:2|1:2,0:0:0:0:
177,15,107547,2,0,B|263:-10|245:61|338:27,1,147.900002820969,14|8,0:0|0:0,0:0:0:0:
440,0,108064,2,0,L|432:80,1,73.9500014104843,8|4,0:3|0:3,0:0:0:0:
440,221,108409,5,2,1:2:0:0:
337,115,108581,1,2,1:2:0:0:
481,146,108754,1,2,1:2:0:0:
347,208,108926,2,0,B|289:197|289:197|256:220|256:220|181:208,1,147.900002820969,14|0,1:2|1:2,0:0:0:0:
116,115,109443,1,10,0:0:0:0:
66,243,109616,1,8,0:3:0:0:
66,243,109702,1,8,0:3:0:0:
66,243,109788,6,0,B|41:277|41:317|66:343|66:343|76:320|93:310,1,147.900002820969,4|10,1:2|0:0,0:0:0:0:
172,216,110306,1,2,0:0:0:0:
210,335,110478,1,2,1:2:0:0:
284,234,110650,2,0,L|361:243,1,73.9500014104843,2|8,1:2|0:0,0:0:0:0:
492,317,110995,6,0,B|470:322|458:343|458:343|468:226,1,147.900002820969,2|2,1:2|1:2,0:0:0:0:
484,114,111512,1,10,0:0:0:0:
377,168,111685,1,2,1:2:0:0:
377,168,111771,1,8,0:0:0:0:
377,168,111857,2,0,P|332:163|307:137,1,73.9500014104843,2|2,1:2|1:2,0:0:0:0:
264,27,112202,1,10,0:0:0:0:
379,78,112375,1,2,0:0:0:0:
223,119,112547,6,0,B|176:98|176:98|71:122,1,147.900002820969,2|10,1:2|0:0,0:0:0:0:
1,234,113064,2,0,B|48:213|48:213|153:237,1,147.900002820969,2|2,1:2|1:2,0:0:0:0:
194,348,113581,1,8,0:0:0:0:
277,209,113754,6,0,L|267:299,1,73.9500014104843,2|0,1:2|0:0,0:0:0:0:
356,153,114099,2,0,L|283:99,1,73.9500014104843,2|8,1:2|0:0,0:0:0:0:
367,247,114443,1,2,1:2:0:0:
367,247,114530,1,8,0:0:0:0:
367,247,114616,2,0,L|450:210,1,73.9500014104843,0|0,1:2|1:2,0:0:0:0:
343,136,114961,1,10,0:0:0:0:
258,210,115133,1,2,0:0:0:0:
203,71,115306,6,0,B|145:68|145:68|121:92|121:92|46:89,1,147.900002820969,6|8,1:2|0:0,0:0:0:0:
0,202,115823,2,0,P|54:191|101:269,1,147.900002820969,0|2,0:0|1:2,0:0:0:0:
152,374,116340,1,10,0:0:0:0:
39,319,116512,1,2,0:0:0:0:
187,263,116685,6,0,L|280:273,1,73.9500014104843,2|0,1:2|0:0,0:0:0:0:
339,172,117030,2,0,L|246:182,1,73.9500014104843,8|0,0:0|1:2,0:0:0:0:
228,159,117288,1,8,0:0:0:0:
228,159,117375,1,2,1:2:0:0:
158,55,117547,1,2,1:2:0:0:
83,181,117719,2,0,B|101:235|101:235|78:297,1,110.925002115727,10|0,0:0|0:0,0:0:0:0:
70,310,118064,6,0,B|161:288|126:357|236:328,1,147.900002820969,14|2,0:0|1:2,0:0:0:0:
320,221,118581,2,0,P|286:250|281:289,1,73.9500014104843,10|0,1:2|0:0,0:0:0:0:
418,311,118926,2,0,L|403:152,1,147.900002820969,10|0,0:0|1:2,0:0:0:0:
431,40,119443,5,14,0:0:0:0:
379,155,119616,1,12,0:3:0:0:
496,111,119788,1,4,0:3:0:0:
336,67,119961,2,0,P|284:85|266:192,1,147.900002820969,10|4,0:3|0:3,0:0:0:0:
291,288,120478,2,0,B|239:268|239:268|173:294,1,110.925002115727,8|0,0:3|0:0,0:0:0:0:
165,303,120823,6,0,P|142:257|50:254,1,143.550004380798,6|0,1:2|1:2,0:0:0:0:
3,309,121512,1,0,1:2:0:0:
61,156,121857,1,10,0:0:0:0:
0,5,122202,6,0,B|38:27|38:27|147:8,1,143.550004380798,2|2,1:2|1:2,0:0:0:0:
210,43,122892,1,0,1:2:0:0:
148,193,123237,1,8,0:0:0:0:
288,112,123581,6,0,B|315:97|327:79|327:79|314:181,1,143.550004380798,0|0,1:2|1:2,0:0:0:0:
303,250,124271,1,0,1:2:0:0:
445,170,124616,1,10,0:0:0:0:
421,331,124961,6,0,B|367:324|367:324|338:344|338:344|276:336,1,143.550004380798,2|2,1:2|1:2,0:0:0:0:
204,322,125650,1,0,1:2:0:0:
286,181,125995,2,0,L|277:101,1,71.7750021903992,8|0,0:0|0:0,0:0:0:0:
263,93,126340,6,0,B|186:68|197:131|119:104,1,147.900002820969,6|8,1:2|0:0,0:0:0:0:
5,54,126857,1,2,0:0:0:0:
19,179,127030,2,0,P|60:190|94:178,1,73.9500014104843,2|0,1:2|1:2,0:0:0:0:
216,245,127375,2,0,P|175:234|141:246,1,73.9500014104843,8|0,0:0|0:0,0:0:0:0:
33,360,127719,6,0,B|87:351|87:351|127:374|127:374|185:366,1,147.900002820969,2|8,1:2|0:0,0:0:0:0:
232,260,128237,1,2,0:0:0:0:
329,348,128409,2,0,P|285:357|243:335,1,73.9500014104843,2|0,1:2|1:2,0:0:0:0:
351,262,128754,1,10,0:0:0:0:
415,369,128926,1,2,0:0:0:0:
477,234,129099,6,0,L|467:144,1,87,14|2,0:0|1:2,0:0:0:0:
386,24,129443,1,2,1:2:0:0:
302,162,129616,2,0,P|354:176|403:149,1,87,14|0,0:0|0:0,0:0:0:0:
279,59,129961,1,2,1:2:0:0:
201,184,130133,1,2,1:2:0:0:
130,40,130306,6,0,B|104:29|85:3|85:3|101:140,1,174,14|0,0:0|1:2,0:0:0:0:
217,205,130823,2,0,L|129:194,1,87,8|0,0:0|1:2,0:0:0:0:
93,220,131081,1,8,0:0:0:0:
93,220,131168,1,0,1:2:0:0:
225,118,131340,1,8,0:0:0:0:
259,282,131512,2,0,L|347:271,1,87,10|2,0:0|1:2,0:0:0:0:
364,124,131857,6,0,P|323:157|315:206,1,87,14|2,0:0|1:2,0:0:0:0:
429,281,132202,1,2,1:2:0:0:
484,127,132375,2,0,P|475:74|437:43,1,87,14|0,0:0|0:0,0:0:0:0:
345,142,132719,1,2,1:2:0:0:
492,216,132892,1,2,1:2:0:0:
320,279,133064,6,0,L|126:263,1,174,14|0,0:0|1:2,0:0:0:0:
28,175,133581,1,10,0:0:0:0:
164,109,133754,1,10,1:2:0:0:
164,109,133840,1,8,0:0:0:0:
164,109,133926,2,0,P|194:148|192:203,1,87,8|6,0:0|0:3,0:0:0:0:
67,255,134271,1,10,0:3:0:0:
76,97,134443,1,2,1:2:0:0:
209,206,134616,6,0,L|304:197,1,87,12|2,0:0|1:2,0:0:0:0:
421,286,134961,2,0,L|326:277,1,87,10|2,0:0|1:2,0:0:0:0:
205,369,135306,1,10,0:0:0:0:
222,225,135478,1,2,1:2:0:0:
295,361,135650,1,10,0:0:0:0:
158,291,135823,1,2,1:2:0:0:
311,207,135995,5,10,1:2:0:0:
140,304,136168,1,10,1:2:0:0:
312,377,136340,1,10,1:2:0:0:
295,361,136685,6,0,L|290:300,3,47.8500014602662,2|2|2|2,0:0|0:0|0:0|0:0,0:0:0:0:
138,198,137375,6,0,L|151:307,1,100.050001908302,6|0,1:2|0:0,0:0:0:0:
225,118,137719,2,0,L|238:9,1,100.050001908302,10|0,0:0|0:0,0:0:0:0:
75,118,138064,1,2,1:2:0:0:
240,214,138237,1,0,1:2:0:0:
125,28,138409,2,0,P|70:16|19:35,1,100.050001908302,10|0,0:0|0:0,0:0:0:0:
157,211,138754,6,0,L|170:94,1,100.050001908302,2|0,1:2|0:0,0:0:0:0:
292,285,139099,2,0,L|303:384,1,100.050001908302,10|0,0:0|0:0,0:0:0:0:
336,152,139443,2,0,B|389:152|415:99|415:99|431:158|510:174,1,200.100003816605,2|8,1:2|0:0,0:0:0:0:
328,63,139961,1,2,0:0:0:0:
405,228,140133,6,0,L|394:341,1,100.397999341261,2|0,1:2|0:0,0:0:0:0:
248,242,140478,2,0,B|178:229|178:229|128:261|128:261|49:247,1,200.100003816605,14|0,0:0|1:2,0:0:0:0:
133,154,140995,1,0,1:2:0:0:
198,321,141168,1,10,0:0:0:0:
38,263,141340,1,2,0:0:0:0:
234,225,141512,5,2,1:2:0:0:
48,178,141685,1,2,0:0:0:0:
185,338,141857,2,0,P|265:364|338:278,1,200.100003816605,10|2,0:0|1:2,0:0:0:0:
279,125,142375,1,2,1:2:0:0:
410,231,142547,1,10,0:0:0:0:
378,55,142719,6,0,L|367:160,1,100.050001908302,2|0,0:0|1:2,0:0:0:0:
248,244,143064,1,2,0:0:0:0:
216,56,143237,2,0,B|170:23|119:44|119:44|114:102|39:126,1,200.100003816605,10|0,0:0|1:2,0:0:0:0:
142,225,143754,1,0,1:2:0:0:
230,74,143926,1,10,0:0:0:0:
266,260,144099,6,0,P|326:274|375:248,1,100.397999341261,2|0,0:0|1:2,0:0:0:0:
221,170,144443,1,2,0:0:0:0:
229,356,144616,2,0,B|291:381|291:381|428:352,1,200.100003816605,10|0,0:0|1:2,0:0:0:0:
505,204,145133,1,0,1:2:0:0:
353,278,145306,2,0,B|382:206|382:206|348:131,1,150.596999011891,10|0,0:0|0:0,0:0:0:0:
326,105,145650,6,0,B|273:106|244:60|244:60|182:53|151:107,1,200.100003816605,14|2,0:0|1:2,0:0:0:0:
27,219,146168,2,0,L|140:209,1,100.050001908302,10|0,0:0|0:0,0:0:0:0:
211,357,146512,2,0,L|98:347,1,100.050001908302,10|0,0:0|1:2,0:0:0:0:
272,228,146857,6,0,P|327:243|334:370,1,200.100003816605,14|8,0:0|0:0,0:0:0:0:
178,263,147375,2,0,L|190:160,1,100.050001908302,8|4,1:2|0:3,0:0:0:0:
311,45,147719,1,6,0:3:0:0:
287,210,147892,1,10,0:3:0:0:
203,62,148064,1,10,0:3:0:0:
356,137,148237,1,10,0:0:0:0:
189,163,148409,6,0,P|135:162|88:135,1,100.050001908302,6|0,1:2|1:2,0:0:0:0:
0,269,148754,2,0,P|54:268|101:241,1,100.050001908302,10|0,0:0|0:0,0:0:0:0:
183,75,149099,1,2,1:2:0:0:
199,259,149271,1,0,1:2:0:0:
342,117,149443,2,0,L|329:231,1,100.050001908302,10|0,0:0|0:0,0:0:0:0:
482,360,149788,6,0,P|428:374|373:346,1,100.050001908302,2|0,1:2|0:0,0:0:0:0:
427,172,150133,2,0,P|466:211|469:273,1,100.050001908302,10|0,0:0|0:0,0:0:0:0:
267,353,150478,2,0,B|279:321|313:304|313:304|169:324,1,200.100003816605,2|8,1:2|0:0,0:0:0:0:
90,204,150995,1,2,0:0:0:0:
13,368,151168,6,0,L|6:267,1,100.050001908302,2|0,1:2|0:0,0:0:0:0:
82,116,151512,2,0,B|190:78|158:173|286:132,1,200.100003816605,8|0,0:0|1:2,0:0:0:0:
362,19,152030,1,0,1:2:0:0:
412,166,152202,1,10,0:0:0:0:
279,50,152375,1,2,0:0:0:0:
445,49,152547,6,0,L|432:157,1,100.050001908302,2|0,1:2|0:0,0:0:0:0:
307,264,152892,2,0,L|295:164,1,100.050001908302,8|0,0:0|0:0,0:0:0:0:
191,27,153237,1,2,1:2:0:0:
137,188,153409,1,2,1:2:0:0:
8,77,153581,2,0,L|126:93,1,100.397999341261,10|2,0:0|1:2,0:0:0:0:
196,283,153926,6,0,P|154:242|152:191,1,100.397999341261,12|2,0:0|1:2,0:0:0:0:
281,66,154271,1,10,0:0:0:0:
335,251,154443,1,0,1:2:0:0:
198,117,154616,5,8,0:0:0:0:
372,76,154788,1,0,1:2:0:0:
252,212,154961,5,10,0:0:0:0:
199,29,155133,1,2,1:2:0:0:
329,166,155306,6,0,L|449:156,1,100.397999341261,8|2,0:0|0:0,0:0:0:0:
281,66,155650,1,10,0:0:0:0:
238,233,155823,1,0,1:2:0:0:
180,45,155995,5,8,0:0:0:0:
222,249,156167,1,0,1:2:0:0:
87,107,156340,5,10,0:0:0:0:
205,264,156512,1,0,1:2:0:0:
300,80,156685,6,0,B|359:97|372:145|372:145|381:95|451:70,1,200.100003816605,14|0,1:2|1:2,0:0:0:0:
510,229,157202,2,0,B|439:216|439:216|390:243|390:243|315:228,1,200.100003816605,14|0,1:2|1:2,0:0:0:0:
177,147,157719,2,0,L|189:246,1,100.397999341261,14|0,1:2|1:2,0:0:0:0:
324,134,158064,2,0,L|260:144,1,50.1989996706303,10|0,0:0|0:0,0:0:0:0:
385,67,158409,2,0,L|408:6,1,50.1989996706303,14|0,1:2|0:0,0:0:0:0:
413,155,158754,1,2,1:2:0:0:
512,271,158926,2,0,P|459:256|397:289,1,100.050001908302,8|6,0:0|0:3,0:0:0:0:
347,384,159271,1,8,0:3:0:0:
270,256,159444,6,0,L|285:151,1,87,6|2,1:2|0:0,0:0:0:0:
169,284,159788,1,10,0:0:0:0:
136,139,159961,2,0,P|78:137|32:251,1,174,6|10,1:2|0:0,0:0:0:0:
152,302,160478,2,0,P|104:290|56:316,1,87,6|14,0:3|0:3,0:0:0:0:
207,384,160823,6,0,L|301:372,1,87,14|6,0:0|0:3,0:0:0:0:
412,290,161168,1,10,0:3:0:0:
272,213,161340,2,0,B|244:204|230:177|230:177|249:313,1,174,14|4,0:0|0:3,0:0:0:0:
385,375,161857,1,10,0:0:0:0:
385,375,161943,1,8,0:0:0:0:
385,375,162029,1,8,0:3:0:0:
364,213,162202,6,0,L|385:75,1,121.799996282959,6|2,1:2|0:0,0:0:0:0:
315,13,162719,1,2,1:2:0:0:
315,13,162892,2,0,B|249:-2|265:46|191:27,1,121.799996282959,10|2,0:0|0:0,0:0:0:0:
106,78,163409,1,2,1:2:0:0:
148,171,163581,5,2,0:0:0:0:
148,171,163754,2,0,P|96:180|60:234,1,121.799996282959,8|0,0:0|0:0,0:0:0:0:
90,333,164271,2,0,P|49:327|16:342,1,60.8999981414796,10|0,0:0|0:0,0:0:0:0:
178,316,164616,2,0,P|162:277|133:256,1,60.8999981414796,2|0,0:0|1:2,0:0:0:0:
256,356,164961,6,0,B|304:353|304:353|326:371|326:371|382:367,1,121.799996282959,2|0,1:2|0:0,0:0:0:0:
453,303,165478,1,2,1:2:0:0:
453,303,165650,2,0,P|427:238|376:231,1,121.799996282959,10|0,0:0|0:0,0:0:0:0:
285,270,166168,1,0,1:2:0:0:
304,171,166340,5,0,0:0:0:0:
304,171,166512,2,0,L|284:49,1,121.799996282959,8|0,0:0|0:0,0:0:0:0:
190,5,167030,2,0,L|183:68,1,60.8999981414796,8|0,0:0|0:0,0:0:0:0:
144,161,167375,2,0,P|119:137|79:134,1,60.8999981414796,2|0,0:0|1:2,0:0:0:0:
24,232,167719,6,0,B|56:216|85:233|85:233|95:266|126:282,1,121.799996282959,2|0,1:2|0:0,0:0:0:0:
218,240,168237,1,2,1:2:0:0:
218,240,168409,2,0,L|345:247,1,121.799996282959,10|0,0:0|0:0,0:0:0:0:
430,297,168926,1,2,1:2:0:0:
501,221,169099,5,2,1:2:0:0:
501,221,169271,2,0,B|481:183|481:183|504:101,1,121.799996282959,8|0,0:0|0:0,0:0:0:0:
456,13,169788,2,0,P|420:21|395:12,1,60.8999981414796,10|0,0:0|0:0,0:0:0:0:
307,63,170133,2,0,P|271:55|246:64,1,60.8999981414796,2|0,0:0|1:2,0:0:0:0:
215,170,170478,6,0,B|207:222|207:222|222:240|222:240|214:293,1,121.799996282959,2|0,1:2|0:0,0:0:0:0:
138,353,170995,1,2,1:2:0:0:
138,353,171168,2,0,P|72:352|50:299,1,121.799996282959,10|0,0:0|0:0,0:0:0:0:
91,212,171685,1,0,1:2:0:0:
10,147,171857,5,0,1:2:0:0:
10,147,172030,2,0,L|26:7,1,121.799996282959,8|0,0:0|1:2,0:0:0:0:
111,80,172547,1,8,0:0:0:0:
111,80,172719,1,4,0:3:0:0:
204,31,172892,1,10,0:3:0:0:
204,31,173064,1,2,0:0:0:0:
261,143,173237,6,0,B|321:140|321:140|346:166|346:166|421:163,1,147.900002820969,6|8,1:2|0:0,0:0:0:0:
501,92,173754,1,2,0:0:0:0:
507,217,173926,2,0,P|448:233|440:323,1,147.900002820969,2|10,1:2|0:0,0:0:0:0:
329,382,174443,1,2,0:0:0:0:
267,272,174616,6,0,L|342:264,1,73.9500014104843,2|0,1:2|0:0,0:0:0:0:
232,366,174961,2,0,L|157:358,1,73.9500014104843,8|0,0:0|0:0,0:0:0:0:
46,300,175306,1,2,1:2:0:0:
164,259,175478,1,2,1:2:0:0:
89,154,175650,2,0,P|75:195|90:230,1,73.9500014104843,10|2,0:0|0:0,0:0:0:0:
213,147,175995,6,0,B|276:144|276:144|302:163|302:163|364:160,1,147.900002820969,2|8,1:2|0:0,0:0:0:0:
456,86,176512,1,2,0:0:0:0:
345,25,176685,2,0,B|244:5|244:5|185:32,1,147.900002820969,2|10,1:2|0:0,0:0:0:0:
110,108,177202,1,2,0:0:0:0:
235,117,177375,6,0,P|203:144|199:185,1,73.9500014104843,2|0,1:2|1:2,0:0:0:0:
318,253,177719,2,0,P|310:211|277:187,1,73.9500014104843,8|0,0:0|0:0,0:0:0:0:
158,256,178064,2,0,P|197:270|234:253,1,73.9500014104843,0|0,1:2|1:2,0:0:0:0:
317,165,178409,1,10,0:0:0:0:
354,170,178495,1,8,0:0:0:0:
391,175,178581,1,8,0:0:0:0:
427,180,178667,1,8,0:0:0:0:
464,184,178754,6,0,B|481:249|481:249|463:288|463:288|480:359,1,174,6|8,1:2|0:0,0:0:0:0:
375,265,179271,1,2,0:0:0:0:
284,381,179443,2,0,P|284:336|249:290,1,87,10|0,0:0|1:2,0:0:0:0:
132,230,179788,1,8,0:0:0:0:
189,366,179961,1,2,1:2:0:0:
271,215,180133,6,0,B|241:166|241:166|285:39,1,174,10|10,0:0|0:0,0:0:0:0:
355,158,180650,1,2,0:0:0:0:
463,56,180823,2,0,L|452:145,1,87,10|2,0:0|1:2,0:0:0:0:
399,281,181168,1,10,0:0:0:0:
341,141,181340,1,2,1:2:0:0:
281,291,181512,6,0,P|238:303|192:285,1,87,14|0,0:0|0:0,0:0:0:0:
102,173,181857,1,0,1:2:0:0:
38,339,182030,2,0,P|81:351|127:333,1,87,14|2,0:0|0:0,0:0:0:0:
188,206,182375,1,0,1:2:0:0:
10,190,182547,2,0,L|20:286,1,87,12|2,0:0|0:0,0:0:0:0:
25,322,182806,1,0,0:0:0:0:
25,322,182892,5,2,1:2:0:0:
162,309,183064,2,0,L|171:222,1,87,8|8,0:0|0:0,0:0:0:0:
241,91,183409,1,0,1:2:0:0:
306,222,183581,1,8,0:0:0:0:
335,242,183667,1,0,0:0:0:0:
369,249,183753,1,4,0:3:0:0:
404,242,183839,1,4,0:3:0:0:
433,223,183926,2,0,B|458:161|458:161|424:88,1,130.5,8|8,0:3|0:3,0:0:0:0:
404,71,184271,6,0,L|313:82,1,87,6|0,1:2|0:0,0:0:0:0:
177,33,184616,2,0,L|232:106,1,87,8|0,0:0|0:0,0:0:0:0:
258,249,184961,2,0,L|293:164,1,87,0|0,1:2|1:2,0:0:0:0:
420,85,185306,1,10,0:0:0:0:
364,231,185478,1,2,1:2:0:0:
512,180,185650,6,0,P|461:167|416:186,1,87,2|2,0:0|1:2,0:0:0:0:
421,328,185995,2,0,P|457:290|463:241,1,87,10|2,0:0|1:2,0:0:0:0:
328,316,186340,2,0,L|143:292,1,174,2|10,0:0|0:0,0:0:0:0:
24,201,186857,6,0,B|90:189|90:189|130:211|130:211|198:198,1,174,2|0,0:0|0:0,0:0:0:0:
286,85,187375,1,10,0:0:0:0:
146,121,187547,1,2,0:0:0:0:
280,182,187719,2,0,P|330:182|361:159,1,87,2|2,1:2|1:2,0:0:0:0:
385,15,188064,1,10,0:0:0:0:
450,147,188237,1,2,1:2:0:0:
302,67,188409,6,0,L|200:57,1,87,2|2,0:0|1:2,0:0:0:0:
146,189,188754,1,10,0:0:0:0:
70,49,188926,2,0,B|41:36|27:5|27:5|41:133,1,174,2|0,1:2|1:2,0:0:0:0:
161,24,189443,1,8,0:0:0:0:
135,204,189616,6,0,B|237:171|205:253|318:212,1,174,2|0,1:2|0:0,0:0:0:0:
415,121,190133,2,0,L|424:187,2,58,10|2|2,0:0|0:0|0:0,0:0:0:0:
511,187,190478,2,0,L|502:253,2,58,2|2|2,1:2|0:0|0:0,0:0:0:0:
418,265,190823,2,0,L|427:331,2,58,10|2|2,0:0|0:0|0:0,0:0:0:0:
330,197,191168,5,2,1:2:0:0:
330,197,191283,2,0,P|289:193|263:207,1,58,2|2,0:0|0:0,0:0:0:0:
223,284,191512,1,10,0:0:0:0:
223,284,191627,2,0,P|182:288|156:274,1,58,2|2,0:0|0:0,0:0:0:0:
109,201,191857,2,0,L|102:154,2,43.5,2|2|2,1:2|0:0|1:2,0:0:0:0:
168,64,192202,1,10,0:0:0:0:
29,116,192375,1,0,1:2:0:0:
193,159,192547,6,0,B|251:129|251:129|388:161,1,174,2|10,1:2|0:0,0:0:0:0:
462,257,193064,2,0,L|450:169,1,87,2|0,0:0|1:2,0:0:0:0:
346,64,193409,1,2,1:2:0:0:
489,96,193581,1,10,0:0:0:0:
363,175,193754,6,0,B|314:184|300:231|300:231|254:259|201:224,1,174,2|10,1:2|0:0,0:0:0:0:
163,96,194271,1,2,0:0:0:0:
40,178,194443,2,0,L|61:380,1,174,2|2,1:2|1:2,0:0:0:0:
134,223,194961,1,2,1:2:0:0:
150,239,195306,5,10,0:0:0:0:
226,365,195478,2,0,P|271:377|334:348,1,87,10|0,0:0|1:2,0:0:0:0:
387,217,195823,2,0,P|328:202|273:297,1,174,14|6,0:0|0:3,0:0:0:0:
404,345,196340,1,8,0:3:0:0:
496,229,196512,6,0,L|482:54,1,174,14|0,0:0|1:2,0:0:0:0:
405,198,197030,1,8,0:0:0:0:
349,40,197202,2,0,B|263:17|282:90|173:59,1,174,0|0,0:0|1:2,0:0:0:0:
44,6,197719,1,8,0:0:0:0:
60,22,198064,5,10,0:0:0:0:
151,138,198237,2,0,L|140:241,1,87,10|0,0:0|1:2,0:0:0:0:
20,331,198581,2,0,B|88:328|88:328|123:355|123:355|195:352,1,174,14|10,0:0|0:0,0:0:0:0:
261,224,199099,1,0,1:2:0:0:
381,335,199271,6,0,B|400:349|407:378|407:378|434:343|433:296|393:248,1,174,14|0,0:0|1:2,0:0:0:0:
319,156,199788,1,8,0:0:0:0:
273,316,199961,1,8,0:0:0:0:
273,316,200047,1,8,0:0:0:0:
273,316,200133,2,0,L|181:306,1,87,8|4,0:0|0:3,0:0:0:0:
70,214,200478,1,8,0:3:0:0:
85,230,200823,5,10,0:0:0:0:
181,118,200995,2,0,P|212:149|214:202,1,87,10|0,0:0|1:2,0:0:0:0:
312,76,201340,2,0,B|433:54|433:54|515:94,1,174,14|6,0:0|0:3,0:0:0:0:
508,221,201857,1,8,0:3:0:0:
320,171,202030,6,0,P|380:165|406:268,1,174,14|0,0:0|1:2,0:0:0:0:
342,374,202547,1,8,0:0:0:0:
283,253,202719,1,8,0:0:0:0:
283,253,202806,1,8,0:0:0:0:
283,253,202892,2,0,L|173:246,1,87,8|4,0:0|0:3,0:0:0:0:
85,346,203237,1,8,0:3:0:0:
70,328,203581,6,0,B|81:266|81:266|64:221|64:221|78:149,1,174,6|8,1:2|0:0,0:0:0:0:
118,16,204099,1,0,0:0:0:0:
231,110,204271,2,0,L|121:99,1,87,0|0,1:2|1:2,0:0:0:0:
273,28,204616,1,8,0:0:0:0:
296,173,204788,1,2,0:0:0:0:
396,36,204961,6,0,P|357:62|350:111,1,87,2|0,1:2|0:0,0:0:0:0:
465,189,205306,2,0,P|461:142|423:111,1,87,8|0,0:0|0:0,0:0:0:0:
310,188,205650,1,0,1:2:0:0:
429,275,205823,1,0,1:2:0:0:
250,288,205995,2,0,L|342:275,1,87,8|0,0:0|0:0,0:0:0:0:
223,382,206340,6,0,P|180:365|156:324,1,87,14|0,0:0|0:0,0:0:0:0:
169,184,206685,1,0,1:2:0:0:
41,301,206857,2,0,P|84:284|108:243,1,87,14|0,0:0|0:0,0:0:0:0:
128,104,207202,1,0,1:2:0:0:
231,249,207375,6,0,L|349:235,1,87,14|0,0:0|0:0,0:0:0:0:
310,90,207720,1,0,1:2:0:0:
459,171,207892,2,0,L|341:157,1,87,14|0,0:0|0:0,0:0:0:0:
356,13,208237,1,0,1:2:0:0:
219,91,208409,5,10,0:0:0:0:
219,91,208581,1,2,1:2:0:0:
120,26,208754,1,10,0:3:0:0:
120,26,208926,1,2,0:0:0:0:
45,82,209099,5,2,0:0:0:0:
462,140,219443,6,0,B|391:162|391:162|304:133,1,143.550004380798
256,96,220133,6,0,P|166:63|105:220,1,287.100008761597,2|2,0:0|0:0,0:0:0:0:
215,316,221512,2,0,L|201:201,1,95.7000029205323,2|2,0:0|0:0,0:0:0:0:
316,103,222202,2,0,L|304:197,1,95.7000029205323,2|0,0:0|0:0,0:0:0:0:
412,320,222892,6,0,B|452:330|463:373|463:373|511:311|508:244|443:181,1,287.100008761597,2|0,0:0|0:0,0:0:0:0:
376,140,224099,1,0,0:0:0:0:
376,140,224271,2,0,L|273:153,1,95.7000029205323
173,273,224961,2,0,L|70:259,1,95.7000029205323,2|2,0:0|0:0,0:0:0:0:
49,100,225650,6,0,B|120:56|180:107|180:107|202:200|297:187,1,287.100008761597,0|2,0:0|0:0,0:0:0:0:
419,105,227030,2,0,B|376:89|354:42|354:42|377:253,1,287.100008761597,0|2,0:0|0:0,0:0:0:0:
270,359,228409,6,0,P|219:345|163:367,1,95.7000029205323,2|0,0:0|0:0,0:0:0:0:
112,308,228926,2,0,P|61:322|5:300,1,95.7000029205323,2|0,0:0|0:0,0:0:0:0:
64,236,229443,2,0,B|72:208|72:208|63:178,1,52.2,2|0,0:0|0:0,0:0:0:0:
53,142,229788,6,0,B|104:118|104:118|221:147,1,174,14|0,0:0|1:2,0:0:0:0:
335,239,230306,2,0,B|284:215|284:215|167:244,1,174,14|0,0:0|1:2,0:0:0:0:
297,325,230823,2,0,P|374:330|436:241,1,174,14|0,0:0|1:2,0:0:0:0:
508,133,231340,2,0,P|431:138|369:49,1,174,14|0,0:0|1:2,0:0:0:0:
223,137,231857,5,10,0:0:0:0:
282,0,232030,1,2,1:2:0:0:
318,157,232202,1,10,0:0:0:0:
203,48,232375,1,2,0:0:0:0:
351,60,232547,6,0,L|452:49,1,100.050001908302,4|0,1:2|0:0,0:0:0:0:
304,172,232892,2,0,L|203:161,1,100.050001908302,10|0,0:0|0:0,0:0:0:0:
364,264,233237,1,2,1:2:0:0:
334,76,233409,1,0,1:2:0:0:
460,218,233582,2,0,P|474:268|461:312,1,100.050001908302,10|0,0:0|0:0,0:0:0:0:
249,289,233926,6,0,L|352:281,1,100.397999341261,2|0,1:2|0:0,0:0:0:0:
204,168,234271,2,0,L|103:160,1,100.397999341261,10|0,0:0|0:0,0:0:0:0:
272,47,234616,2,0,P|366:54|396:153,1,200.100003816605,2|8,1:2|0:0,0:0:0:0:
267,270,235133,1,2,0:0:0:0:
160,87,235305,6,0,P|202:132|198:189,1,100.050001908302,2|0,1:2|0:0,0:0:0:0:
74,295,235650,2,0,B|54:226|54:226|80:176|80:176|59:96,1,200.100003816605,14|0,0:0|1:2,0:0:0:0:
188,4,236167,1,0,1:2:0:0:
165,172,236340,1,10,0:0:0:0:
272,40,236512,1,2,0:0:0:0:
255,208,236684,5,2,1:2:0:0:
144,85,236857,1,2,0:0:0:0:
341,102,237030,2,0,P|400:126|401:250,1,200.100003816605,10|2,0:0|1:2,0:0:0:0:
294,346,237547,1,2,1:2:0:0:
339,190,237719,1,10,0:0:0:0:
207,298,237892,6,0,L|103:284,1,100.050001908302,2|0,0:0|1:2,0:0:0:0:
9,157,238236,1,2,0:0:0:0:
197,126,238409,2,0,B|332:104|267:195|422:159,1,200.100003816605,10|0,0:0|1:2,0:0:0:0:
302,48,238926,1,0,1:2:0:0:
236,214,239098,1,10,0:0:0:0:
161,45,239271,6,0,L|58:56,1,100.050001908302,2|0,0:0|1:2,0:0:0:0:
146,207,239615,1,2,0:0:0:0:
287,64,239788,2,0,B|347:33|347:33|492:66,1,200.100003816605,10|0,0:0|1:2,0:0:0:0:
512,215,240305,1,0,1:2:0:0:
360,136,240478,2,0,B|329:202|329:202|358:274,1,150.596999011891,10|0,0:0|0:0,0:0:0:0:
376,318,240823,6,0,B|263:283|302:377|173:338,1,200.100003816605,14|2,0:0|1:2,0:0:0:0:
63,286,241340,2,0,L|52:165,1,100.397999341261,10|0,0:0|0:0,0:0:0:0:
184,101,241684,2,0,L|174:200,1,100.397999341261,10|0,0:0|1:2,0:0:0:0:
67,27,242030,6,0,B|120:2|120:2|283:30,1,200.100003816605,14|8,0:0|0:0,0:0:0:0:
381,164,242547,2,0,P|337:134|329:75,1,100.397999341261,8|0,1:2|1:2,0:0:0:0:
494,80,242891,1,10,0:0:0:0:
428,237,243064,1,6,0:3:0:0:
346,78,243236,1,10,0:3:0:0:
500,176,243409,1,10,0:0:0:0:
334,249,243581,6,0,P|286:263|230:237,1,100.050001908302,6|0,1:2|1:2,0:0:0:0:
207,58,243926,2,0,P|243:92|248:154,1,100.050001908302,10|0,0:0|0:0,0:0:0:0:
171,313,244271,1,2,1:2:0:0:
125,128,244443,1,0,1:2:0:0:
0,265,244616,2,0,L|100:254,1,100.397999341261,10|0,0:0|0:0,0:0:0:0:
287,303,244961,6,0,P|239:317|183:291,1,100.050001908302,2|0,1:2|0:0,0:0:0:0:
252,119,245306,2,0,P|266:167|240:223,1,100.050001908302,10|0,0:0|0:0,0:0:0:0:
43,81,245650,2,0,B|17:280,1,200.100003816605,2|8,1:2|0:0,0:0:0:0:
150,384,246167,1,2,0:0:0:0:
248,238,246340,6,0,P|313:226|357:254,1,100.050001908302,2|0,1:2|0:0,0:0:0:0:
464,348,246685,2,0,B|498:361|510:382|510:382|490:223,1,200.100003816605,8|0,0:0|1:2,0:0:0:0:
382,110,247202,1,0,1:2:0:0:
406,277,247374,1,10,0:0:0:0:
490,128,247547,1,2,0:0:0:0:
337,201,247719,6,0,L|235:189,1,100.050001908302,2|0,1:2|0:0,0:0:0:0:
136,46,248064,2,0,P|177:88|179:139,1,100.397999341261,8|0,0:0|0:0,0:0:0:0:
140,279,248409,1,2,1:2:0:0:
75,121,248581,1,2,1:2:0:0:
5,298,248753,2,0,L|24:184,1,100.050001908302,10|2,0:0|1:2,0:0:0:0:
185,136,249098,6,0,P|128:151|83:128,1,100.397999341261,12|2,0:0|1:2,0:0:0:0:
233,10,249443,1,10,0:0:0:0:
256,198,249615,1,0,1:2:0:0:
322,19,249788,5,8,0:0:0:0:
344,207,249960,1,2,1:2:0:0:
411,28,250133,5,10,0:0:0:0:
433,216,250305,1,2,1:2:0:0:
272,104,250478,6,0,L|158:117,1,100.050001908302,8|2,0:0|0:0,0:0:0:0:
261,282,250822,1,10,0:0:0:0:
358,118,250995,1,0,1:2:0:0:
190,206,251167,5,8,0:0:0:0:
361,286,251339,1,0,1:2:0:0:
258,125,251512,5,10,0:0:0:0:
178,297,251684,1,0,1:2:0:0:
69,142,251857,2,0,B|99:127|106:89|106:89|128:132|126:179|84:232,1,200.100003816605,14|8,1:2|0:0,0:0:0:0:
244,144,252375,2,0,L|359:155,1,100.050001908302,2|8,0:0|0:0,0:0:0:0:
455,280,252719,1,0,1:2:0:0:
292,331,252892,2,0,P|276:281|294:234,1,100.050001908302,10|0,0:0|1:2,0:0:0:0:
471,186,253237,6,0,B|503:139|503:139|468:-3,1,200.100003816605,14|8,0:0|0:0,0:0:0:0:
380,141,253754,1,0,0:0:0:0:
306,3,253926,2,0,L|201:16,1,100.050001908302,8|0,0:0|1:2,0:0:0:0:
136,142,254271,1,10,0:0:0:0:
84,3,254444,1,2,1:2:0:0:
241,100,254616,6,0,L|228:199,1,100.050001908302,12|2,1:2|0:0,0:0:0:0:
58,286,254960,1,10,0:0:0:0:
239,224,255133,1,0,0:0:0:0:
43,299,255305,5,8,0:0:0:0:
240,315,255478,1,0,1:2:0:0:
26,313,255650,5,10,0:0:0:0:
177,384,255823,1,2,1:2:0:0:
113,210,255995,6,0,L|128:108,1,100.050001908302,12|2,0:0|0:0,0:0:0:0:
304,41,256339,1,10,0:0:0:0:
216,210,256512,1,0,0:0:0:0:
184,23,256684,5,8,0:0:0:0:
320,156,256857,1,0,1:2:0:0:
131,121,257029,5,10,0:0:0:0:
290,23,257202,1,0,1:2:0:0:
301,244,257375,6,0,B|360:261|373:309|373:309|382:259|452:234,1,200.100003816605,14|0,0:0|1:2,0:0:0:0:
275,337,257892,2,0,B|170:303|186:387|68:355,1,200.100003816605,14|0,0:0|1:2,0:0:0:0:
15,194,258409,2,0,L|27:293,1,100.397999341261,10|0,0:0|1:2,0:0:0:0:
156,192,258754,2,0,L|91:182,1,50.1989996706303,10|0,0:0|0:0,0:0:0:0:
233,145,259099,2,0,L|272:93,1,50.1989996706303,14|0,1:2|0:0,0:0:0:0:
234,238,259444,1,2,1:2:0:0:
330,162,259616,2,0,P|369:198|370:273,1,100.397999341261,8|6,0:0|0:3,0:0:0:0:
458,343,259961,1,8,0:3:0:0:
281,342,260134,6,0,L|367:329,1,87,6|2,1:2|0:0,0:0:0:0:
462,216,260478,1,10,0:0:0:0:
314,176,260651,2,0,P|238:196|211:287,1,174,6|10,1:2|0:0,0:0:0:0:
173,135,261168,1,6,0:3:0:0:
114,271,261341,1,10,0:3:0:0:
0,168,261513,6,0,L|94:180,1,87,6|10,1:2|0:0,0:0:0:0:
209,279,261858,1,10,0:0:0:0:
263,118,262030,2,0,B|331:113|331:113|364:141|364:141|448:135,1,174,6|8,1:2|0:0,0:0:0:0:
497,249,262547,1,6,0:3:0:0:
482,277,262633,1,6,0:3:0:0:
456,297,262719,1,10,0:3:0:0:
425,305,262806,1,10,0:3:0:0:
394,300,262892,6,0,B|347:274|347:274|215:298,1,174,6|10,1:2|0:0,0:0:0:0:
107,381,263409,2,0,L|114:294,1,87,2|0,0:0|1:2,0:0:0:0:
6,192,263754,2,0,L|13:278,1,87,2|8,1:2|0:0,0:0:0:0:
127,144,264099,6,0,B|221:175|199:93|301:122,1,174,2|0,0:0|0:0,0:0:0:0:
426,180,264616,1,10,0:0:0:0:
419,31,264789,2,0,P|389:61|379:103,1,87,2|0,0:0|1:2,0:0:0:0:
512,207,265133,2,0,P|482:176|440:166,1,87,2|8,1:2|0:0,0:0:0:0:
366,294,265478,1,2,0:0:0:0:
300,138,265651,6,0,B|118:152,1,174,2|8,1:2|0:0,0:0:0:0:
4,235,266168,2,0,B|65:241|65:241|95:284|95:284|173:293,1,174,2|2,1:2|1:2,0:0:0:0:
289,217,266685,1,10,0:0:0:0:
358,371,266857,6,0,P|292:375|245:278,1,174,2|0,1:2|1:2,0:0:0:0:
377,190,267375,2,0,B|406:142|406:142|376:17,1,174,10|2,0:0|1:2,0:0:0:0:
291,126,267892,1,2,1:2:0:0:
197,12,268064,1,10,0:0:0:0:
154,20,268150,1,2,0:0:0:0:
122,48,268236,1,2,0:0:0:0:
108,89,268322,1,2,0:0:0:0:
116,131,268409,6,0,L|207:122,1,87,14|2,0:0|0:0,0:0:0:0:
303,230,268753,1,2,1:2:0:0:
161,302,268926,2,0,P|149:260|161:219,1,87,14|2,0:0|0:0,0:0:0:0:
304,143,269271,1,2,1:2:0:0:
338,323,269443,6,0,L|236:313,1,87,14|2,0:0|1:2,0:0:0:0:
386,192,269788,1,2,1:2:0:0:
424,365,269960,2,0,L|526:355,1,87,14|6,0:0|0:3,0:0:0:0:
403,212,270305,1,10,0:3:0:0:
271,384,270477,6,0,P|248:348|255:281,1,87,14|2,0:0|0:0,0:0:0:0:
275,160,270822,1,2,1:2:0:0:
149,285,270995,2,0,P|172:249|165:182,1,87,14|2,0:0|0:0,0:0:0:0:
152,58,271340,1,2,1:2:0:0:
292,145,271512,6,0,L|386:137,1,87,14|10,0:0|0:3,0:0:0:0:
262,48,271857,1,2,1:2:0:0:
222,204,272029,2,0,L|128:196,1,87,14|6,0:0|0:3,0:0:0:0:
171,40,272374,1,2,1:2:0:0:
46,131,272546,6,0,P|32:179|52:224,2,87,14|2|2,0:0|0:0|1:2,0:0:0:0:
205,224,273064,2,0,P|170:187|121:182,2,87,14|2|2,0:0|0:0|1:2,0:0:0:0:
122,369,273581,2,0,P|108:321|128:276,2,87,14|2|2,0:0|0:2|1:2,0:0:0:0:
289,285,274099,2,0,P|254:321|205:326,2,87,14|2|2,0:0|0:0|1:2,0:0:0:0:
417,378,274615,6,0,L|401:233,1,121.799996282959,14|0,0:0|1:2,0:0:0:0:
476,182,275132,2,0,B|511:62|511:62|466:3,1,182.699994424439,8|0,0:0|0:0,0:0:0:0:
400,86,275821,6,0,P|342:107|272:76,1,121.799996282959,8|4,0:0|0:3,0:0:0:0:
220,15,276339,1,0,1:2:0:0:
220,15,276511,1,8,0:0:0:0:
232,28,276856,5,10,1:2:0:0:
178,197,277028,1,10,1:2:0:0:
58,65,277201,1,10,1:2:0:0:
