osu file format v14

[General]
AudioFilename: audio.mp3
AudioLeadIn: 0
PreviewTime: 63372
Countdown: 0
SampleSet: Soft
StackLeniency: 0.7
Mode: 2
LetterboxInBreaks: 0
WidescreenStoryboard: 1

[Editor]
DistanceSpacing: 1.6
BeatDivisor: 4
GridSize: 32
TimelineZoom: 2.3

[Metadata]
Title:Shine!!
TitleUnicode:Shine!!
Artist:CINDERELLA PROJECT
ArtistUnicode:CINDERELLA PROJECT
Creator:JeirYagtama
Version:MASTER
Source:アイドルマスター シンデレラガールズ
Tags:
BeatmapID:1628616
BeatmapSetID:774943

[Difficulty]
HPDrainRate:6
CircleSize:4.1
OverallDifficulty:9
ApproachRate:9
SliderMultiplier:1.9
SliderTickRate:2

[Events]
//Background and Video events
0,0,"BG.jpg",0,0
//Break Periods
//Storyboard Layer 0 (Background)
//Storyboard Layer 1 (Fail)
//Storyboard Layer 2 (Pass)
//Storyboard Layer 3 (Foreground)
//Storyboard Sound Samples

[TimingPoints]
97,344.827586206897,4,2,0,80,1,0
11131,-100,4,2,2,80,0,0
13028,-100,4,2,1,80,0,0
13890,-100,4,2,1,80,0,0
14924,-100,4,2,1,80,0,0
25614,344.827586206897,4,2,0,80,1,0
25614,-100,4,3,1,80,0,0
33889,-100,4,2,1,80,0,0
36648,-100,4,2,1,80,0,0
47682,-100,4,2,3,80,0,0
53200,-100,4,2,1,80,0,0
53889,-100,4,2,3,80,0,0
54234,-100,4,2,1,80,0,0
55096,-100,4,2,3,80,0,0
55614,-100,4,2,1,80,0,0
55958,-100,4,2,3,80,0,0
57682,-100,4,2,1,80,0,0
58027,-100,4,2,3,80,0,0
58372,-100,4,2,1,80,0,0
58545,-100,4,2,3,80,0,0
60441,-100,4,2,1,80,0,0
64234,-100,4,2,1,80,0,1
86303,-100,4,2,1,80,0,0

[Colours]
Combo1 : 45,232,222
Combo2 : 187,44,23
Combo3 : 230,66,139
Combo4 : 223,214,98

[HitObjects]
260,177,787,6,0,L|122:176,2,95
364,176,1304,1,0,0:0:0:0:
96,256,1477,2,0,P|34:212|124:154,1,190,2|2,0:0|0:0,0:0:0:0:
199,139,1993,1,0,0:0:0:0:
336,130,2165,2,0,L|123:133,1,190,2|2,0:0|0:0,0:0:0:0:
40,134,2683,1,0,0:0:0:0:
190,204,2855,6,0,P|259:148|183:89,1,190,2|2,0:0|0:0,0:0:0:0:
91,90,3372,1,2,0:0:0:0:
236,182,3545,2,0,P|223:94|55:82,1,285,2|2,0:0|0:0,0:0:0:0:
316,295,4234,6,0,P|369:262|247:148,1,285,2|0,0:0|0:0,0:0:0:0:
390,126,4924,2,0,L|522:124,1,95,2|0,0:0|0:0,0:0:0:0:
364,95,5269,2,0,L|458:93,1,95,2|0,0:0|0:0,0:0:0:0:
207,262,5614,6,0,P|120:211|244:127,1,285,2|0,0:0|0:0,0:0:0:0:
375,95,6303,2,0,L|268:94,2,95,2|2|2,0:0|0:0|0:0,0:0:0:0:
490,95,6821,1,2,0:0:0:0:
245,157,6993,6,0,L|127:157,1,95,2|0,0:0|0:0,0:0:0:0:
302,246,7338,2,0,P|378:225|272:119,1,285,2|2,0:0|0:0,0:0:0:0:
449,91,8028,2,0,L|354:91,1,95,2|0,0:0|0:0,0:0:0:0:
112,90,8372,6,0,L|206:89,1,95,2|0,0:0|0:0,0:0:0:0:
353,194,8717,2,0,P|367:141|259:80,1,190,2|2,0:0|0:0,0:0:0:0:
383,78,9234,1,2,0:0:0:0:
269,76,9407,2,0,L|174:79,1,95,2|2,0:0|0:0,0:0:0:0:
420,238,9752,6,0,P|474:196|373:158,1,190,2|0,0:0|0:0,0:0:0:0:
258,133,10269,2,0,L|470:129,1,190,2|2,0:0|0:0,0:0:0:0:
337,100,10786,1,2,0:0:0:0:
451,91,10959,1,2,0:0:0:0:
195,119,11131,5,2,0:0:0:0:
256,192,11303,12,0,12510,0:0:0:0:
256,198,13028,5,2,0:0:0:0:
142,202,13200,2,2,L|268:202,2,95
27,204,13717,1,2,0:0:0:0:
284,193,13890,6,0,L|189:195,2,95,12|0|0,0:0|0:0|0:0,0:0:0:0:
132,225,14407,2,0,P|64:193|133:136,1,190,12|0,0:0|0:0,0:0:0:0:
278,131,14924,2,0,L|372:132,1,95,10|0,0:0|0:0,0:0:0:0:
124,151,15269,6,0,L|218:148,2,95,12|0|0,0:0|0:0|0:0,0:0:0:0:
270,217,15786,2,0,P|338:185|269:128,1,190,12|0,0:0|0:0,0:0:0:0:
129,122,16303,2,2,L|56:120,1,47.5
276,125,16476,2,2,L|349:123,1,47.5
115,211,16648,6,0,P|48:149|124:82,1,190,4|8,0:0|0:0,0:0:0:0:
246,83,17165,2,0,L|124:84,1,95
299,81,17510,2,0,L|421:82,1,95,0|8,0:0|0:0,0:0:0:0:
149,223,17855,6,0,P|91:165|187:112,1,190
267,99,18372,1,8,0:0:0:0:
120,87,18545,2,0,L|8:83,1,95
175,71,18890,2,0,L|287:67,1,95,0|8,0:0|0:0,0:0:0:0:
120,72,19234,1,0,0:0:0:0:
268,129,19407,6,0,L|45:127,1,190,4|8,0:0|0:0,0:0:0:0:
329,101,19924,2,0,L|195:94,1,95
85,75,20269,2,0,L|201:75,1,95,0|8,0:0|0:0,0:0:0:0:
436,212,20614,6,0,P|489:184|401:116,1,190
307,90,21131,2,0,L|427:92,1,95,8|0,0:0|0:0,0:0:0:0:
255,77,21476,2,0,L|114:81,1,95
406,207,21821,5,2,0:0:0:0:
463,184,21907,1,2,0:0:0:0:
462,122,21993,1,2,0:0:0:0:
404,100,22079,1,2,0:0:0:0:
249,101,22165,6,0,L|127:99,2,95,8|0|0,0:0|0:0|0:0,0:0:0:0:
492,101,22683,2,0,L|397:102,2,95,8|0|0,0:0|0:0|0:0,0:0:0:0:
247,136,23200,1,8,0:0:0:0:
351,132,23372,1,0,0:0:0:0:
455,127,23545,1,0,0:0:0:0:
210,112,23717,6,0,L|330:114,2,95,8|0|0,0:0|0:0|0:0,0:0:0:0:
450,106,24234,1,12,0:0:0:0:
256,192,24407,12,0,25269,0:0:0:0:
234,173,25614,5,8,0:0:0:0:
115,170,25786,2,0,L|213:171,2,95,0|8|0,0:0|0:0|0:0,0:0:0:0:
274,174,26303,1,8,0:0:0:0:
125,174,26476,2,0,L|30:174,1,95,0|8,0:0|0:0,0:0:0:0:
186,264,26820,6,0,P|246:214|157:144,1,190
66,132,27338,2,0,L|176:132,1,95,8|0,0:0|0:0,0:0:0:0:
307,106,27682,2,0,L|206:104,1,95,8|0,0:0|0:0,0:0:0:0:
363,104,28027,2,0,L|464:102,1,95,8|0,0:0|0:0,0:0:0:0:
201,138,28372,6,0,L|295:138,2,95,8|0|8,0:0|0:0|0:0,0:0:0:0:
351,106,28889,2,0,L|445:106,1,95,0|8,0:0|0:0,0:0:0:0:
297,95,29234,2,0,L|203:96,1,95,0|8,0:0|0:0,0:0:0:0:
450,64,29579,6,8,L|355:64,1,95,0|8,0:0|0:0,0:0:0:0:
96,46,29924,2,0,L|191:46,2,95,0|8|0,0:0|0:0|0:0,0:0:0:0:
341,68,30441,2,0,L|453:68,1,95,8|0,0:0|0:0,0:0:0:0:
283,47,30786,2,0,L|395:47,1,95,8|0,0:0|0:0,0:0:0:0:
315,43,31045,1,8,0:0:0:0:
152,92,31131,5,8,0:0:0:0:
275,90,31303,2,0,L|164:92,2,95,0|8|0,0:0|0:0|0:0,0:0:0:0:
125,132,31820,2,0,L|257:129,1,95,8|0,0:0|0:0,0:0:0:0:
334,128,32165,1,8,0:0:0:0:
90,222,32338,6,0,P|34:160|121:105,1,190
212,97,32855,2,0,L|81:102,1,95,8|0,0:0|0:0,0:0:0:0:
267,55,33200,2,0,L|399:54,1,95,8|0,0:0|0:0,0:0:0:0:
108,198,33545,2,0,L|103:64,1,95,8|0,0:0|0:0,0:0:0:0:
166,101,33803,1,8,0:0:0:0:
336,208,33889,6,0,P|390:169|319:93,1,190,4|8,0:0|0:0,0:0:0:0:
174,93,34407,1,0,0:0:0:0:
287,88,34579,2,0,L|165:89,1,95
343,201,34924,1,8,0:0:0:0:
400,179,35010,1,0,0:0:0:0:
400,117,35096,1,0,0:0:0:0:
341,97,35182,1,0,0:0:0:0:
192,88,35269,6,0,L|305:79,2,95,4|2|2,0:0|0:0|0:0,0:0:0:0:
440,116,35786,2,0,L|246:116,1,190,2|2,0:0|0:0,0:0:0:0:
497,181,36303,2,0,L|498:65,1,95,2|0,0:0|0:0,0:0:0:0:
253,116,36648,5,4,0:0:0:0:
375,127,36820,2,0,L|242:121,2,95,0|8|0,0:0|0:0|0:0,0:0:0:0:
224,121,37338,2,0,L|318:112,1,95
431,102,37682,1,8,0:0:0:0:
188,182,37855,6,0,L|387:169,1,190
227,148,38372,2,0,L|353:138,1,95,8|0,0:0|0:0,0:0:0:0:
188,132,38717,2,0,L|289:49,1,95
126,127,39062,2,0,L|126:12,1,95,8|0,0:0|0:0,0:0:0:0:
373,143,39407,6,0,L|182:143,1,190,0|8,0:0|0:0,0:0:0:0:
332,98,39924,2,0,L|204:101,1,95
390,70,40269,2,0,L|484:67,1,95,0|8,0:0|0:0,0:0:0:0:
234,163,40614,6,0,L|234:68,1,95
381,125,40959,2,0,L|308:64,1,95,0|8,0:0|0:0,0:0:0:0:
439,49,41303,1,0,0:0:0:0:
378,43,41389,1,0,0:0:0:0:
316,43,41476,5,0,0:0:0:0:
192,43,41648,1,0,0:0:0:0:
344,49,41820,2,0,L|461:49,1,95,8|0,0:0|0:0,0:0:0:0:
195,122,42165,6,0,L|290:122,2,95,4|0|8,0:0|0:0|0:0,0:0:0:0:
344,188,42682,2,0,P|403:148|320:80,1,190
199,81,43200,2,0,L|104:80,1,95,8|0,0:0|0:0,0:0:0:0:
348,70,43545,6,0,L|253:72,2,95,0|0|8,0:0|0:0|0:0,0:0:0:0:
462,68,44062,2,0,L|530:62,1,47.5
338,136,44234,2,0,L|218:130,1,95
395,154,44579,2,0,L|398:45,1,95,8|0,0:0|0:0,0:0:0:0:
126,145,44924,6,0,L|233:145,1,95,4|0,0:0|0:0,0:0:0:0:
335,147,45269,1,0,0:0:0:0:
183,154,45441,2,0,L|69:153,1,95,4|0,0:0|0:0,0:0:0:0:
354,128,45786,2,0,L|159:123,1,190
409,111,46303,6,0,L|314:106,2,95,4|0|0,0:0|0:0|0:0,0:0:0:0:
512,118,46820,1,0,0:0:0:0:
252,130,46993,2,0,L|157:130,1,95,4|0,0:0|0:0,0:0:0:0:
406,122,47338,2,0,L|500:122,1,95
244,259,47682,6,0,P|158:221|275:120,1,285,4|8,0:0|0:0,0:0:0:0:
360,103,48372,1,8,0:0:0:0:
211,105,48545,2,0,L|116:106,2,95,0|2|0,0:0|0:0|0:0,0:0:0:0:
455,154,49062,6,0,P|437:84|314:101,1,190,8|0,0:0|0:0,0:0:0:0:
228,87,49579,2,0,L|453:75,1,190,8|8,0:0|0:0,0:0:0:0:
271,51,50096,2,0,L|387:47,1,95,2|0,0:0|0:0,0:0:0:0:
122,152,50441,6,0,P|140:82|263:99,1,190,8|0,0:0|0:0,0:0:0:0:
129,71,50958,1,8,0:0:0:0:
277,87,51131,1,8,0:0:0:0:
164,85,51303,2,0,L|278:96,2,95,0|2|0,0:0|0:0|0:0,0:0:0:0:
411,200,51820,6,0,P|471:137|394:85,1,190,8|8,0:0|0:0,0:0:0:0:
303,86,52338,2,0,L|509:77,1,190,8|8,0:0|0:0,0:0:0:0:
378,70,52855,1,2,0:0:0:0:
491,68,53027,1,8,0:0:0:0:
231,98,53200,6,0,L|432:95,1,190,4|8,0:0|0:0,0:0:0:0:
307,82,53717,1,0,0:0:0:0:
64,102,53889,2,0,L|192:102,1,95,8|0,0:0|0:0,0:0:0:0:
9,69,54234,2,0,L|137:69,1,95,8|0,0:0|0:0,0:0:0:0:
348,104,54579,6,0,L|147:101,1,190,4|8,0:0|0:0,0:0:0:0:
43,100,55096,1,8,0:0:0:0:
311,173,55269,2,0,L|310:65,1,95,8|8,0:0|0:0,0:0:0:0:
162,80,55614,1,8,0:0:0:0:
310,78,55786,1,0,0:0:0:0:
67,80,55958,6,0,L|203:80,2,95,4|8|8,0:0|0:0|0:0,0:0:0:0:
314,118,56476,2,0,L|106:117,1,190,4|8,0:0|0:0,0:0:0:0:
238,112,56993,1,8,0:0:0:0:
483,196,57165,6,0,P|478:138|356:95,1,190,4|8,0:0|0:0,0:0:0:0:
219,82,57682,2,0,L|351:81,1,95,8|0,0:0|0:0,0:0:0:0:
162,169,58027,2,0,L|164:43,1,95,8|8,0:0|0:0,0:0:0:0:
307,73,58372,1,8,0:0:0:0:
163,74,58545,1,8,0:0:0:0:
428,89,58717,6,0,L|307:88,2,95,4|8|8,0:0|0:0|0:0,0:0:0:0:
178,120,59234,2,0,L|401:119,1,190,4|8,0:0|0:0,0:0:0:0:
225,103,59751,1,8,0:0:0:0:
479,242,59924,6,0,P|484:188|353:172,1,190,4|8,0:0|0:0,0:0:0:0:
230,154,60441,2,8,L|348:150,1,95,8|0,0:0|0:0,0:0:0:0:
439,143,60786,1,0,0:0:0:0:
184,147,60958,2,8,L|279:147,2,95,0|8|0,0:0|0:0|0:0,0:0:0:0:
435,131,61476,6,0,L|316:132,1,95,8|0,0:0|0:0,0:0:0:0:
196,135,61820,2,0,L|77:136,1,95,8|0,0:0|0:0,0:0:0:0:
351,101,62165,2,0,L|256:100,1,95,8|0,0:0|0:0,0:0:0:0:
503,164,62510,2,0,L|505:50,1,95,8|0,0:0|0:0,0:0:0:0:
257,88,62855,5,8,0:0:0:0:
399,84,63027,1,8,0:0:0:0:
132,87,63200,1,8,0:0:0:0:
370,118,63545,6,0,L|493:116,1,95
318,85,63889,2,0,L|441:83,1,95
126,96,64234,6,0,L|255:97,1,95,4|0,0:0|0:0,0:0:0:0:
357,83,64579,2,0,L|246:84,1,95,8|0,0:0|0:0,0:0:0:0:
105,177,64924,2,0,L|103:49,1,95
247,70,65269,2,0,L|136:71,1,95,8|0,0:0|0:0,0:0:0:0:
401,75,65614,6,0,L|514:73,1,95
341,57,65958,2,0,L|454:55,1,95,8|0,0:0|0:0,0:0:0:0:
176,109,66303,2,0,L|295:107,2,95,0|0|8,0:0|0:0|0:0,0:0:0:0:
52,112,66820,1,0,0:0:0:0:
297,169,66993,6,0,L|425:169,1,95
121,120,67338,2,0,L|245:122,1,95,8|0,0:0|0:0,0:0:0:0:
363,107,67682,2,0,L|254:105,1,95
421,81,68027,2,0,L|315:80,1,95,8|0,0:0|0:0,0:0:0:0:
87,111,68372,6,0,L|218:110,2,95,0|0|8,0:0|0:0|0:0,0:0:0:0:
210,108,68889,1,0,0:0:0:0:
456,95,69062,2,0,L|358:95,2,95,0|0|8,0:0|0:0|0:0,0:0:0:0:
307,168,69579,2,0,B|535:164,1,190,2|2,0:0|0:0,0:0:0:0:
141,117,70096,6,0,L|279:115,1,95,4|0,0:0|0:0,0:0:0:0:
386,84,70441,2,0,L|263:86,2,95,0|0|8,0:0|0:0|0:0,0:0:0:0:
500,87,70958,1,0,0:0:0:0:
206,141,71131,6,0,L|107:135,1,95,4|0,0:0|0:0,0:0:0:0:
383,151,71476,2,0,L|382:42,1,95,8|0,0:0|0:0,0:0:0:0:
230,69,71820,2,0,L|326:70,1,95
481,74,72165,2,0,L|364:72,1,95,8|0,0:0|0:0,0:0:0:0:
118,146,72510,6,0,L|224:146,2,95,4|0|8,0:0|0:0|0:0,0:0:0:0:
362,121,73027,2,0,L|253:118,1,95,8|0,0:0|0:0,0:0:0:0:
418,102,73372,2,0,L|527:99,1,95,8|0,0:0|0:0,0:0:0:0:
243,135,73717,2,0,L|439:129,1,190,12|2,0:0|0:0,0:0:0:0:
276,94,74234,1,10,0:0:0:0:
426,96,74407,1,2,0:0:0:0:
180,148,74579,6,0,L|82:142,1,95,2|0,0:0|0:0,0:0:0:0:
329,109,74924,2,0,L|234:114,1,95,10|0,0:0|0:0,0:0:0:0:
485,95,75269,6,0,L|356:96,1,95,4|0,0:0|0:0,0:0:0:0:
254,82,75614,2,0,L|365:83,1,95,8|0,0:0|0:0,0:0:0:0:
506,176,75959,2,0,L|508:48,1,95
364,69,76304,2,0,L|475:70,1,95,8|0,0:0|0:0,0:0:0:0:
209,72,76649,6,0,L|322:70,1,95
157,57,76993,2,0,L|62:58,1,95,8|0,0:0|0:0,0:0:0:0:
332,49,77338,2,0,L|213:47,2,95,0|0|8,0:0|0:0|0:0,0:0:0:0:
446,52,77855,1,0,0:0:0:0:
200,91,78027,6,0,L|77:97,1,95
358,81,78372,2,0,L|230:81,1,95,8|0,0:0|0:0,0:0:0:0:
110,71,78717,2,0,L|-14:73,1,95
264,106,79061,2,0,L|373:104,1,95,8|0,0:0|0:0,0:0:0:0:
110,71,79406,6,0,L|216:70,2,95,0|0|8,0:0|0:0|0:0,0:0:0:0:
14,74,79924,1,0,0:0:0:0:
266,106,80096,1,0,0:0:0:0:
151,103,80269,1,0,0:0:0:0:
37,96,80441,1,8,0:0:0:0:
151,103,80614,1,0,0:0:0:0:
419,116,80786,6,0,L|324:113,1,95,8|0,0:0|0:0,0:0:0:0:
175,171,81131,2,2,L|172:64,1,95,8|0,0:0|0:0,0:0:0:0:
440,78,81476,2,0,L|345:78,1,95,8|0,0:0|0:0,0:0:0:0:
193,74,81820,2,0,L|98:74,1,95,8|0,0:0|0:0,0:0:0:0:
367,81,82165,6,0,L|480:80,1,95,8|0,0:0|0:0,0:0:0:0:
309,77,82510,2,0,L|308:171,1,95,8|0,0:0|0:0,0:0:0:0:
41,169,82855,2,0,L|151:165,1,95,8|0,0:0|0:0,0:0:0:0:
401,162,83200,2,0,L|537:164,1,95,8|0,0:0|0:0,0:0:0:0:
220,160,83545,6,0,L|337:159,2,95,4|0|0,0:0|0:0|0:0,0:0:0:0:
468,145,84062,2,0,L|351:144,2,95,4|0|0,0:0|0:0|0:0,0:0:0:0:
320,111,84579,2,0,L|423:108,1,95,4|0,0:0|0:0,0:0:0:0:
146,94,84924,6,0,L|271:87,1,95,4|0,0:0|0:0,0:0:0:0:
393,84,85269,2,0,L|487:78,1,95
222,83,85614,2,0,L|127:83,1,95,4|0,0:0|0:0,0:0:0:0:
278,69,85958,2,0,L|183:69,1,95,4|0,0:0|0:0,0:0:0:0:
456,54,86303,6,0,L|330:54,2,95,8|0|0,0:0|0:0|0:0,0:0:0:0:
199,138,86820,2,0,L|400:137,1,190,8|0,0:0|0:0,0:0:0:0:
140,269,87338,2,0,P|23:194|184:97,1,380,8|0,0:0|0:0,0:0:0:0:
409,89,88200,1,8,0:0:0:0:
257,85,88372,1,8,0:0:0:0:
500,85,88545,1,8,0:0:0:0:
