osu file format v14

[General]
AudioFilename: shine!!!.mp3
AudioLeadIn: 0
PreviewTime: 63958
Countdown: 0
SampleSet: Soft
StackLeniency: 0.7
Mode: 0
LetterboxInBreaks: 0
WidescreenStoryboard: 0

[Editor]
Bookmarks: 48096,53613,63268
DistanceSpacing: 1
BeatDivisor: 4
GridSize: 4
TimelineZoom: 1.9

[Metadata]
Title:Shine!!
TitleUnicode:Shine!!
Artist:CINDERELLA PROJECT
ArtistUnicode:CINDERELLA PROJECT
Creator:Feb
Version:Normal
Source:アイドルマスター シンデレラガールズ 2ndシーズン
Tags:THE IDOLM@STER GIRLS 2nd SEASON synpoo taku opening theme tv size moe train
BeatmapID:773587
BeatmapSetID:347954

[Difficulty]
HPDrainRate:4
CircleSize:3.3
OverallDifficulty:3
ApproachRate:5
SliderMultiplier:1.3
SliderTickRate:1

[Events]
//Background and Video events
0,0,"stilltomoeforme.jpg",0,0
//Break Periods
//Storyboard Layer 0 (Background)
//Storyboard Layer 1 (Fail)
//Storyboard Layer 2 (Pass)
//Storyboard Layer 3 (Foreground)
//Storyboard Sound Samples

[TimingPoints]
510,344.827586206897,4,2,2,100,1,0
1199,-133.333333333333,4,2,2,40,0,0
13441,-100,4,2,2,60,0,0
26285,-117.647058823529,4,2,2,60,0,0
34906,-133.333333333333,4,2,2,60,0,0
42578,-100,4,2,2,69,0,0
48096,-133.333333333333,4,2,2,60,0,0
53613,-100,4,2,2,60,0,0
63958,-100,4,2,2,60,0,0
64647,-90.9090909090909,4,2,2,70,0,1
87751,-90.9090909090909,4,2,2,25,0,1
88613,-90.9090909090909,4,2,2,60,0,0

[Colours]
Combo1 : 255,119,119
Combo2 : 255,255,170
Combo3 : 94,255,255
Combo4 : 0,128,255
Combo5 : 255,91,255
Combo6 : 255,176,98

[HitObjects]
128,100,1199,5,2,0:0:0:0:
222,124,1544,1,0,0:0:0:0:
301,67,1889,6,0,P|319:105|302:178,1,97.50000371933,2|0,0:0|0:0,0:0:0:0:
235,217,2578,2,0,L|128:225,1,97.50000371933
157,320,3268,2,0,L|265:313,1,97.50000371933,2|0,0:0|0:0,0:0:0:0:
341,270,3958,2,0,L|345:155,1,97.50000371933
347,75,4647,6,0,B|257:73|257:73|160:121|160:121|57:117,1,292.50001115799,2|0,0:0|0:0,0:0:0:0:
108,205,6027,2,0,L|215:210,1,97.50000371933,2|0,0:0|0:0,0:0:0:0:
298,179,6716,6,0,P|302:223|240:304,2,146.250005578995,0|0|2,0:0|0:0|0:0,0:0:0:0:
233,105,8096,2,0,P|278:82|336:87,2,97.50000371933,0|0|2,0:0|0:0|0:0,0:0:0:0:
135,113,9130,2,0,P|181:190|290:187,1,195.00000743866
347,127,10165,6,0,P|370:167|348:256,2,121.875004649162,2|0|2,0:0|0:0|0:0,0:0:0:0:
263,76,11372,1,2,0:0:0:0:
256,192,11544,12,0,13613,0:0:0:0:
161,42,14303,6,0,B|176:79|176:79|259:41|328:111,1,195,10|0,0:0|0:0,0:0:0:0:
397,206,15165,2,0,P|357:237|279:239,1,130,0|0,0:0|0:0,0:0:0:0:
247,182,15682,2,0,L|246:331,1,130,4|8,0:0|0:0,0:0:0:0:
245,377,16199,1,0,0:0:0:0:
444,204,17061,6,0,P|385:233|311:221,1,130,4|0,0:0|0:0,0:0:0:0:
280,176,17578,2,0,P|210:169|152:211,1,130,2|0,0:0|0:0,0:0:0:0:
107,317,18268,2,0,B|191:364|191:364|285:312,1,195,0|8,0:0|0:0,0:0:0:0:
294,255,18958,2,0,L|306:178,1,65
320,127,19303,2,0,L|407:138,2,65,0|8|0,0:0|0:0|0:0,0:0:0:0:
257,107,19820,6,0,P|201:140|127:119,1,130,6|8,0:0|0:0,0:0:0:0:
99,77,20337,2,0,L|111:153,1,65
120,205,20682,2,0,L|137:286,1,65,0|8,0:0|0:0,0:0:0:0:
154,330,21027,2,0,B|221:312|221:312|294:323,1,130
344,335,21544,2,0,L|343:205,2,130,8|0|10,0:0|0:0|0:0,0:0:0:0:
343,205,22578,6,0,P|402:186|472:204,1,130,6|8,0:0|0:0,0:0:0:0:
466,134,23096,2,0,P|404:118|328:143,1,130
339,69,23613,2,0,P|409:52|482:76,1,130,8|2,0:0|0:0,0:0:0:0:
509,112,24130,2,0,L|508:26,2,65
505,177,24647,6,0,P|311:310|122:129,1,520,6|6,0:0|0:0,0:0:0:0:
120,36,26372,5,8,0:0:0:0:
217,89,26716,2,0,P|267:109|327:87,1,110.50000210762,0|8,0:0|0:0,0:0:0:0:
423,51,27406,2,0,L|417:168,1,110.50000210762,0|8,0:0|0:0,0:0:0:0:
405,271,28096,2,0,L|299:234,1,110.50000210762,2|8,0:0|0:0,0:0:0:0:
194,202,28785,6,0,L|196:331,2,110.50000210762,2|8|2,0:0|0:0|0:0,0:0:0:0:
192,91,29820,1,8,0:0:0:0:
276,19,30165,1,0,0:0:0:0:
373,70,30510,2,0,B|446:158|290:244|403:347,1,276.250005269051,8|8,0:0|0:0,0:0:0:0:
431,362,31544,2,0,L|316:360,1,110.50000210762,0|8,0:0|0:0,0:0:0:0:
209,365,32234,6,0,P|198:317|227:247,1,110.50000210762,2|8,0:0|0:0,0:0:0:0:
249,154,32923,2,0,L|119:158,2,110.50000210762,0|8|2,0:0|0:0|0:0,0:0:0:0:
359,151,33958,1,8,0:0:0:0:
333,258,34303,2,0,L|504:252|504:252,2,165.75000316143,4|0|8,0:0|0:0|0:0,0:0:0:0:
260,322,35682,6,0,P|239:274|248:216,1,97.50000371933,2|8,0:0|0:0,0:0:0:0:
234,181,36199,2,0,B|144:153|144:153|46:219,1,195.00000743866,4|0,0:0|0:0,0:0:0:0:
31,248,37061,6,0,L|32:142,1,97.50000371933,4|8,0:0|0:0,0:0:0:0:
57,56,37751,2,0,P|111:70|170:50,1,97.50000371933,2|8,0:0|0:0,0:0:0:0:
193,37,38268,2,0,P|245:25|304:44,1,97.50000371933,0|0,0:0|0:0,0:0:0:0:
317,73,38785,2,0,B|327:121|327:121|311:178,2,97.50000371933,8|2|8,0:0|0:0|0:0,0:0:0:0:
409,40,39820,6,0,L|515:56|515:56,1,97.50000371933,6|8,0:0|0:0,0:0:0:0:
507,103,40337,2,0,L|499:217,1,97.50000371933,0|0,0:0|0:0,0:0:0:0:
402,199,41027,2,0,P|359:221|288:219,1,97.50000371933,0|0,0:0|0:0,0:0:0:0:
228,170,41716,2,0,P|210:217|234:276,1,97.50000371933,0|0,0:0|0:0,0:0:0:0:
258,293,42234,2,0,L|325:311,1,48.750001859665,12|0,0:0|0:0,0:0:0:0:
369,313,42578,6,0,B|432:297|432:297|504:311,1,130,6|8,0:0|0:0,0:0:0:0:
412,209,43268,2,0,B|343:227|343:227|270:203,1,130,2|8,0:0|0:0,0:0:0:0:
172,145,43958,2,0,P|157:207|177:268,1,130,4|8,0:0|0:0,0:0:0:0:
289,338,44647,2,0,L|287:201,1,130,2|8,0:0|0:0,0:0:0:0:
380,117,45337,6,0,L|378:254,1,130,4|8,0:0|0:0,0:0:0:0:
377,312,45854,2,0,B|322:319|322:319|296:308|296:308|228:315,1,130,0|0,0:0|0:0,0:0:0:0:
184,129,46716,2,0,B|212:129|212:129|217:178|217:178|250:183|250:183|276:195|276:195|298:180|298:180|329:174|329:174|334:136|334:136|370:135|370:135,1,260,4|0,0:0|0:0,0:0:0:0:
342,297,48096,6,0,L|232:320,1,97.50000371933,4|8,0:0|0:0,0:0:0:0:
181,244,48785,2,0,L|294:221,1,97.50000371933,2|8,0:0|0:0,0:0:0:0:
212,150,49475,2,0,L|320:127,1,97.50000371933,4|8,0:0|0:0,0:0:0:0:
342,96,49992,2,0,L|350:254,1,146.250005578995,0|8,0:0|0:0,0:0:0:0:
408,319,50854,6,0,P|337:338|266:296,1,146.250005578995,4|0,0:0|0:0,0:0:0:0:
245,267,51544,2,0,L|235:371,1,97.50000371933,2|8,0:0|0:0,0:0:0:0:
141,338,52234,2,0,B|140:266|140:266|109:233,1,97.50000371933,4|8,0:0|0:0,0:0:0:0:
52,180,52923,2,0,P|120:153|195:172,1,146.250005578995,0|0,0:0|0:0,0:0:0:0:
251,188,53613,6,0,P|321:192|373:155,1,130,4|8,0:0|0:0,0:0:0:0:
461,68,54303,2,0,L|449:204,1,130,2|8,0:0|0:0,0:0:0:0:
364,295,54992,2,0,P|295:307|229:275,2,130,4|8|6,0:0|0:0|0:0,0:0:0:0:
449,197,56027,1,8,0:0:0:0:
393,79,56372,6,0,P|340:58|263:78,1,130,4|8,0:0|0:0,0:0:0:0:
232,126,56889,2,0,B|183:121|171:56|171:56|131:99|80:86,1,195,4|8,0:0|0:0,0:0:0:0:
59,28,57578,2,0,L|62:168,1,130
73,222,58096,2,0,B|133:211|133:211|207:249,1,130,12|2,0:0|0:0,0:0:0:0:
316,288,58785,1,8,0:0:0:0:
328,158,59130,6,0,B|392:146|392:146|465:188,1,130,4|8,0:0|0:0,0:0:0:0:
480,234,59647,2,0,B|484:180|430:151|430:151|473:123|477:58,1,195,0|8,0:0|0:0,0:0:0:0:
490,11,60337,2,0,L|358:20,1,130,4|0,0:0|0:0,0:0:0:0:
295,29,60854,2,0,L|295:178,2,130,8|2|8,0:0|0:0|0:0,0:0:0:0:
165,40,61889,5,2,0:0:0:0:
185,168,62234,1,8,0:0:0:0:
63,123,62578,1,4,0:0:0:0:
90,250,62923,1,8,0:0:0:0:
208,304,63268,2,0,L|222:381,2,65,14|0|12,0:0|0:0|0:0,0:0:0:0:
360,42,64647,6,0,P|397:109|377:192,1,143.000004364014,6|8,0:0|0:0,0:0:0:0:
250,213,65337,2,0,P|206:157|209:72,1,143.000004364014,2|8,0:0|0:0,0:0:0:0:
69,36,66027,2,0,L|71:185,1,143.000004364014,4|8,0:0|0:0,0:0:0:0:
213,194,66716,2,0,P|327:189|386:294,1,214.500006546021,2|0,0:0|0:0,0:0:0:0:
366,331,67406,2,0,L|519:287,2,143.000004364014,0|10|0,0:0|0:0|0:0,0:0:0:0:
222,340,68441,2,0,P|148:338|96:293,2,143.000004364014,8|0|8,0:0|0:0|0:0,0:0:0:0:
301,221,69475,6,0,P|364:217|420:284,1,143.000004364014,2|8,0:0|0:0,0:0:0:0:
419,342,69992,2,0,L|445:190,1,143.000004364014,0|0,0:0|0:0,0:0:0:0:
462,131,70510,2,0,B|384:146|384:146|318:103,1,143.000004364014,12|2,0:0|0:0,0:0:0:0:
201,50,71199,2,0,B|168:26|168:26|167:143,1,143.000004364014,8|0,0:0|0:0,0:0:0:0:
169,271,71889,2,0,B|166:314|166:314|277:243,1,143.000004364014,12|2,0:0|0:0,0:0:0:0:
377,195,72578,6,0,P|449:187|522:219,2,143.000004364014,12|6|12,0:0|0:0|0:0,0:0:0:0:
341,257,73441,2,0,L|346:108,1,143.000004364014,0|0,0:0|0:0,0:0:0:0:
464,32,74130,2,0,B|395:59|319:-25|239:37,1,214.500006546021,0|8,0:0|0:0,0:0:0:0:
164,135,74992,5,6,0:0:0:0:
61,35,75337,1,8,0:0:0:0:
24,173,75682,2,0,B|41:274|41:274|94:260,1,143.000004364014,6|8,0:0|0:0,0:0:0:0:
213,209,76372,2,0,B|277:235|277:235|314:302,1,143.000004364014,2|8,0:0|0:0,0:0:0:0:
445,245,77061,2,0,B|402:180|402:180|426:85,1,143.000004364014,6|8,0:0|0:0,0:0:0:0:
290,50,77751,6,0,B|239:44|239:44|154:70|154:70|74:53,1,214.500006546021,2|0,0:0|0:0,0:0:0:0:
10,45,78441,2,0,B|2:116|2:116|32:185,1,143.000004364014,6|8,0:0|0:0,0:0:0:0:
172,181,79130,2,0,B|210:176|210:176|192:303,1,143.000004364014,2|8,0:0|0:0,0:0:0:0:
90,378,79820,2,0,B|64:387|64:387|52:272,1,143.000004364014,2|8,0:0|0:0,0:0:0:0:
109,146,80510,6,0,L|181:185,1,71.5000021820069,2|0,0:0|0:0,0:0:0:0:
239,202,80854,1,8,0:0:0:0:
239,202,81027,2,0,P|298:179|328:97,1,143.000004364014
381,60,81544,2,0,P|450:59|499:109,1,143.000004364014,8|2,0:0|0:0,0:0:0:0:
392,204,82234,2,0,L|416:352,2,143.000004364014,12|6|8,0:0|0:0|0:0,0:0:0:0:
361,65,83268,2,0,B|262:80|262:80|271:130,1,143.000004364014,2|12,0:0|0:0,0:0:0:0:
291,259,83958,6,0,P|248:284|180:219,1,143.000004364014,6|8,0:0|0:0,0:0:0:0:
170,163,84475,2,0,P|99:147|43:205,1,143.000004364014,2|0,0:0|0:0,0:0:0:0:
8,247,84992,2,0,L|12:155,1,71.5000021820069,12|0,0:0|0:0,0:0:0:0:
19,104,85337,2,0,P|67:75|166:74,1,143.000004364014,2|8,0:0|0:0,0:0:0:0:
288,25,86027,6,0,P|276:85|322:164,1,143.000004364014,6|8,0:0|0:0,0:0:0:0:
454,144,86716,2,0,P|465:75|430:9,1,143.000004364014,6|8,0:0|0:0,0:0:0:0:
362,25,87234,2,0,B|300:52|300:52|211:20,1,143.000004364014,0|0,0:0|0:0,0:0:0:0:
157,22,87751,6,0,B|248:144|92:184|180:300,1,286.000008728028,12|8,0:0|0:0,0:0:0:0:
244,312,88613,2,0,P|281:319|330:303,2,71.5000021820069,12|8|8,0:0|0:0|0:0,0:0:0:0:
