osu file format v14

[General]
AudioFilename: audio.mp3
AudioLeadIn: 0
PreviewTime: 61307
Countdown: 0
SampleSet: Normal
StackLeniency: 0.7
Mode: 1
LetterboxInBreaks: 0
WidescreenStoryboard: 0

[Editor]
DistanceSpacing: 2
BeatDivisor: 4
GridSize: 32
TimelineZoom: 2.3

[Metadata]
Title:Shine!! (DJ Ramakun FUNKOT REMIX)
TitleUnicode:Shine!! (DJ Ramakun FUNKOT REMIX)
Artist:CINDERELLA PROJECT
ArtistUnicode:CINDERELLA PROJECT
Creator:Nishizumi
Version:Oni!!
Source:アイドルマスター シンデレラガールズ
Tags:THE iDOLM@STER CINDERELLA GIRLS im@s idolmaster 2nd opening Starlight Stage 滝澤俊輔 Shunsuke Takizawa TRYTONELABO 森由里子 Yuriko Mori funky kota tv size ayomikasa
BeatmapID:1162939
BeatmapSetID:549167

[Difficulty]
HPDrainRate:5.5
CircleSize:5
OverallDifficulty:5.5
ApproachRate:5
SliderMultiplier:1.4
SliderTickRate:1

[Events]
//Background and Video events
0,0,"what is this.jpg",0,-10
//Break Periods
//Storyboard Layer 0 (Background)
//Storyboard Layer 1 (Fail)
//Storyboard Layer 2 (Pass)
//Storyboard Layer 3 (Foreground)
//Storyboard Sound Samples

[TimingPoints]
1350,333.333333333333,4,1,0,90,1,0
24016,333.333333333333,4,1,0,90,1,8
24683,333.333333333333,4,1,0,90,1,0
62016,-100,4,1,0,90,0,1
86016,-100,4,1,0,90,0,0
107349,-100,4,1,0,70,0,0

[HitObjects]
256,192,1350,5,0,0:0:0:0:
256,192,1849,1,0,0:0:0:0:
256,192,2349,1,0,0:0:0:0:
256,192,2683,1,0,0:0:0:0:
256,192,3183,1,0,0:0:0:0:
256,192,3683,1,0,0:0:0:0:
256,192,4016,1,0,0:0:0:0:
256,192,4516,1,0,0:0:0:0:
256,192,5016,1,0,0:0:0:0:
256,192,5349,1,0,0:0:0:0:
256,192,5849,1,0,0:0:0:0:
256,192,6349,1,0,0:0:0:0:
256,192,6683,1,0,0:0:0:0:
256,192,7183,1,0,0:0:0:0:
256,192,7683,1,0,0:0:0:0:
256,192,8016,1,0,0:0:0:0:
256,192,8516,1,0,0:0:0:0:
256,192,9016,1,0,0:0:0:0:
256,192,9349,1,0,0:0:0:0:
256,192,9849,1,0,0:0:0:0:
256,192,10349,1,0,0:0:0:0:
256,192,10683,1,0,0:0:0:0:
256,192,11183,1,0,0:0:0:0:
256,192,11683,1,0,0:0:0:0:
256,192,12016,1,0,0:0:0:0:
256,192,13349,1,4,0:0:0:0:
256,192,13849,1,4,0:0:0:0:
256,192,14183,1,8,0:0:0:0:
256,192,14266,1,8,0:0:0:0:
256,192,14349,1,8,0:0:0:0:
256,192,14683,1,4,0:0:0:0:
256,192,15183,1,4,0:0:0:0:
256,192,15516,1,8,0:0:0:0:
256,192,15599,1,8,0:0:0:0:
256,192,15683,1,8,0:0:0:0:
256,192,16016,1,4,0:0:0:0:
256,192,16183,1,8,0:0:0:0:
256,192,16266,1,8,0:0:0:0:
256,192,16349,1,8,0:0:0:0:
256,192,16516,1,0,0:0:0:0:
256,192,16849,1,0,0:0:0:0:
256,192,17016,1,8,0:0:0:0:
256,192,17183,1,8,0:0:0:0:
256,192,17349,1,0,0:0:0:0:
256,192,17516,1,8,0:0:0:0:
256,192,17599,1,0,0:0:0:0:
256,192,17683,1,8,0:0:0:0:
256,192,17849,1,0,0:0:0:0:
256,192,18183,1,0,0:0:0:0:
256,192,18349,1,8,0:0:0:0:
256,192,18516,1,8,0:0:0:0:
256,192,18683,1,0,0:0:0:0:
256,192,18849,1,0,0:0:0:0:
256,192,18933,1,0,0:0:0:0:
256,192,19016,1,8,0:0:0:0:
256,192,19183,1,0,0:0:0:0:
256,192,19516,1,0,0:0:0:0:
256,192,19683,1,8,0:0:0:0:
256,192,19849,1,8,0:0:0:0:
256,192,20016,1,0,0:0:0:0:
256,192,20183,1,8,0:0:0:0:
256,192,20266,1,0,0:0:0:0:
256,192,20349,1,8,0:0:0:0:
256,192,20516,1,0,0:0:0:0:
256,192,20849,1,0,0:0:0:0:
256,192,21016,1,8,0:0:0:0:
256,192,21183,1,8,0:0:0:0:
256,192,21349,1,0,0:0:0:0:
256,192,21683,1,8,0:0:0:0:
256,192,21849,1,0,0:0:0:0:
256,192,22183,1,0,0:0:0:0:
256,192,22349,1,0,0:0:0:0:
256,192,22516,1,8,0:0:0:0:
256,192,22683,1,0,0:0:0:0:
256,192,23016,1,8,0:0:0:0:
256,192,23183,1,0,0:0:0:0:
256,192,23516,1,0,0:0:0:0:
256,192,23683,1,8,0:0:0:0:
256,192,23849,1,8,0:0:0:0:
256,192,24016,1,0,0:0:0:0:
256,192,24349,1,0,0:0:0:0:
256,192,24682,1,4,0:0:0:0:
256,192,24849,1,8,0:0:0:0:
256,192,24933,1,8,0:0:0:0:
256,192,25016,1,8,0:0:0:0:
256,192,25183,1,0,0:0:0:0:
256,192,25349,1,8,0:0:0:0:
256,192,25516,1,8,0:0:0:0:
256,192,25683,1,0,0:0:0:0:
256,192,25849,1,8,0:0:0:0:
256,192,26016,1,0,0:0:0:0:
256,192,26183,1,0,0:0:0:0:
256,192,26266,1,0,0:0:0:0:
256,192,26349,1,8,0:0:0:0:
256,192,26516,1,0,0:0:0:0:
256,192,26849,1,0,0:0:0:0:
256,192,27016,1,8,0:0:0:0:
256,192,27182,1,8,0:0:0:0:
256,192,27349,1,0,0:0:0:0:
256,192,27516,1,8,0:0:0:0:
256,192,27599,1,0,0:0:0:0:
256,192,27682,1,8,0:0:0:0:
256,192,27849,1,0,0:0:0:0:
256,192,28016,1,8,0:0:0:0:
256,192,28182,1,8,0:0:0:0:
256,192,28349,1,0,0:0:0:0:
256,192,28516,1,8,0:0:0:0:
256,192,28682,1,0,0:0:0:0:
256,192,28849,1,0,0:0:0:0:
256,192,28932,1,0,0:0:0:0:
256,192,29016,1,8,0:0:0:0:
256,192,29182,1,0,0:0:0:0:
256,192,29516,1,0,0:0:0:0:
256,192,29682,1,8,0:0:0:0:
256,192,29849,1,8,0:0:0:0:
256,192,30016,1,0,0:0:0:0:
256,192,30182,1,8,0:0:0:0:
256,192,30266,1,8,0:0:0:0:
256,192,30349,1,8,0:0:0:0:
256,192,30516,1,0,0:0:0:0:
256,192,30682,1,8,0:0:0:0:
256,192,30849,1,0,0:0:0:0:
256,192,31016,1,8,0:0:0:0:
256,192,31182,1,8,0:0:0:0:
256,192,31349,1,0,0:0:0:0:
256,192,31516,1,0,0:0:0:0:
256,192,31599,1,0,0:0:0:0:
256,192,31682,1,8,0:0:0:0:
256,192,31849,1,0,0:0:0:0:
256,192,32182,1,0,0:0:0:0:
256,192,32349,1,8,0:0:0:0:
256,96,32516,1,8,0:0:0:0:
256,192,32682,1,0,0:0:0:0:
256,192,32849,1,0,0:0:0:0:
256,192,32932,1,0,0:0:0:0:
256,192,33016,1,8,0:0:0:0:
256,192,33182,1,0,0:0:0:0:
256,192,33516,1,0,0:0:0:0:
256,192,33682,1,8,0:0:0:0:
256,192,33849,1,8,0:0:0:0:
256,192,34016,1,0,0:0:0:0:
256,192,34099,1,0,0:0:0:0:
256,192,34182,1,0,0:0:0:0:
256,192,34266,1,0,0:0:0:0:
256,192,34349,1,8,0:0:0:0:
256,192,34516,1,0,0:0:0:0:
256,192,34682,1,8,0:0:0:0:
256,192,34766,1,8,0:0:0:0:
256,192,34849,1,8,0:0:0:0:
256,192,34932,1,8,0:0:0:0:
256,192,35016,1,0,0:0:0:0:
256,192,35182,1,8,0:0:0:0:
256,192,35349,1,4,0:0:0:0:
256,192,35682,1,0,0:0:0:0:
256,192,35849,1,0,0:0:0:0:
256,192,36016,1,8,0:0:0:0:
256,192,36182,1,0,0:0:0:0:
256,192,36266,1,0,0:0:0:0:
256,192,36349,1,0,0:0:0:0:
256,192,36516,1,8,0:0:0:0:
256,192,36682,1,0,0:0:0:0:
256,192,36849,1,8,0:0:0:0:
256,192,36932,1,8,0:0:0:0:
256,192,37016,1,8,0:0:0:0:
256,192,37182,1,0,0:0:0:0:
256,192,37516,1,0,0:0:0:0:
256,192,37682,1,8,0:0:0:0:
256,192,37849,1,8,0:0:0:0:
256,192,38016,1,0,0:0:0:0:
256,192,38182,1,0,0:0:0:0:
256,192,38266,1,0,0:0:0:0:
256,192,38349,1,8,0:0:0:0:
256,192,38516,1,0,0:0:0:0:
256,192,38682,1,8,0:0:0:0:
256,192,38849,1,0,0:0:0:0:
256,192,39016,1,8,0:0:0:0:
256,192,39182,1,8,0:0:0:0:
256,192,39349,1,0,0:0:0:0:
256,192,39516,1,8,0:0:0:0:
256,192,39599,1,0,0:0:0:0:
256,192,39682,1,8,0:0:0:0:
256,192,39849,1,0,0:0:0:0:
256,192,40182,1,0,0:0:0:0:
256,192,40349,1,8,0:0:0:0:
256,192,40516,1,8,0:0:0:0:
256,192,40682,1,0,0:0:0:0:
256,192,40849,1,0,0:0:0:0:
256,192,40932,1,0,0:0:0:0:
256,192,41016,1,8,0:0:0:0:
256,192,41182,1,0,0:0:0:0:
256,192,41349,1,8,0:0:0:0:
256,192,41516,1,8,0:0:0:0:
256,192,41682,1,0,0:0:0:0:
256,192,41849,1,8,0:0:0:0:
256,192,42016,1,0,0:0:0:0:
256,192,42182,1,8,0:0:0:0:
256,192,42266,1,0,0:0:0:0:
256,192,42349,1,8,0:0:0:0:
256,192,42516,1,0,0:0:0:0:
256,192,42849,1,0,0:0:0:0:
256,192,43016,1,8,0:0:0:0:
256,192,43182,1,8,0:0:0:0:
256,192,43349,1,0,0:0:0:0:
256,192,43516,1,0,0:0:0:0:
256,192,43599,1,0,0:0:0:0:
256,192,43682,1,8,0:0:0:0:
256,192,43849,1,0,0:0:0:0:
256,192,44016,1,8,0:0:0:0:
256,192,44182,1,0,0:0:0:0:
256,192,44349,1,8,0:0:0:0:
256,192,44516,1,8,0:0:0:0:
256,192,44682,1,0,0:0:0:0:
256,192,44849,1,8,0:0:0:0:
256,192,44932,1,8,0:0:0:0:
256,192,45016,1,8,0:0:0:0:
256,192,45182,1,0,0:0:0:0:
256,192,45349,1,8,0:0:0:0:
256,192,45432,1,8,0:0:0:0:
256,192,45516,1,0,0:0:0:0:
256,192,45682,1,8,0:0:0:0:
256,192,45849,1,8,0:0:0:0:
256,192,46016,1,4,0:0:0:0:
256,192,46349,1,8,0:0:0:0:
256,192,46516,1,0,0:0:0:0:
256,192,46682,1,8,0:0:0:0:
256,192,46849,1,0,0:0:0:0:
256,192,46932,1,0,0:0:0:0:
256,192,47016,1,0,0:0:0:0:
256,192,47182,1,8,0:0:0:0:
256,192,47349,1,0,0:0:0:0:
256,192,47516,1,8,0:0:0:0:
256,192,47599,1,8,0:0:0:0:
256,192,47682,1,8,0:0:0:0:
256,192,47849,1,0,0:0:0:0:
256,192,48182,1,0,0:0:0:0:
256,192,48349,1,8,0:0:0:0:
256,192,48516,1,8,0:0:0:0:
256,192,48682,1,0,0:0:0:0:
256,192,48849,1,0,0:0:0:0:
256,192,48932,1,0,0:0:0:0:
256,192,49016,1,8,0:0:0:0:
256,192,49182,1,0,0:0:0:0:
256,192,49516,1,0,0:0:0:0:
256,192,49682,1,8,0:0:0:0:
256,192,49849,1,8,0:0:0:0:
256,192,50016,1,0,0:0:0:0:
256,192,50182,1,0,0:0:0:0:
256,192,50266,1,0,0:0:0:0:
256,192,50349,1,8,0:0:0:0:
256,192,50516,1,0,0:0:0:0:
256,192,50682,1,8,0:0:0:0:
256,192,50849,1,0,0:0:0:0:
256,192,50932,1,0,0:0:0:0:
256,192,51016,1,0,0:0:0:0:
256,192,51182,1,8,0:0:0:0:
256,192,51349,1,0,0:0:0:0:
256,192,51516,1,0,0:0:0:0:
256,192,51599,1,0,0:0:0:0:
256,192,51682,1,8,0:0:0:0:
256,192,51849,1,0,0:0:0:0:
256,192,52182,1,0,0:0:0:0:
256,192,52349,1,8,0:0:0:0:
256,192,52516,1,8,0:0:0:0:
256,192,52682,1,0,0:0:0:0:
256,192,52849,1,0,0:0:0:0:
256,192,52932,1,0,0:0:0:0:
256,192,53016,1,8,0:0:0:0:
256,192,53182,1,0,0:0:0:0:
256,192,53349,1,8,0:0:0:0:
256,192,53516,1,8,0:0:0:0:
256,192,53599,1,8,0:0:0:0:
256,192,53682,1,0,0:0:0:0:
256,192,54016,1,12,0:0:0:0:
256,192,54349,1,8,0:0:0:0:
256,192,54516,1,0,0:0:0:0:
256,192,54682,1,12,0:0:0:0:
256,192,55016,1,8,0:0:0:0:
256,192,55182,1,0,0:0:0:0:
256,192,55349,1,12,0:0:0:0:
256,192,55516,1,0,0:0:0:0:
256,192,55599,1,0,0:0:0:0:
256,192,55682,1,0,0:0:0:0:
256,192,55849,1,0,0:0:0:0:
256,192,56016,1,8,0:0:0:0:
256,192,56182,1,8,0:0:0:0:
256,192,56349,1,0,0:0:0:0:
224,192,56516,1,0,0:0:0:0:
256,192,56682,1,12,0:0:0:0:
256,192,57016,1,8,0:0:0:0:
256,192,57182,1,0,0:0:0:0:
256,192,57349,1,12,0:0:0:0:
256,192,57516,1,0,0:0:0:0:
256,192,57682,1,0,0:0:0:0:
256,192,58016,1,12,0:0:0:0:
256,192,58182,1,0,0:0:0:0:
256,192,58349,1,8,0:0:0:0:
256,192,58516,1,0,0:0:0:0:
256,192,58682,1,8,0:0:0:0:
256,192,58766,1,8,0:0:0:0:
256,192,58849,1,0,0:0:0:0:
256,192,59016,1,8,0:0:0:0:
256,192,59182,1,0,0:0:0:0:
128,128,59349,2,4,L|224:128,7,70
256,192,60682,1,12,0:0:0:0:
256,192,60849,1,12,0:0:0:0:
256,192,61016,1,12,0:0:0:0:
256,192,61682,1,0,0:0:0:0:
256,192,62016,1,4,0:0:0:0:
256,192,62266,1,0,0:0:0:0:
256,192,62349,1,8,0:0:0:0:
256,192,62516,1,0,0:0:0:0:
256,192,62682,1,8,0:0:0:0:
256,192,62766,1,8,0:0:0:0:
256,192,62849,1,8,0:0:0:0:
256,192,63016,1,0,0:0:0:0:
256,192,63182,1,0,0:0:0:0:
256,192,63349,1,8,0:0:0:0:
256,192,63516,1,0,0:0:0:0:
256,192,63599,1,0,0:0:0:0:
256,192,63682,1,8,0:0:0:0:
256,192,63849,1,0,0:0:0:0:
256,192,64182,1,0,0:0:0:0:
256,192,64349,1,8,0:0:0:0:
256,192,64516,1,8,0:0:0:0:
256,192,64682,1,0,0:0:0:0:
256,192,64849,1,0,0:0:0:0:
256,192,64932,1,0,0:0:0:0:
256,192,65016,1,8,0:0:0:0:
256,192,65182,1,0,0:0:0:0:
256,192,65349,1,8,0:0:0:0:
256,192,65516,1,0,0:0:0:0:
256,192,65682,1,0,0:0:0:0:
256,192,65849,1,0,0:0:0:0:
256,192,66016,1,8,0:0:0:0:
256,192,66182,1,8,0:0:0:0:
256,192,66266,1,0,0:0:0:0:
256,192,66349,1,8,0:0:0:0:
256,192,66516,1,0,0:0:0:0:
256,192,66849,1,0,0:0:0:0:
256,192,67016,1,8,0:0:0:0:
256,192,67182,1,8,0:0:0:0:
256,192,67349,1,0,0:0:0:0:
256,192,67516,1,0,0:0:0:0:
256,192,67599,1,0,0:0:0:0:
256,192,67682,1,8,0:0:0:0:
256,192,67849,1,0,0:0:0:0:
256,192,68016,1,8,0:0:0:0:
256,192,68182,1,8,0:0:0:0:
256,192,68349,1,0,0:0:0:0:
256,192,68516,1,0,0:0:0:0:
256,192,68682,1,8,0:0:0:0:
256,192,68849,1,0,0:0:0:0:
256,192,68932,1,0,0:0:0:0:
256,192,69016,1,8,0:0:0:0:
256,192,69182,1,0,0:0:0:0:
256,192,69516,1,0,0:0:0:0:
256,192,69682,1,8,0:0:0:0:
256,192,69849,1,8,0:0:0:0:
256,192,70016,1,0,0:0:0:0:
256,192,70182,1,0,0:0:0:0:
256,192,70266,1,0,0:0:0:0:
256,192,70349,1,8,0:0:0:0:
256,192,70516,1,0,0:0:0:0:
256,192,70682,1,8,0:0:0:0:
256,192,70849,1,0,0:0:0:0:
256,192,70932,1,0,0:0:0:0:
256,192,71016,1,0,0:0:0:0:
256,192,71182,1,8,0:0:0:0:
256,192,71349,1,0,0:0:0:0:
256,192,71432,1,0,0:0:0:0:
256,192,71516,1,0,0:0:0:0:
256,192,71599,1,0,0:0:0:0:
256,192,71682,1,8,0:0:0:0:
256,192,71849,1,0,0:0:0:0:
256,192,72016,1,8,0:0:0:0:
256,192,72099,1,8,0:0:0:0:
256,192,72182,1,8,0:0:0:0:
256,192,72266,1,8,0:0:0:0:
256,192,72349,1,0,0:0:0:0:
256,192,72516,1,8,0:0:0:0:
256,192,72682,1,4,0:0:0:0:
256,192,72932,1,0,0:0:0:0:
256,192,73016,1,8,0:0:0:0:
256,192,73182,1,0,0:0:0:0:
256,192,73349,1,8,0:0:0:0:
256,192,73432,1,8,0:0:0:0:
256,192,73516,1,8,0:0:0:0:
256,192,73682,1,0,0:0:0:0:
256,192,73849,1,0,0:0:0:0:
256,192,74016,1,8,0:0:0:0:
256,192,74182,1,0,0:0:0:0:
256,192,74266,1,0,0:0:0:0:
256,192,74349,1,8,0:0:0:0:
256,192,74516,1,0,0:0:0:0:
256,192,74849,1,0,0:0:0:0:
256,192,75016,1,8,0:0:0:0:
256,192,75182,1,8,0:0:0:0:
256,192,75349,1,0,0:0:0:0:
256,192,75516,1,0,0:0:0:0:
256,192,75599,1,0,0:0:0:0:
256,192,75682,1,8,0:0:0:0:
256,192,75849,1,0,0:0:0:0:
256,192,76016,1,8,0:0:0:0:
256,192,76182,1,0,0:0:0:0:
256,192,76266,1,0,0:0:0:0:
256,192,76349,1,0,0:0:0:0:
256,192,76516,1,0,0:0:0:0:
256,192,76682,1,8,0:0:0:0:
256,192,76849,1,8,0:0:0:0:
256,192,76932,1,0,0:0:0:0:
256,192,77016,1,8,0:0:0:0:
256,192,77182,1,0,0:0:0:0:
256,192,77516,1,0,0:0:0:0:
256,192,77682,1,8,0:0:0:0:
256,192,77849,1,8,0:0:0:0:
256,192,78016,1,0,0:0:0:0:
256,192,78182,1,0,0:0:0:0:
256,192,78266,1,0,0:0:0:0:
256,192,78349,1,8,0:0:0:0:
256,192,78516,1,0,0:0:0:0:
256,192,78682,1,8,0:0:0:0:
256,192,78766,1,8,0:0:0:0:
256,192,78849,1,8,0:0:0:0:
256,192,79016,1,0,0:0:0:0:
256,192,79182,1,0,0:0:0:0:
256,192,79349,1,8,0:0:0:0:
256,192,79516,1,0,0:0:0:0:
256,192,79599,1,0,0:0:0:0:
256,192,79682,1,8,0:0:0:0:
256,192,79849,1,0,0:0:0:0:
256,192,80182,1,0,0:0:0:0:
256,192,80349,1,8,0:0:0:0:
256,192,80516,1,8,0:0:0:0:
256,192,80682,1,0,0:0:0:0:
256,192,80849,1,0,0:0:0:0:
256,192,80932,1,0,0:0:0:0:
256,192,81016,1,8,0:0:0:0:
256,192,81182,1,0,0:0:0:0:
256,192,81349,1,8,0:0:0:0:
256,192,81516,1,0,0:0:0:0:
256,192,81599,1,0,0:0:0:0:
256,192,81682,1,0,0:0:0:0:
256,192,81849,1,8,0:0:0:0:
256,192,82016,1,0,0:0:0:0:
256,192,82099,1,0,0:0:0:0:
256,192,82182,1,0,0:0:0:0:
256,192,82266,1,0,0:0:0:0:
256,192,82349,1,8,0:0:0:0:
256,192,82516,1,0,0:0:0:0:
256,192,82682,1,8,0:0:0:0:
256,192,82766,1,8,0:0:0:0:
256,192,82849,1,8,0:0:0:0:
256,192,82932,1,8,0:0:0:0:
256,192,83016,1,0,0:0:0:0:
256,192,83182,1,8,0:0:0:0:
256,192,83349,1,4,0:0:0:0:
256,192,83682,1,8,0:0:0:0:
256,192,83849,1,8,0:0:0:0:
256,192,84016,1,0,0:0:0:0:
256,192,84349,1,8,0:0:0:0:
256,192,84516,1,8,0:0:0:0:
256,192,84682,1,4,0:0:0:0:
256,192,84849,1,4,0:0:0:0:
256,192,85016,1,8,0:0:0:0:
256,192,85182,1,8,0:0:0:0:
256,192,85349,1,4,0:0:0:0:
256,192,85516,1,4,0:0:0:0:
256,192,85682,1,8,0:0:0:0:
256,192,85766,1,8,0:0:0:0:
256,192,85849,1,8,0:0:0:0:
256,192,86016,1,4,0:0:0:0:
256,192,86349,1,8,0:0:0:0:
256,192,86516,1,0,0:0:0:0:
256,192,86682,1,8,0:0:0:0:
256,192,86766,1,8,0:0:0:0:
256,192,86849,1,8,0:0:0:0:
256,192,87016,1,0,0:0:0:0:
256,192,87182,1,0,0:0:0:0:
256,192,87349,1,8,0:0:0:0:
256,192,87516,1,0,0:0:0:0:
256,192,87599,1,0,0:0:0:0:
256,192,87682,1,8,0:0:0:0:
256,192,87849,1,0,0:0:0:0:
256,192,88182,1,0,0:0:0:0:
256,192,88349,1,8,0:0:0:0:
256,192,88516,1,8,0:0:0:0:
256,192,88682,1,0,0:0:0:0:
256,192,88849,1,0,0:0:0:0:
256,192,88932,1,0,0:0:0:0:
256,192,89016,1,8,0:0:0:0:
256,192,89182,1,0,0:0:0:0:
256,192,89349,1,8,0:0:0:0:
256,192,89516,1,0,0:0:0:0:
256,192,89682,1,0,0:0:0:0:
256,192,89849,1,0,0:0:0:0:
256,192,90016,1,8,0:0:0:0:
256,192,90182,1,8,0:0:0:0:
256,192,90266,1,0,0:0:0:0:
256,192,90349,1,8,0:0:0:0:
256,192,90516,1,0,0:0:0:0:
256,192,90849,1,0,0:0:0:0:
256,192,91016,1,8,0:0:0:0:
256,192,91182,1,8,0:0:0:0:
256,192,91349,1,0,0:0:0:0:
256,192,91516,1,0,0:0:0:0:
256,192,91599,1,0,0:0:0:0:
256,192,91682,1,8,0:0:0:0:
256,192,91849,1,0,0:0:0:0:
256,192,92016,1,8,0:0:0:0:
256,192,92182,1,8,0:0:0:0:
256,192,92349,1,0,0:0:0:0:
256,192,92516,1,0,0:0:0:0:
256,192,92682,1,8,0:0:0:0:
256,192,92849,1,0,0:0:0:0:
256,192,92932,1,0,0:0:0:0:
256,192,93016,1,8,0:0:0:0:
256,192,93182,1,0,0:0:0:0:
256,192,93516,1,0,0:0:0:0:
256,192,93682,1,8,0:0:0:0:
256,192,93849,1,8,0:0:0:0:
256,192,94016,1,0,0:0:0:0:
256,192,94182,1,0,0:0:0:0:
256,192,94266,1,0,0:0:0:0:
256,192,94349,1,8,0:0:0:0:
256,192,94516,1,0,0:0:0:0:
256,192,94682,1,8,0:0:0:0:
256,192,94849,1,0,0:0:0:0:
256,192,94932,1,0,0:0:0:0:
256,192,95016,1,0,0:0:0:0:
256,192,95182,1,8,0:0:0:0:
256,192,95349,1,0,0:0:0:0:
256,192,95432,1,0,0:0:0:0:
256,192,95516,1,0,0:0:0:0:
256,192,95599,1,0,0:0:0:0:
256,192,95682,1,8,0:0:0:0:
256,192,95849,1,0,0:0:0:0:
256,192,96016,1,8,0:0:0:0:
256,192,96099,1,8,0:0:0:0:
256,192,96182,1,8,0:0:0:0:
256,192,96266,1,8,0:0:0:0:
256,192,96349,1,0,0:0:0:0:
256,192,96516,1,8,0:0:0:0:
256,192,96682,1,4,0:0:0:0:
256,192,97016,1,8,0:0:0:0:
256,192,97182,1,0,0:0:0:0:
256,192,97349,1,8,0:0:0:0:
256,192,97432,1,8,0:0:0:0:
256,192,97516,1,8,0:0:0:0:
256,192,97682,1,0,0:0:0:0:
256,192,97849,1,0,0:0:0:0:
256,192,98016,1,8,0:0:0:0:
256,192,98182,1,0,0:0:0:0:
256,192,98266,1,0,0:0:0:0:
256,192,98349,1,8,0:0:0:0:
256,192,98516,1,0,0:0:0:0:
256,192,98849,1,0,0:0:0:0:
256,192,99016,1,8,0:0:0:0:
256,192,99182,1,8,0:0:0:0:
256,192,99349,1,0,0:0:0:0:
256,192,99516,1,0,0:0:0:0:
256,192,99599,1,0,0:0:0:0:
256,192,99682,1,8,0:0:0:0:
256,192,99849,1,0,0:0:0:0:
256,192,100016,1,8,0:0:0:0:
256,192,100182,1,0,0:0:0:0:
256,192,100349,1,0,0:0:0:0:
256,192,100516,1,0,0:0:0:0:
256,192,100682,1,8,0:0:0:0:
256,192,100849,1,8,0:0:0:0:
256,192,100932,1,0,0:0:0:0:
256,192,101016,1,8,0:0:0:0:
256,192,101182,1,0,0:0:0:0:
256,192,101516,1,0,0:0:0:0:
256,192,101682,1,8,0:0:0:0:
256,192,101849,1,8,0:0:0:0:
256,192,102016,1,0,0:0:0:0:
256,192,102182,1,0,0:0:0:0:
256,192,102266,1,0,0:0:0:0:
256,192,102349,1,8,0:0:0:0:
256,192,102516,1,0,0:0:0:0:
256,192,102682,1,8,0:0:0:0:
256,192,102849,1,8,0:0:0:0:
256,192,103016,1,0,0:0:0:0:
256,192,103182,1,0,0:0:0:0:
256,192,103349,1,8,0:0:0:0:
256,192,103516,1,0,0:0:0:0:
256,192,103599,1,0,0:0:0:0:
256,192,103682,1,8,0:0:0:0:
256,192,103849,1,0,0:0:0:0:
256,192,104182,1,0,0:0:0:0:
256,192,104349,1,8,0:0:0:0:
256,192,104516,1,8,0:0:0:0:
256,192,104682,1,0,0:0:0:0:
256,192,104849,1,0,0:0:0:0:
256,192,104932,1,0,0:0:0:0:
256,192,105016,1,8,0:0:0:0:
256,192,105182,1,0,0:0:0:0:
256,192,105349,1,8,0:0:0:0:
256,192,105432,1,8,0:0:0:0:
256,192,105516,1,0,0:0:0:0:
256,192,105682,1,8,0:0:0:0:
256,192,105849,1,8,0:0:0:0:
256,192,106016,1,0,0:0:0:0:
256,192,106099,1,0,0:0:0:0:
256,192,106182,5,0,0:0:0:0:
256,192,106266,1,0,0:0:0:0:
256,192,106349,1,8,0:0:0:0:
256,192,106516,1,0,0:0:0:0:
256,192,106682,1,8,0:0:0:0:
256,192,106766,1,8,0:0:0:0:
256,192,106849,1,8,0:0:0:0:
256,192,106932,1,8,0:0:0:0:
256,192,107016,1,0,0:0:0:0:
256,192,107182,1,8,0:0:0:0:
256,192,107349,12,0,109182,0:0:0:0:
