osu file format v14

[General]
AudioFilename: audio.mp3
AudioLeadIn: 0
PreviewTime: 61307
Countdown: 0
SampleSet: Normal
StackLeniency: 0.7
Mode: 1
LetterboxInBreaks: 0
WidescreenStoryboard: 0

[Editor]
DistanceSpacing: 2
BeatDivisor: 4
GridSize: 32
TimelineZoom: 1.1

[Metadata]
Title:Shine!! (DJ Ramakun FUNKOT REMIX)
TitleUnicode:Shine!! (DJ Ramakun FUNKOT REMIX)
Artist:CINDERELLA PROJECT
ArtistUnicode:CINDERELLA PROJECT
Creator:Nishizumi
Version:Kantan!!
Source:アイドルマスター シンデレラガールズ
Tags:THE iDOLM@STER CINDERELLA GIRLS im@s idolmaster 2nd opening Starlight Stage 滝澤俊輔 Shunsuke Takizawa TRYTONELABO 森由里子 Yuriko Mori funky kota tv size ayomikasa
BeatmapID:1165073
BeatmapSetID:549167

[Difficulty]
HPDrainRate:8
CircleSize:5
OverallDifficulty:3
ApproachRate:5
SliderMultiplier:1.4
SliderTickRate:1

[Events]
//Background and Video events
0,0,"what is this.jpg",0,-10
//Break Periods
//Storyboard Layer 0 (Background)
//Storyboard Layer 1 (Fail)
//Storyboard Layer 2 (Pass)
//Storyboard Layer 3 (Foreground)
//Storyboard Sound Samples

[TimingPoints]
1350,333.333333333333,4,1,0,90,1,0
24016,333.333333333333,4,1,0,90,1,8
24683,333.333333333333,4,1,0,90,1,0
62016,-100,4,1,0,90,0,1
86016,-100,4,1,0,90,0,0
107349,-100,4,1,0,70,0,0

[HitObjects]
256,192,1350,5,0,0:0:0:0:
256,192,2683,1,0,0:0:0:0:
256,192,4016,1,0,0:0:0:0:
256,192,5349,1,0,0:0:0:0:
256,192,6016,1,8,0:0:0:0:
256,192,6683,1,0,0:0:0:0:
256,192,8016,1,0,0:0:0:0:
256,192,9349,1,0,0:0:0:0:
256,192,10683,1,0,0:0:0:0:
256,192,12016,1,0,0:0:0:0:
256,192,13349,1,4,0:0:0:0:
256,192,14683,1,4,0:0:0:0:
256,192,16016,5,4,0:0:0:0:
256,192,16683,1,8,0:0:0:0:
256,192,17016,1,8,0:0:0:0:
256,192,17349,1,0,0:0:0:0:
256,192,18016,1,8,0:0:0:0:
256,192,18683,1,0,0:0:0:0:
256,192,19349,1,8,0:0:0:0:
256,192,19683,1,8,0:0:0:0:
256,192,20016,1,0,0:0:0:0:
256,192,20683,1,8,0:0:0:0:
256,192,21349,1,0,0:0:0:0:
256,192,22016,1,8,0:0:0:0:
256,192,22683,1,0,0:0:0:0:
256,192,23349,1,8,0:0:0:0:
256,192,24682,1,4,0:0:0:0:
256,192,25349,1,8,0:0:0:0:
256,192,25683,1,8,0:0:0:0:
256,192,26016,1,0,0:0:0:0:
256,192,26682,1,0,0:0:0:0:
256,192,27349,1,8,0:0:0:0:
256,192,28016,1,0,0:0:0:0:
256,192,28349,1,0,0:0:0:0:
256,192,28682,1,8,0:0:0:0:
256,192,30016,5,0,0:0:0:0:
256,192,30682,1,8,0:0:0:0:
256,192,31016,1,8,0:0:0:0:
256,192,31349,1,0,0:0:0:0:
256,192,32016,1,0,0:0:0:0:
256,192,32682,1,8,0:0:0:0:
256,192,33349,1,0,0:0:0:0:
256,192,33682,1,0,0:0:0:0:
256,192,34016,1,8,0:0:0:0:
256,192,35349,5,4,0:0:0:0:
256,192,36016,1,8,0:0:0:0:
256,192,36682,1,0,0:0:0:0:
256,192,37016,1,0,0:0:0:0:
256,192,37349,1,8,0:0:0:0:
256,192,38016,1,0,0:0:0:0:
256,192,38682,1,8,0:0:0:0:
256,192,39349,1,0,0:0:0:0:
256,192,40016,1,8,0:0:0:0:
256,192,40349,1,8,0:0:0:0:
256,192,40682,1,0,0:0:0:0:
256,192,42016,1,8,0:0:0:0:
256,192,42682,1,8,0:0:0:0:
256,192,43349,1,0,0:0:0:0:
256,192,43682,1,0,0:0:0:0:
256,192,44016,1,0,0:0:0:0:
256,192,44682,1,8,0:0:0:0:
256,192,45016,1,8,0:0:0:0:
256,192,45349,1,8,0:0:0:0:
256,192,46016,1,4,0:0:0:0:
256,192,47349,1,8,0:0:0:0:
256,192,48016,1,8,0:0:0:0:
256,192,48349,1,0,0:0:0:0:
256,192,48682,1,8,0:0:0:0:
256,192,50016,1,0,0:0:0:0:
256,192,50682,1,0,0:0:0:0:
256,192,51016,1,8,0:0:0:0:
256,192,51349,1,0,0:0:0:0:
256,192,52016,1,0,0:0:0:0:
256,192,52682,1,8,0:0:0:0:
256,192,53016,1,0,0:0:0:0:
256,192,53349,1,8,0:0:0:0:
256,192,54016,1,4,0:0:0:0:
256,192,54682,1,4,0:0:0:0:
256,192,55349,1,4,0:0:0:0:
256,192,56682,1,12,0:0:0:0:
256,192,57349,1,12,0:0:0:0:
256,192,58016,1,12,0:0:0:0:
256,192,58682,1,0,0:0:0:0:
256,192,59016,1,8,0:0:0:0:
256,192,59349,12,0,60349,0:0:0:0:
256,192,60682,5,12,0:0:0:0:
256,192,62016,1,4,0:0:0:0:
256,192,62682,1,8,0:0:0:0:
256,192,63016,1,8,0:0:0:0:
256,192,63349,1,0,0:0:0:0:
256,192,63682,1,0,0:0:0:0:
256,192,64016,1,8,0:0:0:0:
256,192,64682,1,0,0:0:0:0:
256,192,66016,5,0,0:0:0:0:
256,192,66682,1,0,0:0:0:0:
256,192,67016,1,8,0:0:0:0:
256,192,67349,1,8,0:0:0:0:
256,192,67682,1,0,0:0:0:0:
256,192,68349,1,8,0:0:0:0:
256,192,68682,1,0,0:0:0:0:
256,192,69016,1,0,0:0:0:0:
256,192,70016,1,0,0:0:0:0:
256,192,70682,1,8,0:0:0:0:
256,192,71016,1,8,0:0:0:0:
256,192,71349,1,0,0:0:0:0:
256,192,71682,1,0,0:0:0:0:
256,192,72016,1,8,0:0:0:0:
256,192,72682,1,4,0:0:0:0:
256,192,73349,1,8,0:0:0:0:
256,192,73682,1,8,0:0:0:0:
256,192,74016,1,0,0:0:0:0:
256,192,74349,1,0,0:0:0:0:
256,192,74682,1,8,0:0:0:0:
256,192,75349,1,0,0:0:0:0:
256,192,76682,5,0,0:0:0:0:
256,192,77349,1,0,0:0:0:0:
256,192,77682,1,8,0:0:0:0:
256,192,78016,1,8,0:0:0:0:
256,192,78349,1,0,0:0:0:0:
256,192,79016,1,8,0:0:0:0:
256,192,79349,1,0,0:0:0:0:
256,192,79682,1,0,0:0:0:0:
256,192,80016,1,8,0:0:0:0:
256,192,80682,1,8,0:0:0:0:
256,192,81349,1,8,0:0:0:0:
256,192,81682,1,8,0:0:0:0:
256,192,82016,1,0,0:0:0:0:
256,192,82349,1,0,0:0:0:0:
256,192,82682,1,8,0:0:0:0:
256,192,83349,1,4,0:0:0:0:
256,192,84682,1,0,0:0:0:0:
256,192,85349,1,8,0:0:0:0:
256,192,85682,1,8,0:0:0:0:
256,192,86016,1,4,0:0:0:0:
256,192,86682,1,8,0:0:0:0:
256,192,87349,1,8,0:0:0:0:
256,192,87682,1,0,0:0:0:0:
256,192,88016,1,8,0:0:0:0:
256,192,88682,1,0,0:0:0:0:
256,192,90016,1,8,0:0:0:0:
256,192,90682,1,0,0:0:0:0:
256,192,91016,1,8,0:0:0:0:
256,192,91349,1,8,0:0:0:0:
256,192,91682,1,0,0:0:0:0:
256,192,92349,1,8,0:0:0:0:
256,192,92682,1,0,0:0:0:0:
256,192,93016,1,0,0:0:0:0:
256,192,94016,1,0,0:0:0:0:
256,192,94682,1,8,0:0:0:0:
256,192,95349,1,0,0:0:0:0:
256,192,95682,1,0,0:0:0:0:
256,192,96016,1,8,0:0:0:0:
256,192,96682,1,4,0:0:0:0:
256,192,97349,1,8,0:0:0:0:
256,192,98016,1,8,0:0:0:0:
256,192,98349,1,0,0:0:0:0:
256,192,98682,1,8,0:0:0:0:
256,192,99349,1,0,0:0:0:0:
256,192,100682,1,8,0:0:0:0:
256,192,101349,1,0,0:0:0:0:
256,192,101682,1,8,0:0:0:0:
256,192,102016,1,8,0:0:0:0:
256,192,102349,1,0,0:0:0:0:
256,192,103016,1,8,0:0:0:0:
256,192,103349,1,0,0:0:0:0:
256,192,103682,1,0,0:0:0:0:
256,192,104682,1,0,0:0:0:0:
256,192,105349,1,8,0:0:0:0:
256,192,105682,1,8,0:0:0:0:
256,192,106016,1,0,0:0:0:0:
256,192,106349,1,0,0:0:0:0:
256,192,106682,1,8,0:0:0:0:
256,192,107349,12,0,109182,0:0:0:0:
