osu file format v14

[General]
AudioFilename: magic deresute.mp3
AudioLeadIn: 1000
PreviewTime: 59466
Countdown: 0
SampleSet: Soft
StackLeniency: 0.7
Mode: 0
LetterboxInBreaks: 0
WidescreenStoryboard: 0

[Editor]
DistanceSpacing: 1
BeatDivisor: 4
GridSize: 4
TimelineZoom: 3.099999

[Metadata]
Title:M@GIC*
TitleUnicode:M@GIC☆
Artist:CINDERELLA PROJECT
ArtistUnicode:CINDERELLA PROJECT
Creator:Lami
Version:M@gic
Source:アイドルマスター シンデレラガールズ
Tags:idolmaster im@s the idolm@ster cinderella girls starlight stage gaia momochikun hvick225 tv size intoon
BeatmapID:848994
BeatmapSetID:389343

[Difficulty]
HPDrainRate:6
CircleSize:4
OverallDifficulty:8.5
ApproachRate:9.3
SliderMultiplier:1.88
SliderTickRate:1

[Events]
//Background and Video events
0,0,"BG.jpg",0,0
//Break Periods
//Storyboard Layer 0 (Background)
//Storyboard Layer 1 (Fail)
//Storyboard Layer 2 (Pass)
//Storyboard Layer 3 (Foreground)
//Storyboard Sound Samples

[TimingPoints]
-533,337.078651685393,4,2,1,50,1,0
141,-142.857142857143,4,2,1,50,0,0
8568,-111.111111111111,4,2,1,50,0,0
9579,-111.111111111111,4,2,1,53,0,0
10253,-111.111111111111,4,2,1,56,0,0
10927,-111.111111111111,4,2,1,59,0,0
11601,-111.111111111111,4,2,1,53,0,0
12275,-111.111111111111,4,2,1,56,0,0
12950,-111.111111111111,4,2,1,59,0,0
13624,-111.111111111111,4,2,1,62,0,0
14298,-111.111111111111,4,2,1,56,0,0
14972,-111.111111111111,4,2,1,59,0,0
15646,-100,4,2,1,62,0,0
16995,-100,4,2,1,50,0,0
23736,-166.666666666667,4,2,1,50,0,0
25084,-133.333333333333,4,2,3,50,0,0
45309,-111.111111111111,4,2,1,50,0,0
46995,-111.111111111111,4,2,2,50,0,0
51292,-111.111111111111,4,2,2,20,0,0
51377,-111.111111111111,4,2,2,50,0,0
51629,-111.111111111111,4,2,2,20,0,0
51714,-111.111111111111,4,2,2,50,0,0
57444,-111.111111111111,4,2,1,50,0,0
59129,-100,4,2,1,50,0,0
59466,-100,4,2,1,55,0,0
60141,-100,4,2,1,65,0,1
70253,-100,4,2,1,65,0,0
70927,-100,4,2,1,65,0,1
81040,-100,4,2,1,65,0,0
81714,-100,4,2,1,65,0,1
91826,-100,4,2,1,65,0,0
92500,-100,4,2,1,65,0,1
103287,-100,4,2,1,65,0,0
112219,-100,4,2,1,55,0,0
112725,-100,4,2,1,65,0,0

[Colours]
Combo1 : 119,255,255
Combo2 : 255,160,115
Combo3 : 202,149,149
Combo4 : 183,111,255

[HitObjects]
196,220,141,6,0,P|256:228|304:176,1,131.599995983887
302,180,815,6,0,L|450:204,1,131.599995983887,2|0,0:0|0:0,0:0:0:0:
484,68,1320,2,0,L|336:44,1,131.599995983887
354,46,1826,1,0,0:0:0:0:
220,108,1995,2,0,P|207:140|208:172,1,65.7999979919434,2|0,0:0|0:0,0:0:0:0:
312,232,2332,2,0,P|325:200|324:168,1,65.7999979919434
196,284,2669,6,0,P|128:288|84:244,1,131.599995983887
186,108,3174,2,0,L|212:185,1,65.7999979919434
336,160,3511,2,0,L|472:144,1,131.599995983887,2|0,0:0|0:0,0:0:0:0:
353,288,4017,1,0,0:0:0:0:
353,288,4186,2,0,L|285:296,1,65.7999979919434
200,176,4523,1,0,0:0:0:0:
132,272,4691,6,0,P|80:284|24:224,1,131.599995983887,2|0,0:0|0:0,0:0:0:0:
116,100,5197,2,0,L|184:88,1,65.7999979919434
298,184,5534,2,0,L|193:174,2,98.6999969879151,2|0|0,0:0|0:0|0:0,0:0:0:0:
416,76,6208,6,0,P|360:36|284:56,1,131.599995983887,0|2,0:0|0:0,0:0:0:0:
220,148,6714,2,0,P|188:168|144:164,1,65.7999979919434
80,80,7051,2,0,P|112:60|156:64,1,65.7999979919434
300,136,7388,2,0,L|284:284,1,131.599995983887
160,344,7893,2,0,L|168:270,1,65.7999979919434
88,128,8231,2,0,L|80:193,1,65.7999979919434,2|0,0:0|3:0,0:0:0:0:
88,221,8483,1,0,3:0:0:0:
88,220,8568,6,0,P|152:228|196:180,1,126.899996127319,8|0,0:0|0:0,0:0:0:0:
208,112,8905,5,8,0:0:0:0:
352,192,9073,1,8,0:0:0:0:
336,72,9242,1,8,0:0:0:0:
256,224,9410,1,8,0:0:0:0:
208,28,9579,5,8,0:0:0:0:
328,160,9747,1,8,0:0:0:0:
292,0,9916,1,8,0:0:0:0:
193,187,10084,1,8,0:0:0:0:
128,80,10253,5,8,0:0:0:0:
296,236,10422,1,8,0:0:0:0:
88,164,10590,1,8,0:0:0:0:
300,80,10759,1,8,0:0:0:0:
200,284,10927,5,8,0:0:0:0:
164,48,11096,1,8,0:0:0:0:
348,152,11264,1,8,0:0:0:0:
84,248,11433,1,8,0:0:0:0:
244,16,11601,5,8,0:0:0:0:
164,208,11770,1,8,0:0:0:0:
164,48,11938,1,8,0:0:0:0:
308,188,12107,1,8,0:0:0:0:
324,24,12275,5,8,0:0:0:0:
136,128,12444,1,8,0:0:0:0:
344,192,12613,1,8,0:0:0:0:
196,12,12781,1,8,0:0:0:0:
244,252,12950,5,8,0:0:0:0:
356,104,13118,1,8,0:0:0:0:
120,48,13287,1,8,0:0:0:0:
276,172,13455,1,8,0:0:0:0:
344,0,13624,5,8,0:0:0:0:
192,180,13792,1,8,0:0:0:0:
248,20,13961,1,8,0:0:0:0:
384,248,14129,1,8,0:0:0:0:
420,48,14298,5,8,0:0:0:0:
188,88,14466,1,8,0:0:0:0:
308,248,14635,1,8,0:0:0:0:
300,12,14804,1,8,0:0:0:0:
160,256,14972,5,8,0:0:0:0:
436,136,15141,1,8,0:0:0:0:
300,364,15309,1,8,0:0:0:0:
244,72,15478,2,0,L|268:116,1,42.2999987091065,8|0,0:0|0:0,0:0:0:0:
344,248,15646,6,0,P|392:260|472:200,1,141,8|0,0:0|0:0,0:0:0:0:
508,148,15983,1,12,0:0:0:0:
384,340,16152,2,0,P|365:355|344:364,1,47
232,384,16320,5,8,0:0:0:0:
192,359,16405,1,8,0:0:0:0:
169,318,16489,1,8,0:0:0:0:
170,272,16573,1,8,0:0:0:0:
194,232,16658,1,8,0:0:0:0:
217,191,16742,1,8,0:0:0:0:
219,145,16826,1,8,0:0:0:0:
196,104,16910,1,8,0:0:0:0:
156,80,16995,6,0,P|77:75|29:173,1,188,12|8,0:0|0:0,0:0:0:0:
236,292,17500,1,0,0:0:0:0:
288,152,17669,2,0,P|296:104|276:56,1,94
104,256,18006,2,0,P|96:304|116:352,1,94,8|0,0:0|0:0,0:0:0:0:
308,260,18343,6,0,L|496:232,1,188,4|8,0:0|0:0,0:0:0:0:
364,24,18849,2,0,L|176:52,1,188,4|0,0:0|0:0,0:0:0:0:
68,244,19354,1,8,0:0:0:0:
80,56,19523,1,0,0:0:0:0:
256,192,19691,6,0,P|316:200|380:104,1,188,0|8,0:0|0:0,0:0:0:0:
192,4,20197,1,0,0:0:0:0:
144,208,20365,1,0,0:0:0:0:
52,16,20534,1,0,0:0:0:0:
240,128,20702,2,0,L|340:148,1,94,8|0,0:0|0:0,0:0:0:0:
248,288,21040,6,0,P|184:340|80:308,1,188,0|8,0:0|0:0,0:0:0:0:
44,72,21545,2,0,L|88:188,1,94
248,288,21882,1,0,0:0:0:0:
300,116,22051,2,0,P|248:92|208:96,1,94,8|0,0:0|0:0,0:0:0:0:
356,228,22388,6,0,P|420:160|404:56,1,188,0|8,0:0|0:0,0:0:0:0:
236,196,22893,1,0,0:0:0:0:
348,352,23062,1,0,0:0:0:0:
300,116,23231,1,0,0:0:0:0:
300,116,23315,1,0,0:0:0:0:
300,116,23399,1,8,0:0:0:0:
164,288,23568,1,0,0:0:0:0:
81,128,23736,6,0,B|77:100|85:88|121:80|153:120|153:120|181:104|181:104|205:116|205:116|235:100|235:100|265:116|265:116|297:100|297:100|329:116|329:116|361:116,1,338.399989672852,0|4,0:0|0:0,0:0:0:0:
361,116,25084,6,0,P|373:156|369:192,1,70.5000026893617,8|0,0:0|0:0,0:0:0:0:
304,268,25422,1,8,0:0:0:0:
304,268,25590,1,0,0:0:0:0:
204,252,25759,2,0,L|124:240,1,70.5000026893617,8|0,0:0|0:0,0:0:0:0:
220,356,26096,2,0,L|300:368,1,70.5000026893617,8|0,0:0|0:0,0:0:0:0:
416,268,26433,6,0,P|384:216|296:216,1,141.000005378723,8|8,0:0|0:0,0:0:0:0:
216,256,26938,2,0,P|148:252|109:196,1,141.000005378723
164,68,27444,1,8,0:0:0:0:
244,176,27613,1,0,0:0:0:0:
284,84,27781,6,0,P|316:68|356:68,1,70.5000026893617,8|0,0:0|0:0,0:0:0:0:
456,116,28118,1,8,0:0:0:0:
456,116,28287,2,0,L|440:256,1,141.000005378723
380,344,28792,2,0,P|336:356|296:344,1,70.5000026893617,8|0,0:0|0:0,0:0:0:0:
164,236,29129,6,0,P|208:184|301:208,1,141.000005378723,8|8,0:0|0:0,0:0:0:0:
252,296,29635,2,0,P|207:348|139:345,1,141.000005378723
52,288,30141,1,8,0:0:0:0:
52,288,30309,1,0,0:0:0:0:
76,124,30478,1,8,0:0:0:0:
76,124,30815,6,0,L|148:112,1,70.5000026893617,8|0,0:0|0:0,0:0:0:0:
232,212,31152,2,0,L|160:224,1,70.5000026893617,8|0,0:0|0:0,0:0:0:0:
248,116,31489,2,0,L|320:104,1,70.5000026893617,8|0,0:0|0:0,0:0:0:0:
396,184,31826,2,0,P|480:180|512:120,1,141.000005378723,8|8,0:0|0:0,0:0:0:0:
420,8,32332,2,0,L|276:32,1,141.000005378723
188,168,32837,1,8,0:0:0:0:
168,44,33006,1,0,0:0:0:0:
280,136,33174,6,0,P|288:180|280:220,1,70.5000026893617,8|0,0:0|0:0,0:0:0:0:
180,328,33511,1,8,0:0:0:0:
180,328,33680,2,0,P|120:288|120:216,1,141.000005378723
96,116,34186,2,0,L|20:100,1,70.5000026893617,8|0,0:0|0:0,0:0:0:0:
104,8,34523,6,0,L|180:24,1,70.5000026893617,8|0,0:0|0:0,0:0:0:0:
224,124,34860,1,8,0:0:0:0:
284,36,35028,1,0,0:0:0:0:
284,36,35113,1,0,0:0:0:0:
284,36,35197,1,10,0:0:0:0:
324,160,35365,1,2,0:0:0:0:
380,16,35534,1,10,0:0:0:0:
424,172,35702,1,2,0:0:0:0:
432,196,35787,1,0,0:0:0:0:
440,220,35871,6,0,L|416:360,1,141.000005378723,10|8,0:0|0:0,0:0:0:0:
304,260,36377,1,0,0:0:0:0:
220,344,36545,2,0,P|180:364|140:360,1,70.5000026893617,8|0,0:0|0:0,0:0:0:0:
80,240,36882,2,0,P|120:220|160:224,1,70.5000026893617,8|0,0:0|0:0,0:0:0:0:
268,240,37219,6,0,P|312:240|364:160,1,141.000005378723,8|8,0:0|0:0,0:0:0:0:
232,64,37725,2,0,P|188:64|136:144,1,141.000005378723
176,272,38231,1,8,0:0:0:0:
40,196,38399,1,0,0:0:0:0:
76,296,38568,6,0,L|76:368,1,70.5000026893617,8|0,0:0|0:0,0:0:0:0:
176,272,38905,1,8,0:0:0:0:
248,356,39073,2,0,P|312:352|348:276,1,141.000005378723
384,132,39579,1,8,0:0:0:0:
432,228,39747,2,0,L|496:360,1,141.000005378723
480,152,40253,1,8,0:0:0:0:
360,284,40422,1,0,0:0:0:0:
256,200,40590,6,0,L|144:172,2,105.750004034043,8|0|0,0:0|0:0|0:0,0:0:0:0:
184,95,41264,2,0,B|133:83|133:83|85:91|85:91|45:83,1,141.000005378723,8|8,0:0|0:0,0:0:0:0:
84,260,41770,2,0,B|134:271|134:271|182:263|182:263|222:271,1,141.000005378723
384,136,42275,1,8,0:0:0:0:
384,136,42613,6,0,P|404:200|412:280,1,141.000005378723,8|8,0:0|0:0,0:0:0:0:
204,168,43118,2,0,P|184:104|176:24,1,141.000005378723
376,44,43624,1,8,0:0:0:0:
376,44,43961,6,0,L|364:136,1,70.5000026893617,8|0,0:0|0:0,0:0:0:0:
268,88,44298,2,0,L|256:180,1,70.5000026893617,8|0,0:0|0:0,0:0:0:0:
160,132,44635,2,0,L|148:224,1,70.5000026893617,8|0,0:0|0:0,0:0:0:0:
52,176,44972,2,0,L|40:268,1,70.5000026893617,8|0,0:0|0:0,0:0:0:0:
216,364,45309,5,8,0:0:0:0:
216,364,45815,5,2,0:0:0:0:
232,352,45899,1,0,0:0:0:0:
252,340,45983,2,0,L|244:292,1,42.2999987091065,2|0,0:0|0:0,0:0:0:0:
312,192,46152,2,0,L|318:233,1,42.2999987091065
412,288,46320,2,0,L|404:240,1,42.2999987091065,2|0,0:0|0:0,0:0:0:0:
472,140,46489,2,0,L|478:181,1,42.2999987091065
496,296,46658,5,0,0:0:0:0:
388,120,46826,1,0,0:0:0:0:
284,200,46995,2,0,P|232:208|192:192,1,84.599997418213,8|0,0:0|0:0,0:0:0:0:
164,32,47332,1,0,0:0:0:0:
96,212,47500,1,0,0:0:0:0:
256,80,47669,1,8,0:0:0:0:
256,80,47837,2,0,L|340:72,1,84.599997418213
456,204,48174,1,0,0:0:0:0:
328,284,48343,6,0,P|288:288|224:216,1,126.899996127319,8|0,0:0|0:0,0:0:0:0:
224,196,48680,1,0,0:0:0:0:
184,364,48849,1,0,0:0:0:0:
60,160,49017,1,8,0:0:0:0:
148,272,49186,1,0,0:0:0:0:
204,112,49354,6,0,L|292:104,1,84.599997418213
464,232,49691,2,0,P|388:252|320:192,1,169.199994836426,8|0,0:0|0:0,0:0:0:0:
328,16,50197,1,0,0:0:0:0:
228,144,50365,1,8,0:0:0:0:
228,144,50534,2,0,L|143:151,1,84.599997418213
40,76,50871,1,0,0:0:0:0:
24,216,51040,6,0,B|16:260|16:260|36:296|36:296|24:344,1,126.899996127319,8|0,0:0|0:0,0:0:0:0:
84,380,51377,2,0,P|128:376|168:296,1,126.899996127319
180,236,51714,2,0,P|208:208|256:196,1,84.599997418213,8|0,0:0|0:0,0:0:0:0:
388,284,52051,6,0,P|440:288|504:188,1,169.199994836426,4|8,0:0|0:0,0:0:0:0:
332,48,52556,2,0,P|280:44|216:144,1,169.199994836426,4|0,0:0|0:0,0:0:0:0:
304,360,53062,1,8,0:0:0:0:
348,152,53231,1,0,0:0:0:0:
196,304,53399,6,0,L|8:288,1,169.199994836426,4|8,0:0|0:0,0:0:0:0:
92,112,53905,2,0,L|280:128,1,169.199994836426,4|0,0:0|0:0,0:0:0:0:
400,320,54410,1,8,0:0:0:0:
464,132,54579,1,0,0:0:0:0:
328,232,54747,6,0,P|276:232|236:204,1,84.599997418213,4|0,0:0|0:0,0:0:0:0:
178,36,55084,1,8,0:0:0:0:
144,168,55253,2,0,L|101:331,1,169.199994836426,4|0,0:0|0:0,0:0:0:0:
48,140,55759,1,8,0:0:0:0:
48,140,55927,1,0,0:0:0:0:
236,264,56096,6,0,P|288:256|320:228,1,84.599997418213
312,8,56433,2,0,P|260:16|228:44,1,84.599997418213,8|0,0:0|0:0,0:0:0:0:
136,252,56770,1,8,0:0:0:0:
92,76,56938,1,0,0:0:0:0:
256,292,57107,1,8,0:0:0:0:
372,124,57275,1,0,0:0:0:0:
200,188,57444,5,8,0:0:0:0:
416,288,57613,1,0,0:0:0:0:
416,288,57697,1,0,0:0:0:0:
416,288,57781,1,0,0:0:0:0:
160,296,57950,5,8,0:0:0:0:
400,144,58118,1,0,0:0:0:0:
400,144,58202,1,0,0:0:0:0:
400,144,58287,1,0,0:0:0:0:
108,48,58455,5,12,0:0:0:0:
176,180,58792,5,0,0:0:0:0:
188,184,58877,1,0,0:0:0:0:
200,188,58961,1,0,0:0:0:0:
212,192,59045,1,0,0:0:0:0:
224,196,59129,2,0,P|292:165|288:100,1,141
304,28,59466,5,8,0:0:0:0:
345,6,59551,1,8,0:0:0:0:
391,7,59635,1,8,0:0:0:0:
431,31,59719,1,8,0:0:0:0:
453,72,59804,2,8,L|447:135,1,47
372,185,59972,2,8,L|366:248,1,47
290,297,60141,6,0,P|240:316|180:300,1,94,4|0,0:0|0:0,0:0:0:0:
152,64,60478,1,8,0:0:0:0:
116,200,60646,2,0,L|68:384,1,188
8,120,61152,1,8,0:0:0:0:
228,176,61320,6,0,P|256:128|256:72,1,94
120,4,61658,2,0,P|92:52|92:108,1,94,0|8,0:0|0:0,0:0:0:0:
180,280,61995,2,0,P|264:280|328:200,1,188
336,16,62500,1,8,0:0:0:0:
448,192,62669,1,0,0:0:0:0:
248,88,62837,6,0,L|36:120,1,188,0|8,0:0|0:0,0:0:0:0:
0,288,63343,1,0,0:0:0:0:
160,236,63511,2,0,P|168:284|152:340,1,94
60,116,63849,1,8,0:0:0:0:
236,164,64017,6,0,P|300:152|328:40,1,188
152,48,64523,1,8,0:0:0:0:
108,204,64691,2,0,L|56:392,1,188
12,136,65197,1,8,0:0:0:0:
192,288,65365,1,0,0:0:0:0:
288,68,65534,1,0,0:0:0:0:
300,96,65871,6,0,P|344:128|428:120,1,141,8|0,0:0|0:0,0:0:0:0:
456,112,66208,2,0,L|476:16,1,94
344,216,66545,2,0,L|324:312,1,94,8|0,0:0|0:0,0:0:0:0:
216,192,66882,1,0,0:0:0:0:
424,324,67051,1,0,0:0:0:0:
356,76,67219,1,8,0:0:0:0:
204,296,67388,2,0,P|152:316|48:224,1,188
116,32,67893,1,8,0:0:0:0:
228,168,68062,1,0,0:0:0:0:
240,180,68146,1,0,0:0:0:0:
252,192,68231,6,0,L|348:168,1,94
207,9,68568,2,0,L|111:33,1,94,8|0,0:0|0:0,0:0:0:0:
51,246,68905,1,0,0:0:0:0:
240,108,69073,1,0,0:0:0:0:
32,40,69242,1,8,0:0:0:0:
208,244,69410,6,0,P|276:260|360:176,1,188
461,14,69916,1,8,0:0:0:0:
461,14,70000,1,0,0:0:0:0:
461,14,70084,1,0,0:0:0:0:
324,120,70253,5,8,0:0:0:0:
280,137,70337,1,8,0:0:0:0:
234,133,70422,1,8,0:0:0:0:
195,107,70506,1,8,0:0:0:0:
160,72,70590,1,8,0:0:0:0:
118,51,70674,1,8,0:0:0:0:
71,51,70759,1,8,0:0:0:0:
29,71,70843,1,8,0:0:0:0:
0,107,70927,6,0,L|12:212,1,94,4|0,0:0|0:0,0:0:0:0:
88,360,71264,1,8,0:0:0:0:
192,176,71433,2,0,P|264:160|336:244,1,188
184,384,71938,1,8,0:0:0:0:
88,228,72107,6,0,L|32:132,1,94
168,8,72444,2,0,L|224:104,1,94,0|8,0:0|0:0,0:0:0:0:
316,292,72781,2,0,P|384:244|372:140,1,188
244,64,73287,1,8,0:0:0:0:
152,240,73455,1,0,0:0:0:0:
260,80,73624,6,0,L|445:51,1,188,0|8,0:0|0:0,0:0:0:0:
368,284,74129,1,0,0:0:0:0:
196,232,74298,2,0,P|176:190|182:143,1,94
308,0,74635,1,8,0:0:0:0:
181,144,74804,6,0,P|73:148|33:80,1,188
216,8,75309,1,8,0:0:0:0:
280,220,75478,1,0,0:0:0:0:
324,64,75646,2,0,P|368:32|460:56,1,141
484,112,75983,2,0,L|472:212,1,94,8|0,0:0|0:0,0:0:0:0:
292,336,76320,6,0,P|224:296|240:192,1,188,0|8,0:0|0:0,0:0:0:0:
404,280,76826,2,0,L|422:372,1,94
328,152,77163,2,0,L|347:59,1,94,0|8,0:0|0:0,0:0:0:0:
156,144,77500,2,0,P|104:156|48:40,1,188
232,16,78006,1,8,0:0:0:0:
308,252,78174,1,0,0:0:0:0:
356,64,78343,2,0,B|448:52|448:52|492:88,1,141
496,156,78680,2,0,L|484:264,1,94,8|0,0:0|0:0,0:0:0:0:
304,360,79017,5,8,0:0:0:0:
232,224,79186,1,0,0:0:0:0:
192,216,79270,1,0,0:0:0:0:
152,208,79354,1,8,0:0:0:0:
96,304,79523,5,0,0:0:0:0:
200,96,79691,1,8,0:0:0:0:
240,88,79775,1,0,0:0:0:0:
280,80,79860,1,0,0:0:0:0:
348,264,80028,1,8,0:0:0:0:
380,112,80197,6,0,L|400:8,1,94,0|8,0:0|0:0,0:0:0:0:
476,224,80534,1,0,0:0:0:0:
476,224,80618,1,0,0:0:0:0:
476,224,80702,1,8,0:0:0:0:
320,348,80871,1,0,0:0:0:0:
280,172,81040,5,8,0:0:0:0:
251,135,81124,1,8,0:0:0:0:
208,116,81208,1,8,0:0:0:0:
162,118,81292,1,8,0:0:0:0:
120,140,81377,1,8,0:0:0:0:
73,141,81461,1,8,0:0:0:0:
37,112,81545,1,8,0:0:0:0:
28,67,81629,1,8,0:0:0:0:
49,26,81714,6,0,L|144:12,1,94,12|0,0:0|0:0,0:0:0:0:
320,108,82051,1,8,0:0:0:0:
204,256,82219,2,0,P|156:244|120:208,1,94,0|8,0:0|0:0,0:0:0:0:
236,56,82556,1,0,0:0:0:0:
352,272,82725,1,8,0:0:0:0:
420,72,82893,1,0,0:0:0:0:
296,160,83062,6,0,L|192:172,1,94,8|0,0:0|0:0,0:0:0:0:
368,344,83399,2,0,L|472:332,1,94,8|0,0:0|0:0,0:0:0:0:
500,144,83736,1,8,0:0:0:0:
320,264,83905,1,0,0:0:0:0:
332,36,84073,1,8,0:0:0:0:
424,256,84242,1,0,0:0:0:0:
236,88,84410,6,0,P|145:77|84:148,1,188,8|8,0:0|0:0,0:0:0:0:
252,332,84916,1,0,0:0:0:0:
316,156,85084,2,0,L|348:64,1,94,8|0,0:0|0:0,0:0:0:0:
404,296,85422,2,0,L|372:388,1,94,8|0,0:0|0:0,0:0:0:0:
208,224,85759,5,8,0:0:0:0:
404,296,85927,1,0,0:0:0:0:
404,296,86011,1,0,0:0:0:0:
404,296,86096,1,8,0:0:0:0:
348,76,86264,1,0,0:0:0:0:
248,320,86433,1,8,0:0:0:0:
428,152,86601,1,0,0:0:0:0:
452,372,86770,1,8,0:0:0:0:
292,164,86938,1,0,0:0:0:0:
176,352,87107,6,0,P|104:360|32:320,1,141,8|0,0:0|0:0,0:0:0:0:
20,260,87444,2,0,L|8:160,1,94,8|0,0:0|0:0,0:0:0:0:
224,48,87781,1,8,0:0:0:0:
104,236,87950,1,0,0:0:0:0:
120,36,88118,1,8,0:0:0:0:
216,232,88287,1,0,0:0:0:0:
304,48,88455,6,0,P|356:32|400:36,1,94,8|0,0:0|0:0,0:0:0:0:
464,184,88792,1,8,0:0:0:0:
328,312,88961,2,0,L|220:300,1,94,0|8,0:0|0:0,0:0:0:0:
192,112,89298,1,0,0:0:0:0:
392,272,89466,1,8,0:0:0:0:
304,48,89635,1,0,0:0:0:0:
192,208,89804,6,0,P|140:220|76:196,1,94,8|0,0:0|0:0,0:0:0:0:
212,8,90141,1,8,0:0:0:0:
352,188,90309,1,0,0:0:0:0:
344,24,90478,1,8,0:0:0:0:
272,280,90646,1,0,0:0:0:0:
132,100,90815,1,8,0:0:0:0:
352,188,90983,6,0,P|404:180|444:148,1,94,0|8,0:0|0:0,0:0:0:0:
244,4,91320,1,0,0:0:0:0:
200,260,91489,1,8,0:0:0:0:
68,60,91658,1,0,0:0:0:0:
264,92,91826,5,8,0:0:0:0:
306,110,91910,1,8,0:0:0:0:
333,148,91995,1,8,0:0:0:0:
337,194,92079,1,8,0:0:0:0:
317,237,92163,1,8,0:0:0:0:
296,278,92247,1,8,0:0:0:0:
300,324,92332,1,8,0:0:0:0:
327,362,92416,1,8,0:0:0:0:
369,381,92500,6,0,L|465:349,1,94,12|0,0:0|0:0,0:0:0:0:
416,128,92837,1,8,0:0:0:0:
240,228,93006,2,0,P|192:216|156:180,1,94,0|8,0:0|0:0,0:0:0:0:
192,8,93343,1,0,0:0:0:0:
72,220,93511,1,8,0:0:0:0:
8,24,93680,1,0,0:0:0:0:
224,104,93849,6,0,L|317:93,1,94,8|0,0:0|0:0,0:0:0:0:
208,312,94186,2,0,L|114:322,1,94,8|0,0:0|0:0,0:0:0:0:
132,104,94523,1,8,0:0:0:0:
300,280,94691,1,0,0:0:0:0:
268,24,94860,1,8,0:0:0:0:
192,216,95028,1,0,0:0:0:0:
372,84,95197,6,0,P|448:124|436:232,1,188,8|8,0:0|0:0,0:0:0:0:
268,352,95702,1,0,0:0:0:0:
212,184,95871,2,0,L|180:92,1,94,8|0,0:0|0:0,0:0:0:0:
64,296,96208,2,0,L|96:388,1,94,8|0,0:0|0:0,0:0:0:0:
96,176,96545,5,8,0:0:0:0:
272,356,96714,1,0,0:0:0:0:
272,356,96798,1,0,0:0:0:0:
272,356,96882,1,8,0:0:0:0:
280,116,97051,1,0,0:0:0:0:
136,296,97219,1,8,0:0:0:0:
192,72,97388,1,0,0:0:0:0:
320,244,97556,1,8,0:0:0:0:
104,84,97725,1,0,0:0:0:0:
320,244,97893,6,0,P|392:252|448:160,1,188,8|8,0:0|0:0,0:0:0:0:
328,16,98399,1,0,0:0:0:0:
204,168,98568,2,0,L|96:196,1,94,8|0,0:0|0:0,0:0:0:0:
208,12,98905,1,8,0:0:0:0:
364,172,99073,1,0,0:0:0:0:
216,308,99242,6,0,P|165:314|116:292,1,94,8|0,0:0|0:0,0:0:0:0:
16,80,99579,2,0,L|124:108,1,94,8|0,0:0|0:0,0:0:0:0:
316,268,99916,1,8,0:0:0:0:
208,60,100084,1,0,0:0:0:0:
126,299,100253,1,8,0:0:0:0:
304,112,100422,1,0,0:0:0:0:
396,288,100590,6,0,L|408:396,1,94,8|0,0:0|0:0,0:0:0:0:
218,153,100927,2,0,L|206:45,1,94,8|0,0:0|0:0,0:0:0:0:
360,148,101264,1,8,0:0:0:0:
256,328,101433,1,0,0:0:0:0:
124,108,101601,1,8,0:0:0:0:
352,256,101770,6,0,P|404:248|444:216,1,94,0|8,0:0|0:0,0:0:0:0:
472,28,102107,1,0,0:0:0:0:
352,256,102275,1,8,0:0:0:0:
280,76,102444,1,0,0:0:0:0:
200,296,102613,5,8,0:0:0:0:
164,326,102697,1,8,0:0:0:0:
120,340,102781,1,8,0:0:0:0:
73,334,102865,1,8,0:0:0:0:
34,309,102950,1,8,0:0:0:0:
7,271,103034,1,8,0:0:0:0:
0,225,103118,1,8,0:0:0:0:
10,180,103202,1,8,0:0:0:0:
39,143,103287,6,0,P|76:124|144:128,1,94,4|0,0:0|0:0,0:0:0:0:
308,264,103624,1,8,0:0:0:0:
284,36,103792,2,0,L|260:136,1,94
152,324,104129,2,0,L|176:224,1,94,0|8,0:0|0:0,0:0:0:0:
348,184,104466,6,0,P|408:204|480:92,1,188
264,24,104972,1,8,0:0:0:0:
240,240,105141,1,0,0:0:0:0:
144,84,105309,2,0,B|64:60|12:120,1,141
12,148,105646,2,0,L|36:244,1,94,8|0,0:0|0:0,0:0:0:0:
296,144,105983,6,0,L|340:52,1,94
444,272,106320,1,8,0:0:0:0:
276,324,106489,2,0,P|176:288|172:196,1,188
188,12,106995,1,8,0:0:0:0:
320,176,107163,6,0,L|508:140,1,188
296,12,107669,2,0,L|202:30,1,94,8|0,0:0|0:0,0:0:0:0:
52,152,108006,2,0,L|20:304,1,141
20,320,108343,2,0,P|56:352|108:352,1,94,8|0,0:0|0:0,0:0:0:0:
280,320,108680,6,0,P|324:280|336:228,1,94
200,100,109017,1,8,0:0:0:0:
172,228,109186,2,0,L|150:328,1,94
100,104,109523,2,0,L|121:3,1,94,0|8,0:0|0:0,0:0:0:0:
220,156,109860,6,0,P|272:168|328:96,1,141
344,68,110197,1,8,0:0:0:0:
377,35,110281,1,8,0:0:0:0:
422,25,110365,1,8,0:0:0:0:
465,42,110450,1,8,0:0:0:0:
496,76,110534,1,8,0:0:0:0:
508,120,110618,1,8,0:0:0:0:
495,165,110702,6,8,L|476:212,1,47
296,316,110871,2,8,L|315:269,1,47
232,28,111040,2,8,L|212:74,1,47
116,272,111208,5,12,0:0:0:0:
116,272,111545,1,12,0:0:0:0:
416,112,111714,1,12,0:0:0:0:
364,288,112051,5,0,0:0:0:0:
216,336,112219,1,8,0:0:0:0:
171,350,112304,1,8,0:0:0:0:
126,342,112388,1,8,0:0:0:0:
89,313,112472,1,8,0:0:0:0:
72,270,112556,1,8,0:0:0:0:
77,224,112641,1,8,0:0:0:0:
104,186,112725,5,8,0:0:0:0:
204,376,112893,1,0,0:0:0:0:
296,116,113062,1,8,0:0:0:0:
260,304,113231,1,0,0:0:0:0:
148,76,113399,5,8,0:0:0:0:
352,280,113568,1,0,0:0:0:0:
344,0,113736,1,8,0:0:0:0:
160,264,113905,1,0,0:0:0:0:
356,96,114073,5,8,0:0:0:0:
402,98,114158,1,8,0:0:0:0:
445,117,114242,1,8,0:0:0:0:
479,148,114326,1,8,0:0:0:0:
501,190,114410,1,8,0:0:0:0:
507,236,114495,1,8,0:0:0:0:
497,282,114579,1,8,0:0:0:0:
472,322,114663,1,8,0:0:0:0:
436,351,114747,6,8,L|364:344,1,47,8|0,0:0|0:0,0:0:0:0:
232,144,114916,2,8,L|304:151,1,47,8|0,0:0|0:0,0:0:0:0:
144,376,115084,2,8,L|71:368,1,47,8|0,0:0|0:0,0:0:0:0:
24,72,115253,5,12,0:0:0:0:
256,192,115337,12,0,116770,0:0:0:0:
