osu file format v14

[General]
AudioFilename: magic deresute.mp3
AudioLeadIn: 1000
PreviewTime: 59466
Countdown: 0
SampleSet: Soft
StackLeniency: 0.7
Mode: 0
LetterboxInBreaks: 0
WidescreenStoryboard: 0

[Editor]
DistanceSpacing: 1.1
BeatDivisor: 2
GridSize: 4
TimelineZoom: 3.399999

[Metadata]
Title:M@GIC*
TitleUnicode:M@GIC☆
Artist:CINDERELLA PROJECT
ArtistUnicode:CINDERELLA PROJECT
Creator:Lami
Version:E@sy
Source:アイドルマスター シンデレラガールズ
Tags:idolmaster im@s the idolm@ster cinderella girls starlight stage gaia momochikun hvick225 tv size intoon
BeatmapID:853135
BeatmapSetID:389343

[Difficulty]
HPDrainRate:2
CircleSize:3
OverallDifficulty:2
ApproachRate:3
SliderMultiplier:0.799999999999999
SliderTickRate:1

[Events]
//Background and Video events
0,0,"BG.jpg",0,0
//Break Periods
//Storyboard Layer 0 (Background)
//Storyboard Layer 1 (Fail)
//Storyboard Layer 2 (Pass)
//Storyboard Layer 3 (Foreground)
//Storyboard Sound Samples

[TimingPoints]
-533,337.078651685393,4,2,1,50,1,0
9579,-100,4,2,1,53,0,0
10253,-100,4,2,1,56,0,0
10927,-100,4,2,1,59,0,0
11601,-100,4,2,1,53,0,0
12275,-100,4,2,1,56,0,0
12950,-100,4,2,1,59,0,0
13624,-100,4,2,1,62,0,0
14298,-100,4,2,1,56,0,0
14972,-100,4,2,1,59,0,0
15646,-100,4,2,1,62,0,0
16995,-100,4,2,1,50,0,0
25084,-100,4,2,3,50,0,0
45309,-100,4,2,1,50,0,0
46995,-100,4,2,2,50,0,0
57444,-100,4,2,1,50,0,0
59466,-100,4,2,1,55,0,0
60141,-100,4,2,1,65,0,1
70253,-100,4,2,1,65,0,0
70927,-100,4,2,1,65,0,1
81040,-100,4,2,1,65,0,0
81714,-100,4,2,1,65,0,1
91826,-100,4,2,1,65,0,0
92500,-100,4,2,1,65,0,1
103287,-100,4,2,1,65,0,0
112219,-100,4,2,1,55,0,0
112725,-100,4,2,1,65,0,0

[Colours]
Combo1 : 119,255,255
Combo2 : 255,160,115
Combo3 : 202,149,149
Combo4 : 183,111,255

[HitObjects]
144,316,141,6,0,L|236:328,1,79.9999999999999,0|0,0:0|0:0,0:0:0:0:
312,336,815,2,0,P|368:308|384:244,1,120,2|0,0:0|0:0,0:0:0:0:
308,96,1995,2,0,L|228:60,1,79.9999999999999,2|0,0:0|0:0,0:0:0:0:
152,40,2669,6,0,P|100:44|56:108,1,120,2|0,0:0|0:0,0:0:0:0:
68,180,3511,2,0,B|116:200|116:200|136:240|136:240|204:276,1,160,2|0,0:0|0:0,0:0:0:0:
320,304,4691,2,0,P|372:272|380:212,1,120,2|0,0:0|0:0,0:0:0:0:
346,136,5534,1,2,0:0:0:0:
208,28,6208,6,0,B|128:36|128:36|92:64,1,120,2|0,0:0|0:0,0:0:0:0:
50,135,7051,1,0,0:0:0:0:
41,222,7388,2,0,L|29:366,1,120,2|0,0:0|0:0,0:0:0:0:
116,360,8231,2,0,P|160:360|204:324,1,79.9999999999999,2|8,0:0|0:0,0:0:0:0:
232,264,8905,5,8,0:0:0:0:
236,176,9242,2,0,L|208:88,2,79.9999999999999,8|8|8,0:0|0:0|0:0,0:0:0:0:
312,224,10253,2,0,P|352:244|392:244,1,79.9999999999999,8|8,0:0|0:0,0:0:0:0:
464,200,10927,6,0,P|484:140|460:80,2,120,8|8|8,0:0|0:0|0:0,0:0:0:0:
386,244,12275,1,8,0:0:0:0:
312,288,12613,2,0,B|268:296|220:264|220:264|196:296|160:300,1,160,8|8,0:0|0:0,0:0:0:0:
92,260,13624,2,0,P|72:228|72:180,1,79.9999999999999,8|8,0:0|0:0,0:0:0:0:
100,104,14298,6,0,B|152:84|152:84|208:100|208:100|264:80,1,160,8|8,0:0|0:0,0:0:0:0:
332,48,15309,1,8,0:0:0:0:
416,80,15646,2,0,P|444:108|456:156,1,79.9999999999999,8|12,0:0|0:0,0:0:0:0:
440,232,16320,2,0,P|412:260|364:272,1,79.9999999999999,8|8,0:0|0:0,0:0:0:0:
286,263,16995,6,0,L|114:235,1,160,12|0,0:0|0:0,0:0:0:0:
96,156,18006,1,8,0:0:0:0:
100,68,18343,2,0,P|132:32|212:28,2,120,4|4|8,0:0|0:0|0:0,0:0:0:0:
96,156,19691,6,0,P|144:208|224:192,1,160
304,152,20702,1,8,0:0:0:0:
362,217,21040,2,0,L|398:337,2,120,0|0|8,0:0|0:0|0:0,0:0:0:0:
388,132,22388,5,0,0:0:0:0:
232,48,23062,2,0,P|184:48|132:72,1,79.9999999999999,0|8,0:0|0:0,0:0:0:0:
92,120,23736,2,0,B|84:160|84:160|100:196|100:196|84:236|84:236|100:272|100:272|84:308|84:308|96:344,1,240,0|4,0:0|0:0,0:0:0:0:
180,364,25084,6,0,P|220:364|256:344,1,79.9999999999999,8|8,0:0|0:0,0:0:0:0:
308,276,25759,2,0,P|308:236|289:201,1,79.9999999999999,8|8,0:0|0:0,0:0:0:0:
264,116,26433,2,0,P|296:64|392:64,2,160,8|8|8,0:0|0:0|0:0,0:0:0:0:
289,200,28118,5,8,0:0:0:0:
340,272,28455,2,0,P|384:280|416:268,1,79.9999999999999,8|8,0:0|0:0,0:0:0:0:
458,190,29129,2,0,B|434:86|434:86|386:58,1,160,8|8,0:0|0:0,0:0:0:0:
300,64,30141,1,8,0:0:0:0:
240,128,30478,6,0,L|224:228,1,79.9999999999999,8|8,0:0|0:0,0:0:0:0:
163,267,31152,2,0,L|147:367,1,79.9999999999999,8|8,0:0|0:0,0:0:0:0:
64,360,31826,2,0,P|12:316|28:220,1,160,8|8,0:0|0:0,0:0:0:0:
80,168,32837,1,8,0:0:0:0:
156,124,33174,6,0,B|216:136|216:136|248:164|248:164|308:176,1,160,8|8,0:0|0:0,0:0:0:0:
389,192,34186,1,8,0:0:0:0:
472,164,34523,2,0,B|488:128|488:128|480:88,1,79.9999999999999,8|8,0:0|0:0,0:0:0:0:
408,36,35197,2,0,L|328:48,1,79.9999999999999,10|10,0:0|0:0,0:0:0:0:
260,104,35871,6,0,L|244:276,1,160,10|8,0:0|0:0,0:0:0:0:
189,331,36882,1,8,0:0:0:0:
108,368,37219,2,0,P|68:360|36:332,1,79.9999999999999,8|8,0:0|0:0,0:0:0:0:
28,248,37893,2,0,P|35:209|60:178,1,79.9999999999999,0|8,0:0|0:0,0:0:0:0:
144,204,38568,6,0,P|236:216|276:152,1,160,8|8,0:0|0:0,0:0:0:0:
316,92,39579,1,8,0:0:0:0:
360,168,39916,2,0,L|408:256,1,79.9999999999999,8|8,0:0|0:0,0:0:0:0:
393,326,40590,6,0,P|361:346|317:346,1,79.9999999999999,8|8,0:0|0:0,0:0:0:0:
236,324,41264,2,0,P|180:324|128:368,2,120,8|0|8,0:0|0:0|0:0,0:0:0:0:
304,268,42613,2,0,P|276:219|211:196,2,120,8|0|8,0:0|0:0|0:0,0:0:0:0:
318,352,43961,6,0,P|406:324|418:160,1,240,8|8,0:0|0:0,0:0:0:0:
392,120,45309,1,8,0:0:0:0:
220,76,45983,2,0,L|140:100,1,79.9999999999999
80,160,46658,5,0,0:0:0:0:
56,244,46995,2,0,L|32:328,2,79.9999999999999,8|0|8,0:0|0:0|0:0,0:0:0:0:
144,228,48006,1,0,0:0:0:0:
204,292,48343,2,0,L|204:396,2,79.9999999999999,8|0|8,0:0|0:0|0:0,0:0:0:0:
228,208,49354,6,0,P|296:148|384:168,1,160
420,220,50365,1,8,0:0:0:0:
404,308,50702,2,0,P|376:336|336:344,1,79.9999999999999,0|8,0:0|0:0,0:0:0:0:
248,344,51377,2,0,P|209:335|181:307,1,79.9999999999999,0|8,0:0|0:0,0:0:0:0:
148,228,52051,6,0,L|116:104,1,120,4|4,0:0|0:0,0:0:0:0:
224,32,53062,1,8,0:0:0:0:
264,112,53399,2,0,P|304:144|376:132,1,120,4|4,0:0|0:0,0:0:0:0:
492,84,54410,1,8,0:0:0:0:
474,170,54747,6,0,L|438:318,2,120,4|4|8,0:0|0:0|0:0,0:0:0:0:
409,110,56096,2,0,P|370:96|325:102,1,79.9999999999999,0|8,0:0|0:0,0:0:0:0:
252,136,56770,2,0,P|212:138|174:125,1,79.9999999999999,8|8,0:0|0:0,0:0:0:0:
116,192,57444,6,0,L|-4:192,2,120,8|8|12,0:0|0:0|0:0,0:0:0:0:
175,258,58792,2,0,P|213:245|253:248,1,79.9999999999999
336,276,59466,2,0,P|375:278|413:265,1,79.9999999999999,8|8,0:0|0:0,0:0:0:0:
488,216,60141,6,0,P|488:120|440:72,1,160,4|0,0:0|0:0,0:0:0:0:
324,124,61320,2,0,P|272:132|236:120,1,79.9999999999999,0|0,0:0|0:0,0:0:0:0:
164,96,61995,2,0,P|112:88|48:124,1,120,0|8,0:0|0:0,0:0:0:0:
32,204,62837,6,0,L|20:308,1,79.9999999999999,0|8,0:0|0:0,0:0:0:0:
84,348,63511,1,0,0:0:0:0:
172,352,63849,2,0,P|228:316|212:188,1,200,8|0,0:0|0:0,0:0:0:0:
196,109,65028,2,0,P|244:47|290:35,1,120,0|2,0:0|0:0,0:0:0:0:
369,42,65871,6,0,L|465:74,1,79.9999999999999,8|0,0:0|0:0,0:0:0:0:
488,144,66545,1,8,0:0:0:0:
460,228,66882,2,0,P|404:260|344:244,2,120,0|0|8,0:0|0:0|0:0,0:0:0:0:
488,144,68231,6,0,L|440:60,1,79.9999999999999,0|8,0:0|0:0,0:0:0:0:
372,28,68905,1,0,0:0:0:0:
292,136,69410,2,0,P|224:144|176:96,1,120,0|8,0:0|0:0,0:0:0:0:
116,60,70253,2,0,L|64:140,1,79.9999999999999,8|8,0:0|0:0,0:0:0:0:
60,216,70927,6,0,B|79:267|79:267|183:307,1,160,4|0,0:0|0:0,0:0:0:0:
288,232,72107,2,0,L|308:144,1,79.9999999999999
328,68,72781,2,0,P|379:39|438:46,1,120,0|8,0:0|0:0,0:0:0:0:
474,126,73624,6,0,L|494:230,1,79.9999999999999,0|8,0:0|0:0,0:0:0:0:
444,280,74298,1,0,0:0:0:0:
312,260,74804,2,0,P|260:224|256:152,1,120,0|8,0:0|0:0,0:0:0:0:
260,84,75646,2,0,P|232:57|194:47,1,79.9999999999999,0|8,0:0|0:0,0:0:0:0:
108,72,76320,5,0,0:0:0:0:
36,124,76658,2,0,B|3:164|3:164|12:249,1,120,8|0,0:0|0:0,0:0:0:0:
56,308,77500,2,0,P|113:317|167:289,1,120,0|8,0:0|0:0,0:0:0:0:
188,204,78343,2,0,L|208:104,1,79.9999999999999,0|8,0:0|0:0,0:0:0:0:
224,40,79017,6,0,P|288:20|356:96,2,160
203,125,80702,1,8,0:0:0:0:
216,212,81040,2,0,P|256:248|304:252,1,79.9999999999999,8|8,0:0|0:0,0:0:0:0:
366,234,81714,6,0,L|382:150,2,79.9999999999999,12|8|8,0:0|0:0|0:0,0:0:0:0:
335,316,82725,1,8,0:0:0:0:
256,352,83062,2,0,P|216:360|168:344,1,79.9999999999999,8|8,0:0|0:0,0:0:0:0:
128,280,83736,2,0,P|120:240|136:192,1,79.9999999999999,8|8,0:0|0:0,0:0:0:0:
176,128,84410,6,0,B|228:100|228:100|272:112|272:112|324:88,1,160,8|8,0:0|0:0,0:0:0:0:
400,48,85422,1,8,0:0:0:0:
468,104,85759,2,0,P|480:144|472:192,1,79.9999999999999,8|8,0:0|0:0,0:0:0:0:
418,248,86433,2,0,P|378:260|330:252,1,79.9999999999999,8|8,0:0|0:0,0:0:0:0:
272,199,87107,5,8,0:0:0:0:
224,124,87444,2,0,L|208:28,2,79.9999999999999,8|8|8,0:0|0:0|0:0,0:0:0:0:
183,202,88455,1,8,0:0:0:0:
120,264,88792,2,0,P|80:276|40:268,1,79.9999999999999,8|8,0:0|0:0,0:0:0:0:
3,190,89466,1,8,0:0:0:0:
58,121,89804,6,0,B|87:100|87:100|135:100,1,79.9999999999999,8|8,0:0|0:0,0:0:0:0:
196,160,90478,2,0,B|240:160|240:160|269:139,1,79.9999999999999,8|8,0:0|0:0,0:0:0:0:
344,92,91152,2,0,P|388:100|384:224,1,160,8|8,0:0|0:0,0:0:0:0:
356,268,92163,1,8,0:0:0:0:
276,304,92500,6,0,L|168:296,2,79.9999999999999,12|8|8,0:0|0:0|0:0,0:0:0:0:
347,355,93511,1,8,0:0:0:0:
428,322,93849,2,0,P|456:282|460:246,1,79.9999999999999,8|8,0:0|0:0,0:0:0:0:
456,164,94523,2,0,P|432:131|397:113,1,79.9999999999999,8|8,0:0|0:0,0:0:0:0:
312,132,95197,6,0,B|278:140|236:123|236:123|210:164|226:209,1,160,8|8,0:0|0:0,0:0:0:0:
240,288,96208,1,8,0:0:0:0:
188,360,96545,2,0,P|140:372|104:364,1,79.9999999999999,8|8,0:0|0:0,0:0:0:0:
60,294,97219,2,0,L|40:214,1,79.9999999999999,8|8,0:0|0:0,0:0:0:0:
40,128,97893,6,0,P|84:64|172:64,1,160,8|8,0:0|0:0,0:0:0:0:
232,112,98905,1,8,0:0:0:0:
276,188,99242,2,0,P|319:203|368:196,1,79.9999999999999,8|8,0:0|0:0,0:0:0:0:
420,144,99916,2,0,P|421:104|406:67,1,79.9999999999999,8|8,0:0|0:0,0:0:0:0:
325,33,100590,6,0,B|281:45|281:45|237:109|237:109|177:125,1,160,8|8,0:0|0:0,0:0:0:0:
116,140,101601,1,8,0:0:0:0:
64,211,101938,2,0,L|44:307,1,79.9999999999999,8|8,0:0|0:0,0:0:0:0:
97,361,102613,2,0,P|141:373|193:365,1,79.9999999999999,8|8,0:0|0:0,0:0:0:0:
228,300,103287,6,0,P|268:264|348:272,1,120,4|0,0:0|0:0,0:0:0:0:
418,280,104129,2,0,L|454:204,1,79.9999999999999
440,76,104972,1,8,0:0:0:0:
356,48,105309,2,0,P|312:44|272:60,1,79.9999999999999,0|8,0:0|0:0,0:0:0:0:
232,130,105983,6,0,L|112:174,1,120
36,200,106826,1,0,0:0:0:0:
64,284,107163,2,0,P|92:332|152:356,1,120,2|8,0:0|0:0,0:0:0:0:
220,304,108006,2,0,P|248:268|252:216,1,79.9999999999999,0|8,0:0|0:0,0:0:0:0:
244,148,108680,5,0,0:0:0:0:
288,72,109017,2,0,P|337:56|412:64,1,120,8|0,0:0|0:0,0:0:0:0:
476,112,109860,6,0,B|488:152|472:192|472:192|432:208|432:208|416:240|416:240|376:256|376:256|360:288|360:288|320:304|320:304|296:344,1,320,0|12,0:0|0:0,0:0:0:0:
216,360,111545,2,0,L|160:344,1,40,12|12,0:0|0:0,0:0:0:0:
102,302,112051,2,0,P|94:254|102:214,1,79.9999999999999,0|8,0:0|0:0,0:0:0:0:
128,140,112725,6,0,P|164:120|216:124,1,79.9999999999999,8|8,0:0|0:0,0:0:0:0:
257,188,113399,2,0,P|296:187|331:167,1,79.9999999999999,8|8,0:0|0:0,0:0:0:0:
376,92,114073,2,0,P|412:76|504:144,1,160,8|8,0:0|0:0,0:0:0:0:
469,218,115084,2,0,L|448:260,1,40,8|12,0:0|0:0,0:0:0:0:
256,192,115422,12,0,116770,0:0:0:0:
