osu file format v14

[General]
AudioFilename: audio.mp3
AudioLeadIn: 0
PreviewTime: 82057
Countdown: 0
SampleSet: Soft
StackLeniency: 0.5
Mode: 0
LetterboxInBreaks: 0
WidescreenStoryboard: 0

[Editor]
Bookmarks: 114971
DistanceSpacing: 3.4
BeatDivisor: 4
GridSize: 4
TimelineZoom: 1.6

[Metadata]
Title:Onegai! Cinderella (M@STER VERSION)
TitleUnicode:お願い!シンデレラ (M@STER VERSION)
Artist:CINDERELLA GIRLS!!
ArtistUnicode:CINDERELLA GIRLS!!
Creator:Venix
Version:Extra
Source:アイドルマスター シンデレラガールズ
Tags:project cinderella idolm@ster Chalwa
BeatmapID:1051663
BeatmapSetID:493860

[Difficulty]
HPDrainRate:6.5
CircleSize:4
OverallDifficulty:8.3
ApproachRate:9.3
SliderMultiplier:1.6
SliderTickRate:1

[Events]
//Background and Video events
0,0,"bg-cinderella.jpg",0,0
//Break Periods
//Storyboard Layer 0 (Background)
//Storyboard Layer 1 (Fail)
//Storyboard Layer 2 (Pass)
//Storyboard Layer 3 (Foreground)
//Storyboard Sound Samples

[TimingPoints]
27200,342.857142857143,4,2,2,80,1,0
33885,-200,4,2,2,80,0,0
34742,-100,4,2,2,80,0,0
35942,-100,4,2,2,80,0,0
49314,-100,4,2,2,80,0,0
69542,-100,4,2,2,80,0,0
81714,-100,4,2,1,80,0,0
82057,-100,4,2,2,80,0,1
103657,-100,4,2,1,80,0,1
104000,-100,4,2,2,80,0,0
125942,-100,4,2,2,80,0,1
131085,-100,4,2,1,80,0,1
131428,-100,4,2,2,80,0,1
140685,-100,4,2,1,80,0,0
148571,-100,4,2,1,5,0,0

[Colours]
Combo1 : 255,0,0
Combo2 : 42,255,0
Combo3 : 0,0,255

[HitObjects]
116,100,27200,6,0,P|88:156|92:188,1,80,2|0,0:0|0:0,0:0:0:0:
108,268,27542,1,0,0:0:0:0:
196,336,27714,1,0,0:0:0:0:
304,308,27885,1,0,0:0:0:0:
428,124,28400,6,0,P|404:80|300:44,1,160,2|0,0:0|0:0,0:0:0:0:
224,120,28914,1,0,0:0:0:0:
144,44,29085,1,0,0:0:0:0:
56,112,29257,1,0,0:0:0:0:
120,280,29942,6,0,P|172:312|224:312,1,80,2|0,0:0|0:0,0:0:0:0:
284,300,30285,1,0,0:0:0:0:
376,324,30457,2,0,P|432:300|448:260,1,80
476,196,30800,1,0,0:0:0:0:
400,136,30971,1,0,0:0:0:0:
448,52,31142,2,0,P|416:24|360:24,1,80,2|0,0:0|0:0,0:0:0:0:
300,72,31485,1,0,0:0:0:0:
216,24,31657,1,0,0:0:0:0:
256,208,32000,2,0,P|188:228|160:216,1,80
44,200,32342,5,0,0:0:0:0:
96,280,32514,1,0,0:0:0:0:
188,312,32685,2,0,P|256:316|288:304,1,80,2|0,0:0|0:0,0:0:0:0:
304,224,33028,1,0,0:0:0:0:
264,136,33200,2,0,P|224:124|172:136,1,80
108,180,33542,1,0,0:0:0:0:
40,112,33714,1,0,0:0:0:0:
100,36,33885,6,0,P|224:48|256:108,1,200,2|0,0:0|0:0,0:0:0:0:
196,236,35085,5,0,0:0:0:0:
332,288,35257,1,0,0:0:0:0:
436,188,35428,2,0,P|448:128|436:84,1,80,2|0,0:0|0:0,0:0:0:0:
324,28,35771,1,0,0:0:0:0:
232,140,35942,2,0,P|176:168|124:160,1,80,2|0,0:0|0:0,0:0:0:0:
48,84,36285,1,0,0:0:0:0:
16,224,36457,1,0,0:0:0:0:
100,340,36628,2,0,P|144:376|188:372,1,80,2|0,0:0|0:0,0:0:0:0:
192,256,36971,5,2,0:0:0:0:
324,296,37142,1,0,0:0:0:0:
208,100,37314,1,0,0:0:0:0:
364,104,37485,1,2,0:0:0:0:
120,340,37828,5,0,0:0:0:0:
444,208,38000,1,0,0:0:0:0:
444,208,38085,1,0,0:0:0:0:
444,208,38171,5,6,0:0:0:0:
292,136,38342,1,0,0:0:0:0:
152,240,38514,1,0,0:0:0:0:
328,272,38685,1,0,0:0:0:0:
160,84,38857,5,14,0:0:0:0:
264,320,39028,1,0,0:0:0:0:
456,176,39200,1,0,0:0:0:0:
172,244,39371,2,0,P|112:252|68:232,1,80,10|0,0:0|0:0,0:0:0:0:
196,60,39714,1,0,0:0:0:0:
264,220,39885,1,0,0:0:0:0:
132,176,40057,1,0,0:0:0:0:
336,116,40228,1,10,0:0:0:0:
336,116,40400,1,8,0:0:0:0:
288,312,40571,2,0,P|256:348|192:344,1,80
48,212,40914,5,10,0:0:0:0:
192,256,41085,1,0,0:0:0:0:
192,256,41171,1,0,0:0:0:0:
192,256,41257,1,0,0:0:0:0:
144,60,41428,2,0,P|192:48|236:64,1,80,10|0,0:0|0:0,0:0:0:0:
392,200,41771,2,0,P|388:244|368:272,1,80,8|0,0:0|0:0,0:0:0:0:
184,316,42114,2,0,P|124:316|88:288,1,80,10|0,0:0|0:0,0:0:0:0:
220,72,42457,5,8,0:0:0:0:
152,248,42628,1,0,0:0:0:0:
328,176,42800,1,8,0:0:0:0:
104,96,42971,1,10,0:0:0:0:
248,252,43142,1,8,0:0:0:0:
328,176,43314,2,0,L|380:116,1,80,12|0,0:0|0:0,0:0:0:0:
440,44,43657,5,10,0:0:0:0:
440,44,43828,1,8,0:0:0:0:
424,184,44000,2,0,L|408:296,1,80,8|0,0:0|0:0,0:0:0:0:
400,336,44342,1,8,0:0:0:0:
356,136,44514,1,0,0:0:0:0:
256,336,44685,1,10,0:0:0:0:
472,304,44857,1,8,0:0:0:0:
288,224,45028,6,0,L|212:184,1,80
120,140,45371,1,10,0:0:0:0:
268,88,45542,1,8,0:0:0:0:
268,88,45628,1,0,0:0:0:0:
268,88,45714,1,0,0:0:0:0:
328,308,45885,1,8,0:0:0:0:
192,260,46057,1,0,0:0:0:0:
336,168,46228,2,0,P|388:144|404:48,1,160,14|0,0:0|0:0,0:0:0:0:
144,72,46742,1,8,0:0:0:0:
144,72,46914,1,0,0:0:0:0:
56,296,47085,5,8,0:0:0:0:
240,360,47257,1,0,0:0:0:0:
200,196,47428,1,10,0:0:0:0:
400,80,47600,5,8,0:0:0:0:
248,288,47942,1,8,0:0:0:0:
248,288,48114,1,0,0:0:0:0:
204,72,48457,5,8,0:0:0:0:
448,264,48800,1,8,0:0:0:0:
228,248,49142,6,0,P|180:280|140:288,1,80,10|0,0:0|0:0,0:0:0:0:
64,240,49485,1,0,0:0:0:0:
112,144,49657,2,0,P|168:112|212:104,1,80
276,116,50000,1,8,0:0:0:0:
324,224,50171,1,0,0:0:0:0:
420,204,50342,2,0,P|444:160|448:116,1,80,10|0,0:0|0:0,0:0:0:0:
448,56,50685,1,8,0:0:0:0:
304,24,50857,1,0,0:0:0:0:
208,132,51028,1,8,0:0:0:0:
352,116,51200,6,0,P|388:176|384:216,1,80
376,308,51542,1,0,0:0:0:0:
280,168,51714,1,8,0:0:0:0:
256,288,51885,2,0,P|228:320|188:336,1,80,10|0,0:0|0:0,0:0:0:0:
92,296,52228,1,8,0:0:0:0:
92,296,52400,1,0,0:0:0:0:
168,208,52571,2,0,P|200:176|212:128,1,80
228,48,52914,1,0,0:0:0:0:
316,92,53085,6,0,P|340:136|336:176,1,80,10|0,0:0|0:0,0:0:0:0:
292,284,53428,1,0,0:0:0:0:
180,148,53600,1,0,0:0:0:0:
96,248,53771,2,0,P|64:296|56:336,1,80,10|0,0:0|0:0,0:0:0:0:
188,296,54114,1,8,0:0:0:0:
320,184,54285,1,0,0:0:0:0:
364,336,54457,1,8,0:0:0:0:
452,232,54628,6,0,P|476:172|476:128,1,80,10|0,0:0|0:0,0:0:0:0:
472,56,54971,1,8,0:0:0:0:
472,56,55142,1,0,0:0:0:0:
364,124,55314,2,0,P|320:160|292:168,1,80
188,184,55657,1,0,0:0:0:0:
72,112,55828,2,0,P|48:72|48:16,1,80,10|0,0:0|0:0,0:0:0:0:
200,36,56171,1,8,0:0:0:0:
188,184,56342,1,0,0:0:0:0:
272,128,56514,1,8,0:0:0:0:
348,52,56685,6,0,P|408:48|456:72,1,80,10|0,0:0|0:0,0:0:0:0:
464,256,57028,1,0,0:0:0:0:
336,188,57200,1,8,0:0:0:0:
364,328,57371,2,0,P|328:360|288:368,1,80,10|0,0:0|0:0,0:0:0:0:
156,336,57714,1,0,0:0:0:0:
168,192,57885,1,8,0:0:0:0:
300,248,58057,1,8,0:0:0:0:
300,248,58142,1,0,0:0:0:0:
300,248,58228,1,0,0:0:0:0:
444,236,58400,6,0,P|456:180|456:152,1,80
344,84,58742,2,0,P|284:64|240:68,1,80
156,144,59085,1,0,0:0:0:0:
268,188,59257,2,0,P|328:216|360:252,1,80,10|0,0:0|0:0,0:0:0:0:
424,316,59600,1,8,0:0:0:0:
460,184,59771,1,0,0:0:0:0:
312,324,59942,1,8,0:0:0:0:
364,196,60114,6,0,P|368:140|336:96,1,80,10|0,0:0|0:0,0:0:0:0:
288,40,60457,1,0,0:0:0:0:
248,244,60628,1,0,0:0:0:0:
196,136,60800,2,0,P|164:92|136:72,1,80,8|0,0:0|0:0,0:0:0:0:
60,164,61142,1,0,0:0:0:0:
160,232,61314,2,0,P|204:292|204:328,1,80,10|0,0:0|0:0,0:0:0:0:
212,364,61657,1,0,0:0:0:0:
328,180,61828,1,0,0:0:0:0:
408,304,62000,1,8,0:0:0:0:
212,248,62171,6,0,P|168:248|124:228,1,80,10|0,0:0|0:0,0:0:0:0:
96,52,62514,1,8,0:0:0:0:
184,176,62685,1,0,0:0:0:0:
256,80,62857,2,0,L|320:144,1,80,10|0,0:0|0:0,0:0:0:0:
404,200,63200,1,8,0:0:0:0:
404,200,63371,1,0,0:0:0:0:
380,84,63542,2,0,P|344:56|304:48,1,80,2|0,0:0|0:0,0:0:0:0:
192,48,63885,1,8,0:0:0:0:
192,48,64057,1,0,0:0:0:0:
232,240,64228,5,0,0:0:0:0:
88,228,64400,1,8,0:0:0:0:
172,360,64571,1,0,0:0:0:0:
320,272,64742,2,0,P|368:236|384:208,1,80,10|0,0:0|0:0,0:0:0:0:
436,120,65085,1,8,0:0:0:0:
240,260,65257,1,0,0:0:0:0:
196,120,65428,1,8,0:0:0:0:
316,120,65600,2,0,P|352:92|376:52,1,80,10|0,0:0|0:0,0:0:0:0:
256,36,65942,1,8,0:0:0:0:
256,36,66114,1,0,0:0:0:0:
160,104,66285,6,0,P|120:144|108:176,1,80,2|0,0:0|0:0,0:0:0:0:
68,276,66628,1,0,0:0:0:0:
184,240,66800,2,0,P|252:244|280:260,1,80,2|0,0:0|0:0,0:0:0:0:
356,296,67142,1,8,0:0:0:0:
356,296,67314,1,0,0:0:0:0:
436,204,67485,2,0,P|440:132|432:104,1,80,0|2,0:0|0:0,0:0:0:0:
416,44,67828,1,8,0:0:0:0:
416,44,68000,1,0,0:0:0:0:
336,132,68171,1,8,0:0:0:0:
336,132,68257,1,0,0:0:0:0:
336,132,68342,6,0,P|344:184|336:216,1,80,10|0,0:0|0:0,0:0:0:0:
292,320,68685,1,0,0:0:0:0:
176,352,68857,1,0,0:0:0:0:
116,248,69028,2,0,P|96:192|104:144,1,80,2|0,0:0|0:0,0:0:0:0:
104,68,69371,1,0,0:0:0:0:
216,108,69542,6,0,P|272:156|280:176,1,80
316,252,69885,1,8,0:0:0:0:
316,252,70057,1,0,0:0:0:0:
212,312,70400,2,0,P|164:340|120:344,1,80,10|0,0:0|0:0,0:0:0:0:
40,344,70742,1,8,0:0:0:0:
40,344,70914,1,0,0:0:0:0:
124,120,71085,5,0,0:0:0:0:
424,248,71600,1,8,0:0:0:0:
424,248,71771,1,0,0:0:0:0:
424,248,72114,5,0,0:0:0:0:
188,300,72457,1,0,0:0:0:0:
268,124,72971,5,8,0:0:0:0:
268,124,73142,1,0,0:0:0:0:
64,252,73485,1,0,0:0:0:0:
64,252,73657,1,0,0:0:0:0:
296,320,73828,5,2,0:0:0:0:
136,140,74171,1,8,0:0:0:0:
276,56,74342,1,0,0:0:0:0:
372,184,74514,2,0,P|424:192|468:156,1,80,2|0,0:0|0:0,0:0:0:0:
452,60,74857,1,0,0:0:0:0:
272,208,75028,1,8,0:0:0:0:
368,264,75200,6,0,P|356:304|328:336,1,80,10|0,0:0|0:0,0:0:0:0:
196,328,75542,1,0,0:0:0:0:
240,76,75714,1,0,0:0:0:0:
116,200,75885,1,8,0:0:0:0:
116,200,75971,1,0,0:0:0:0:
116,200,76057,1,0,0:0:0:0:
312,164,76228,1,0,0:0:0:0:
184,300,76400,6,0,L|124:360,1,80,10|0,0:0|0:0,0:0:0:0:
48,108,76742,1,8,0:0:0:0:
172,160,76914,1,0,0:0:0:0:
40,264,77085,1,8,0:0:0:0:
148,308,77257,2,0,P|208:328|248:324,1,80,10|0,0:0|0:0,0:0:0:0:
348,296,77600,1,8,0:0:0:0:
348,296,77771,1,0,0:0:0:0:
376,108,78114,5,8,0:0:0:0:
268,236,78285,1,0,0:0:0:0:
200,100,78457,1,0,0:0:0:0:
428,228,78628,1,8,0:0:0:0:
428,228,78800,1,0,0:0:0:0:
376,108,78971,2,0,P|344:72|308:56,1,80,10|0,0:0|0:0,0:0:0:0:
212,24,79314,1,0,0:0:0:0:
120,216,80000,5,8,0:0:0:0:
120,216,80171,1,0,0:0:0:0:
376,108,80514,1,8,0:0:0:0:
264,64,80857,5,8,0:0:0:0:
252,320,81028,1,0,0:0:0:0:
336,184,81200,1,8,0:0:0:0:
188,156,81371,1,0,0:0:0:0:
96,200,81714,5,8,0:0:0:0:
76,256,81800,1,8,0:0:0:0:
96,312,81885,1,8,0:0:0:0:
152,332,81971,1,8,0:0:0:0:
208,324,82057,6,0,P|264:320|312:336,1,80
368,104,82400,1,0,0:0:0:0:
344,328,82571,1,8,0:0:0:0:
468,220,82742,2,0,P|484:172|480:128,1,80,10|0,0:0|0:0,0:0:0:0:
456,52,83085,1,0,0:0:0:0:
368,208,83257,6,0,P|348:248|316:280,1,80,0|2,0:0|0:0,0:0:0:0:
232,328,83600,1,8,0:0:0:0:
168,92,83771,1,0,0:0:0:0:
116,304,83942,1,8,0:0:0:0:
292,208,84114,1,0,0:0:0:0:
76,172,84285,1,8,0:0:0:0:
264,84,84457,2,0,P|316:64|368:80,1,80,4|0,0:0|0:0,0:0:0:0:
328,292,84800,5,10,0:0:0:0:
488,128,84971,1,8,0:0:0:0:
320,184,85142,1,0,0:0:0:0:
464,228,85314,2,0,P|472:284|456:328,1,80,10|0,0:0|0:0,0:0:0:0:
224,292,85657,1,8,0:0:0:0:
368,192,85828,1,0,0:0:0:0:
344,332,86000,2,0,L|296:260,1,80,10|0,0:0|0:0,0:0:0:0:
132,192,86342,5,8,0:0:0:0:
84,336,86514,1,0,0:0:0:0:
84,336,86685,1,0,0:0:0:0:
248,216,86857,1,10,0:0:0:0:
336,312,87028,1,8,0:0:0:0:
188,316,87200,1,0,0:0:0:0:
312,120,87371,1,8,0:0:0:0:
200,72,87542,2,0,L|112:32,1,80,10|0,0:0|0:0,0:0:0:0:
88,144,87885,5,0,0:0:0:0:
104,352,88057,1,8,0:0:0:0:
240,208,88228,1,0,0:0:0:0:
44,252,88400,1,8,0:0:0:0:
236,328,88571,1,0,0:0:0:0:
100,160,88742,2,0,P|72:128|44:84,1,80,10|0,0:0|0:0,0:0:0:0:
240,208,89085,1,0,0:0:0:0:
312,92,89257,5,8,0:0:0:0:
144,192,89429,1,0,0:0:0:0:
312,248,89600,1,8,0:0:0:0:
196,116,89772,1,0,0:0:0:0:
332,172,89943,1,8,0:0:0:0:
188,244,90114,1,0,0:0:0:0:
328,60,90285,5,10,0:0:0:0:
375,128,90457,2,0,L|448:88,1,80
228,40,90800,5,10,0:0:0:0:
200,276,90971,1,0,0:0:0:0:
120,52,91143,5,8,0:0:0:0:
304,252,91314,1,0,0:0:0:0:
55,176,91485,5,0,0:0:0:0:
55,176,91657,1,10,0:0:0:0:
454,94,91828,1,0,0:0:0:0:
36,172,92000,5,8,0:0:0:0:
454,288,92171,1,0,0:0:0:0:
76,328,92514,5,8,0:0:0:0:
76,328,92685,2,0,L|144:320,3,40
248,308,93028,6,0,L|332:296,1,80
408,228,93371,2,0,P|428:192|432:148,1,80
428,48,93714,1,0,0:0:0:0:
308,252,93885,1,8,0:0:0:0:
216,140,94057,1,0,0:0:0:0:
352,124,94228,6,0,P|392:156|412:192,1,80,10|0,0:0|0:0,0:0:0:0:
468,292,94571,1,8,0:0:0:0:
268,116,94742,1,0,0:0:0:0:
208,276,94914,1,8,0:0:0:0:
400,304,95085,2,0,P|352:336|312:344,1,80
204,168,95428,1,0,0:0:0:0:
96,320,95600,1,8,0:0:0:0:
288,248,95771,6,0,P|340:216|360:192,1,80,10|0,0:0|0:0,0:0:0:0:
212,80,96114,1,0,0:0:0:0:
432,56,96285,1,8,0:0:0:0:
436,136,96457,1,0,0:0:0:0:
288,24,96628,1,8,0:0:0:0:
256,176,96800,1,0,0:0:0:0:
212,80,96971,2,0,P|168:72|124:80,1,80,10|0,0:0|0:0,0:0:0:0:
32,116,97314,1,0,0:0:0:0:
160,168,97485,2,0,P|184:224|180:256,1,80
168,344,97828,5,0,0:0:0:0:
356,124,98000,1,8,0:0:0:0:
312,320,98171,1,10,0:0:0:0:
200,148,98342,1,8,0:0:0:0:
376,224,98514,2,0,L|456:256,1,80,10|0,0:0|0:0,0:0:0:0:
356,336,98857,1,0,0:0:0:0:
408,112,99028,2,0,P|368:80|308:76,1,80
180,168,99371,1,8,0:0:0:0:
180,168,99542,1,0,0:0:0:0:
312,160,99714,6,0,P|336:212|320:264,1,80,10|0,0:0|0:0,0:0:0:0:
316,332,100057,1,0,0:0:0:0:
44,296,100228,1,0,0:0:0:0:
272,204,100400,1,8,0:0:0:0:
316,332,100571,1,0,0:0:0:0:
52,216,100742,1,8,0:0:0:0:
316,332,100914,2,0,P|372:356|408:352,1,80
464,272,101257,1,0,0:0:0:0:
316,216,101428,1,8,0:0:0:0:
440,176,101600,2,0,P|460:100|448:72,1,80,10|0,0:0|0:0,0:0:0:0:
216,60,102114,5,8,0:0:0:0:
68,84,102285,1,0,0:0:0:0:
180,180,102457,1,8,0:0:0:0:
40,240,102800,5,8,0:0:0:0:
212,316,102971,1,0,0:0:0:0:
152,116,103142,1,0,0:0:0:0:
84,336,103314,1,0,0:0:0:0:
368,248,103657,5,8,0:0:0:0:
424,208,103742,1,8,0:0:0:0:
436,140,103828,1,8,0:0:0:0:
420,72,103914,1,8,0:0:0:0:
368,24,104000,6,0,P|320:8|272:12,1,80,10|0,0:0|0:0,0:0:0:0:
316,132,104342,1,0,0:0:0:0:
108,48,104514,1,8,0:0:0:0:
200,176,104685,1,0,0:0:0:0:
236,40,104857,1,8,0:0:0:0:
96,140,105028,2,0,L|28:188,1,80
264,184,105542,5,0,0:0:0:0:
176,324,105714,1,0,0:0:0:0:
352,272,105885,1,0,0:0:0:0:
168,220,106057,1,0,0:0:0:0:
296,336,106228,1,0,0:0:0:0:
168,220,106400,2,0,L|96:148,1,80
156,64,106742,2,0,P|200:36|240:36,1,80,10|0,0:0|0:0,0:0:0:0:
328,72,107085,5,0,0:0:0:0:
220,204,107257,1,8,0:0:0:0:
412,252,107428,1,0,0:0:0:0:
244,100,107600,1,8,0:0:0:0:
404,168,107771,1,0,0:0:0:0:
260,264,107942,6,0,L|172:332,1,80,10|0,0:0|0:0,0:0:0:0:
56,200,108286,1,0,0:0:0:0:
308,224,108457,1,0,0:0:0:0:
188,96,108629,1,0,0:0:0:0:
124,280,108800,1,0,0:0:0:0:
276,148,108971,1,0,0:0:0:0:
276,148,109142,2,0,L|344:88,1,80
392,40,109485,1,8,0:0:0:0:
392,40,109657,1,0,0:0:0:0:
472,176,109828,5,0,0:0:0:0:
300,264,110000,1,8,0:0:0:0:
472,332,110171,1,0,0:0:0:0:
324,128,110342,1,8,0:0:0:0:
212,268,110514,2,0,L|160:328,1,80,10|0,0:0|0:0,0:0:0:0:
68,276,110857,6,0,P|40:240|28:188,1,80
48,72,111200,1,0,0:0:0:0:
176,200,111371,1,8,0:0:0:0:
188,80,111542,1,0,0:0:0:0:
72,220,111714,2,0,P|56:260|60:304,1,80,10|0,0:0|0:0,0:0:0:0:
68,368,112057,5,8,0:0:0:0:
68,368,112400,1,8,0:0:0:0:
388,192,112571,1,0,0:0:0:0:
248,68,112914,5,0,0:0:0:0:
160,172,113085,1,0,0:0:0:0:
112,48,113257,1,0,0:0:0:0:
80,304,113428,5,0,0:0:0:0:
416,108,114285,5,0,0:0:0:0:
416,108,114628,1,0,0:0:0:0:
364,296,114971,5,0,0:0:0:0:
76,124,115485,5,8,0:0:0:0:
76,124,115657,1,0,0:0:0:0:
364,56,116171,5,10,0:0:0:0:
364,56,116342,1,0,0:0:0:0:
200,324,116857,1,8,0:0:0:0:
200,324,117028,1,0,0:0:0:0:
192,52,117714,5,10,0:0:0:0:
372,316,118228,5,8,0:0:0:0:
372,316,118400,1,0,0:0:0:0:
424,96,119085,5,0,0:0:0:0:
132,264,119600,1,0,0:0:0:0:
132,264,119771,1,0,0:0:0:0:
104,88,120457,5,10,0:0:0:0:
288,216,120800,2,0,L|356:268,1,80
424,180,121142,1,0,0:0:0:0:
320,136,121314,1,8,0:0:0:0:
412,68,121485,1,0,0:0:0:0:
304,36,121657,2,0,L|216:16,1,80
148,64,122000,1,8,0:0:0:0:
148,64,122171,1,0,0:0:0:0:
64,272,122514,5,0,0:0:0:0:
172,244,122685,1,0,0:0:0:0:
124,344,122857,1,0,0:0:0:0:
332,260,123200,5,0,0:0:0:0:
268,104,123371,1,8,0:0:0:0:
268,104,123542,1,0,0:0:0:0:
379,94,123885,5,8,0:0:0:0:
228,240,124057,1,8,0:0:0:0:
228,240,124228,1,0,0:0:0:0:
164,48,124571,5,0,0:0:0:0:
40,220,124742,1,0,0:0:0:0:
180,152,124914,1,0,0:0:0:0:
52,80,125085,1,0,0:0:0:0:
160,292,125428,5,0,0:0:0:0:
248,220,125600,1,0,0:0:0:0:
288,180,125685,1,0,0:0:0:0:
328,140,125771,1,0,0:0:0:0:
188,92,125942,5,14,0:0:0:0:
48,284,126114,1,0,0:0:0:0:
104,48,126285,5,8,0:0:0:0:
172,304,126457,1,0,0:0:0:0:
0,40,126628,5,14,0:0:0:0:
276,304,126800,1,0,0:0:0:0:
68,122,126971,5,8,0:0:0:0:
119,256,127142,1,0,0:0:0:0:
157,88,127314,5,14,0:0:0:0:
226,267,127485,1,0,0:0:0:0:
247,53,127657,5,8,0:0:0:0:
327,262,127828,1,0,0:0:0:0:
337,19,128000,5,14,0:0:0:0:
434,273,128171,1,0,0:0:0:0:
460,164,128342,5,8,0:0:0:0:
192,104,128514,1,0,0:0:0:0:
184,252,128685,5,14,0:0:0:0:
436,72,128857,1,0,0:0:0:0:
144,156,129028,5,8,0:0:0:0:
376,288,129200,1,0,0:0:0:0:
88,248,129371,5,14,0:0:0:0:
424,116,129542,1,0,0:0:0:0:
88,136,129714,5,8,0:0:0:0:
336,132,129885,1,0,0:0:0:0:
76,48,130057,5,0,0:0:0:0:
336,132,130228,1,0,0:0:0:0:
336,132,130400,1,8,0:0:0:0:
176,332,130742,5,6,0:0:0:0:
176,332,130914,1,8,0:0:0:0:
44,112,131085,5,8,0:0:0:0:
96,116,131171,1,8,0:0:0:0:
148,124,131257,1,8,0:0:0:0:
200,120,131342,1,8,0:0:0:0:
252,108,131428,2,0,P|324:100|360:120,1,80,10|0,0:0|0:0,0:0:0:0:
432,152,131771,5,8,0:0:0:0:
108,292,131942,1,0,0:0:0:0:
176,264,132285,5,0,0:0:0:0:
464,264,132457,1,10,0:0:0:0:
108,292,132628,2,0,L|24:300,1,80
280,124,132971,5,8,0:0:0:0:
388,304,133142,1,0,0:0:0:0:
200,340,133314,1,8,0:0:0:0:
396,324,133485,1,10,0:0:0:0:
288,144,133657,1,8,0:0:0:0:
300,252,133828,6,0,P|248:272|224:276,1,80,4|0,0:0|0:0,0:0:0:0:
140,348,134171,1,0,0:0:0:0:
176,116,134342,1,8,0:0:0:0:
80,236,134514,1,0,0:0:0:0:
228,200,134685,2,0,P|280:176|320:140,1,80,10|0,0:0|0:0,0:0:0:0:
384,188,135028,1,8,0:0:0:0:
356,20,135200,1,0,0:0:0:0:
228,116,135371,1,8,0:0:0:0:
400,96,135542,6,0,L|484:80,1,80,10|0,0:0|0:0,0:0:0:0:
340,240,135885,1,0,0:0:0:0:
480,176,136057,2,0,P|492:232|484:264,1,80,10|0,0:0|0:0,0:0:0:0:
448,344,136400,1,8,0:0:0:0:
384,132,136571,1,0,0:0:0:0:
324,260,136742,1,8,0:0:0:0:
256,136,136914,2,0,L|212:64,1,80
112,56,137257,1,8,0:0:0:0:
112,56,137428,1,0,0:0:0:0:
112,280,137771,5,0,0:0:0:0:
184,144,137942,1,0,0:0:0:0:
344,308,138114,1,0,0:0:0:0:
400,172,138285,1,0,0:0:0:0:
268,240,138628,2,0,P|220:260|184:264,1,80
68,248,138971,2,0,P|28:180|28:144,1,80
40,96,139314,1,0,0:0:0:0:
212,68,139485,1,0,0:0:0:0:
412,104,139828,5,0,0:0:0:0:
228,176,140000,1,0,0:0:0:0:
376,288,140171,1,0,0:0:0:0:
288,32,140342,1,0,0:0:0:0:
176,260,140685,5,6,0:0:0:0:
384,136,140857,1,0,0:0:0:0:
256,192,140942,12,0,148571,0:0:0:0:
