osu file format v14

[General]
AudioFilename: audio.mp3
AudioLeadIn: 0
PreviewTime: 81807
Countdown: 0
SampleSet: Normal
StackLeniency: 0.7
Mode: 3
LetterboxInBreaks: 0
SpecialStyle: 0
WidescreenStoryboard: 1

[Editor]
Bookmarks: 26935,37906,48877,70820
DistanceSpacing: 0.6
BeatDivisor: 2
GridSize: 4
TimelineZoom: 0.9

[Metadata]
Title:Onegai! Cinderella (M@STER VERSION)
TitleUnicode:お願い!シンデレラ (M@STER VERSION)
Artist:CINDERELLA GIRLS!!
ArtistUnicode:CINDERELLA GIRLS!!
Creator:Sun
Version:DH's Easy
Source:アイドルマスター シンデレラガールズ
Tags:Rivals_7 _Asha dudehacker THE IDOLM@STER THE IDOLMASTER japanese anime op opening 島村卯月 Shimamura Uzuki 大橋彩香 Oohashi Ayaka 小日向美穂 Kohinata Miho 津田美波 Tsuda Minami 三村かな子 Mimura Kanako 大坪由佳 Ootsubo Yuka 渋谷凛 Shibuya Rin 福原綾香 Fukuhara Ayaka 多田李衣菜 Tada Riina 青木瑠璃子 Aoki Ruriko 神崎蘭子 Kanzaki Ranko 内田 真礼 Uchida Maaya 本田未央 Honda Mio 原紗友里 Hara Sayuri 城ヶ崎美嘉 Jougasaki Mika 佳村はるか Yoshimura Haruka 城ヶ崎莉嘉 Jougasaki Rika 山本希望 Yamamoto Nozomi
BeatmapID:2283414
BeatmapSetID:1083155

[Difficulty]
HPDrainRate:7
CircleSize:7
OverallDifficulty:7
ApproachRate:5
SliderMultiplier:1.4
SliderTickRate:1

[Events]
//Background and Video events
Video,115,"OP.flv"
0,0,"mahou.jpg",0,0
//Break Periods
//Storyboard Layer 0 (Background)
//Storyboard Layer 1 (Fail)
//Storyboard Layer 2 (Pass)
//Storyboard Layer 3 (Foreground)
//Storyboard Layer 4 (Overlay)
//Storyboard Sound Samples
Sample,43407,0,"normal-hitfinish.wav",50
Sample,45978,0,"normal-hitfinish.wav",50
Sample,48207,0,"normal-hitfinish.wav",50
Sample,76150,0,"normal-hitfinish.wav",50
Sample,79064,0,"normal-hitfinish.wav",50
Sample,98264,0,"normal-hitfinish.wav",50
Sample,101007,0,"normal-hitfinish.wav",50
Sample,102207,0,"normal-hitfinish.wav",50
Sample,109235,0,"normal-hitfinish.wav",50
Sample,110607,0,"normal-hitfinish.wav",50
Sample,120550,0,"normal-hitfinish.wav",50
Sample,121921,0,"normal-hitfinish.wav",50
Sample,122607,0,"normal-hitfinish.wav",50
Sample,131178,0,"normal-hitfinish.wav",50
Sample,133921,0,"normal-hitfinish.wav",50
Sample,135292,0,"normal-hitfinish.wav",50
Sample,136664,0,"normal-hitfinish.wav",50
Sample,139235,0,"normal-hitfinish.wav",50
Sample,140607,0,"normal-hitfinish.wav",50

[TimingPoints]
26950,342.857142857143,4,1,1,70,1,0
81807,-100,4,1,1,70,0,1
102378,-100,4,1,1,70,0,0
125692,-100,4,1,1,70,0,1
133921,-100,4,1,1,70,0,0

[HitObjects]
329,192,26950,5,0,0:0:0:0:
36,192,27292,1,0,0:0:0:0:
109,192,27464,1,0,0:0:0:0:
182,192,27635,1,0,0:0:0:0:
256,192,28150,1,0,0:0:0:0:
329,192,28664,1,0,0:0:0:0:
402,192,28835,1,0,0:0:0:0:
475,192,29007,1,0,0:0:0:0:
109,192,29692,1,0,0:0:0:0:
182,192,29864,1,0,0:0:0:0:
329,192,30035,1,0,0:0:0:0:
402,192,30207,1,0,0:0:0:0:
475,192,30550,1,0,0:0:0:0:
329,192,30721,1,0,0:0:0:0:
182,192,30892,1,0,0:0:0:0:
109,192,31235,1,0,0:0:0:0:
256,192,31407,1,0,0:0:0:0:
402,192,31750,1,0,0:0:0:0:
36,192,32264,1,0,0:0:0:0:
329,192,32435,1,0,0:0:0:0:
182,192,32607,1,0,0:0:0:0:
475,192,32778,1,0,0:0:0:0:
256,192,32950,1,0,0:0:0:0:
109,192,33292,1,0,0:0:0:0:
182,192,33464,1,0,0:0:0:0:
402,192,33635,128,0,34492:0:0:0:0:
329,192,34835,1,0,0:0:0:0:
109,192,35007,1,0,0:0:0:0:
402,192,35178,1,0,0:0:0:0:
256,192,35350,1,0,0:0:0:0:
475,192,35521,1,8,0:0:0:0:
182,192,35692,1,10,0:0:0:0:
329,192,36035,1,0,0:0:0:0:
402,192,36207,1,8,0:0:0:0:
475,192,36378,1,10,0:0:0:0:
36,192,36721,1,10,0:0:0:0:
109,192,36892,1,10,0:0:0:0:
475,192,37064,1,10,0:0:0:0:
402,192,37235,1,10,0:0:0:0:
182,192,37578,1,2,0:0:0:0:
329,192,37750,1,8,0:0:0:0:
36,192,37921,1,4,0:0:0:0:
475,192,37921,1,2,0:0:0:0:
256,192,38264,1,8,0:0:0:0:
402,192,38435,1,0,0:0:0:0:
109,192,38607,1,2,0:0:0:0:
329,192,38778,1,2,0:0:0:0:
182,192,39121,128,2,40321:0:0:0:0:
402,192,40321,1,8,0:0:0:0:
329,192,40492,1,0,0:0:0:0:
36,192,40664,128,2,41178:0:0:0:0:
475,192,41178,1,2,0:0:0:0:
109,192,41521,1,2,0:0:0:0:
256,192,41864,128,2,43407:0:0:0:0:
475,192,43407,1,2,0:0:0:0:
182,192,43750,1,8,0:0:0:0:
329,192,43921,128,0,44435:0:0:0:0:
109,192,44435,1,8,0:0:0:0:
402,192,44778,1,2,0:0:0:0:
329,192,45121,1,8,0:0:0:0:
36,192,45464,1,2,0:0:0:0:
109,192,45635,1,2,0:0:0:0:
475,192,45807,1,8,0:0:0:0:
402,192,45978,128,2,47350:0:0:0:0:
36,192,47350,1,2,0:0:0:0:
329,192,47692,1,10,0:0:0:0:
329,192,47864,1,10,0:0:0:0:
475,192,48207,1,2,0:0:0:0:
182,192,48550,1,10,0:0:0:0:
36,192,48892,1,0,0:0:0:50:normal-hitfinish.wav
329,192,48892,1,2,0:0:0:0:
475,192,49235,1,8,0:0:0:0:
109,192,49578,1,2,0:0:0:0:
329,192,49921,1,8,0:0:0:0:
402,192,50264,1,2,0:0:0:0:
256,192,50607,1,8,0:0:0:0:
109,192,50950,1,2,0:0:0:0:
182,192,51121,1,2,0:0:0:0:
475,192,51292,1,8,0:0:0:0:
402,192,51635,1,2,0:0:0:0:
109,192,51978,1,8,0:0:0:0:
182,192,52321,1,2,0:0:0:0:
329,192,52492,1,2,0:0:0:0:
475,192,52664,1,8,0:0:0:0:
256,192,52835,1,2,0:0:0:0:
109,192,53178,1,2,0:0:0:0:
402,192,53350,1,8,0:0:0:0:
182,192,53521,1,2,0:0:0:0:
36,192,53864,1,2,0:0:0:0:
329,192,54035,1,8,0:0:0:0:
109,192,54378,1,2,0:0:0:0:
402,192,54721,1,8,0:0:0:0:
36,192,55064,1,2,0:0:0:0:
182,192,55235,1,2,0:0:0:0:
329,192,55407,1,8,0:0:0:0:
109,192,55750,1,2,0:0:0:0:
475,192,56092,1,8,0:0:0:0:
402,192,56435,1,2,0:0:0:0:
329,192,56607,1,2,0:0:0:0:
182,192,56778,1,8,0:0:0:0:
36,192,57121,1,2,0:0:0:0:
256,192,57464,1,8,0:0:0:0:
109,192,57807,1,2,0:0:0:0:
182,192,57978,1,2,0:0:0:0:
402,192,58150,1,8,0:0:0:0:
256,192,58492,1,2,0:0:0:0:
329,192,58835,1,8,0:0:0:0:
36,192,59007,1,2,0:0:0:0:
182,192,59350,1,2,0:0:0:0:
402,192,59521,1,8,0:0:0:0:
475,192,59864,1,0,0:0:0:50:normal-hitfinish.wav
256,192,59864,1,2,0:0:0:0:
109,192,60207,1,8,0:0:0:0:
402,192,60550,1,2,0:0:0:0:
329,192,60721,1,2,0:0:0:0:
182,192,60892,1,8,0:0:0:0:
475,192,61235,1,2,0:0:0:0:
256,192,61578,1,8,0:0:0:0:
36,192,61921,1,2,0:0:0:0:
109,192,62092,1,2,0:0:0:0:
329,192,62264,1,8,0:0:0:0:
182,192,62607,1,2,0:0:0:0:
402,192,62950,1,8,0:0:0:0:
475,192,63292,1,2,0:0:0:0:
329,192,63464,1,2,0:0:0:0:
36,192,63635,1,8,0:0:0:0:
256,192,63807,1,2,0:0:0:0:
109,192,64150,1,2,0:0:0:0:
402,192,64321,1,8,0:0:0:0:
182,192,64492,1,2,0:0:0:0:
329,192,64835,1,2,0:0:0:0:
36,192,65007,1,8,0:0:0:0:
182,192,65350,1,2,0:0:0:0:
475,192,65692,1,8,0:0:0:0:
402,192,66035,1,2,0:0:0:0:
329,192,66207,1,2,0:0:0:0:
109,192,66378,1,8,0:0:0:0:
256,192,66721,1,2,0:0:0:0:
36,192,67064,1,8,0:0:0:0:
475,192,67407,1,2,0:0:0:0:
329,192,67578,1,2,0:0:0:0:
182,192,67750,1,8,0:0:0:0:
109,192,68092,1,2,0:0:0:0:
402,192,68435,1,8,0:0:0:0:
36,192,68778,1,2,0:0:0:0:
182,192,68950,1,2,0:0:0:0:
329,192,69121,1,8,0:0:0:0:
402,192,69464,128,2,69807:0:0:0:0:
256,192,69807,128,8,70150:0:0:0:0:
109,192,70150,128,10,70835:0:0:0:0:
329,192,70835,1,2,0:0:0:0:
475,192,70835,128,0,71350:0:0:0:50:normal-hitfinish.wav
256,192,71350,128,2,71864:0:0:0:0:
182,192,71864,1,2,0:0:0:0:
402,192,72207,128,2,72892:0:0:0:0:
36,192,73235,1,2,0:0:0:0:
182,192,73407,1,0,0:0:0:0:
475,192,73578,1,2,0:0:0:0:
109,192,73921,1,0,0:0:0:0:
329,192,74092,128,2,74607:0:0:0:0:
402,192,74607,1,2,0:0:0:0:
256,192,74950,128,2,75635:0:0:0:0:
475,192,75807,1,8,0:0:0:0:
329,192,75978,1,2,0:0:0:0:
182,192,76150,1,8,0:0:0:0:
36,192,76492,1,2,0:0:0:0:
256,192,76664,1,8,0:0:0:0:
402,192,77007,1,2,0:0:0:0:
182,192,77350,1,8,0:0:0:0:
109,192,77521,1,2,0:0:0:0:
475,192,77864,1,2,0:0:0:0:
329,192,78035,1,8,0:0:0:0:
36,192,78207,1,0,0:0:0:0:
182,192,78378,1,2,0:0:0:0:
402,192,78721,1,8,0:0:0:0:
256,192,79064,128,2,79750:0:0:0:0:
109,192,79750,1,10,0:0:0:0:
109,192,79921,1,10,0:0:0:0:
402,192,80264,1,10,0:0:0:0:
36,192,80607,1,10,0:0:0:0:
182,192,80778,1,10,0:0:0:0:
329,192,80950,1,10,0:0:0:0:
475,192,81121,1,10,0:0:0:0:
256,192,81807,1,2,0:0:0:0:
36,192,81807,128,4,82150:0:0:0:0:
182,192,82150,1,8,0:0:0:0:
329,192,82321,1,0,0:0:0:0:
475,192,82492,128,2,82835:0:0:0:0:
256,192,83007,128,2,83350:0:0:0:0:
329,192,83521,1,8,0:0:0:0:
182,192,83692,1,0,0:0:0:0:
36,192,83864,128,2,84207:0:0:0:0:
182,192,84550,1,2,0:0:0:0:
329,192,84721,1,2,0:0:0:0:
475,192,84892,1,8,0:0:0:0:
109,192,85064,128,2,85407:0:0:0:0:
402,192,85407,1,2,0:0:0:0:
256,192,85578,1,8,0:0:0:0:
36,192,85750,128,2,86092:0:0:0:0:
182,192,86092,1,2,0:0:0:0:
329,192,86264,128,8,86607:0:0:0:0:
109,192,86607,128,2,86950:0:0:0:0:
475,192,87121,1,0,0:0:0:0:
329,192,87292,128,2,87635:0:0:0:0:
109,192,87635,1,8,0:0:0:0:
256,192,87807,1,0,0:0:0:0:
402,192,87978,128,2,88321:0:0:0:0:
36,192,88492,128,2,89007:0:0:0:0:
182,192,89007,128,8,89350:0:0:0:0:
329,192,89350,128,2,89692:0:0:0:0:
475,192,89692,128,8,90035:0:0:0:0:
109,192,90035,1,2,0:0:0:0:
256,192,90207,1,2,0:0:0:0:
109,192,90378,1,8,0:0:0:0:
402,192,90721,1,2,0:0:0:0:
256,192,90892,1,2,0:0:0:0:
402,192,91064,1,8,0:0:0:0:
36,192,91407,1,2,0:0:0:0:
182,192,91578,1,8,0:0:0:0:
329,192,91750,1,8,0:0:0:0:
475,192,91921,1,8,0:0:0:0:
256,192,92264,1,2,0:0:0:0:
109,192,92435,1,8,0:0:0:0:
329,192,92778,1,0,0:0:0:50:normal-hitfinish.wav
475,192,92778,128,2,93121:0:0:0:0:
36,192,93121,1,8,0:0:0:0:
182,192,93292,1,0,0:0:0:0:
329,192,93464,128,2,93807:0:0:0:0:
109,192,93978,128,2,94321:0:0:0:0:
256,192,94321,1,2,0:0:0:0:
475,192,94492,1,8,0:0:0:0:
329,192,94664,1,0,0:0:0:0:
182,192,94835,128,2,95178:0:0:0:0:
109,192,95521,1,2,0:0:0:0:
402,192,95692,1,2,0:0:0:0:
182,192,95864,1,8,0:0:0:0:
475,192,96035,128,2,96378:0:0:0:0:
36,192,96378,1,2,0:0:0:0:
182,192,96550,1,8,0:0:0:0:
329,192,96721,128,2,97064:0:0:0:0:
475,192,97064,1,2,0:0:0:0:
109,192,97235,128,8,97578:0:0:0:0:
256,192,97578,128,2,97921:0:0:0:0:
402,192,98092,1,0,0:0:0:0:
329,192,98264,1,2,0:0:0:0:
109,192,98435,1,0,0:0:0:0:
182,192,98607,1,8,0:0:0:0:
475,192,98778,128,10,99121:0:0:0:0:
329,192,99121,1,2,0:0:0:0:
256,192,99292,1,8,0:0:0:0:
36,192,99464,128,6,100321:0:0:0:0:
402,192,100664,1,8,0:0:0:0:
329,192,100835,1,0,0:0:0:0:
109,192,101007,1,2,0:0:0:0:
182,192,101178,1,0,0:0:0:0:
475,192,101350,1,8,0:0:0:0:
329,192,101521,1,10,0:0:0:0:
36,192,101864,1,2,0:0:0:0:
256,192,102035,1,8,0:0:0:0:
402,192,102207,1,10,0:0:0:0:
182,192,102550,1,10,0:0:0:0:
182,192,102721,1,10,0:0:0:0:
329,192,102892,1,10,0:0:0:0:
329,192,103064,1,10,0:0:0:0:
256,192,103407,1,8,0:0:0:0:
109,192,103750,128,6,104435:0:0:0:0:
475,192,104435,1,2,0:0:0:0:
329,192,104607,1,2,0:0:0:0:
256,192,104950,128,2,106150:0:0:0:0:
36,192,106150,1,8,0:0:0:0:
182,192,106321,1,0,0:0:0:0:
402,192,106492,1,2,0:0:0:0:
329,192,106835,1,8,0:0:0:0:
109,192,107007,1,0,0:0:0:0:
256,192,107350,1,2,0:0:0:0:
475,192,107692,128,2,108721:0:0:0:0:
329,192,108721,1,2,0:0:0:0:
182,192,108892,1,8,0:0:0:0:
36,192,109064,1,0,0:0:0:0:
402,192,109235,128,2,109578:0:0:0:0:
329,192,109578,128,8,109921:0:0:0:0:
182,192,109921,128,2,110264:0:0:0:0:
109,192,110264,128,8,110607:0:0:0:0:
475,192,110607,128,2,110950:0:0:0:0:
256,192,110950,128,8,111292:0:0:0:0:
36,192,111292,1,2,0:0:0:0:
402,192,111464,1,2,0:0:0:0:
182,192,111635,1,8,0:0:0:0:
329,192,111807,128,10,113178:0:0:0:0:
182,192,113178,128,10,114035:0:0:0:0:
475,192,114035,1,10,0:0:0:0:
329,192,114378,1,10,0:0:0:0:
36,192,114721,1,4,0:0:0:0:
256,192,114721,1,2,0:0:0:0:
36,192,115235,1,2,0:0:0:0:
36,192,115407,1,2,0:0:0:0:
329,192,116092,1,2,0:0:0:0:
329,192,116607,1,2,0:0:0:0:
329,192,116778,1,2,0:0:0:0:
182,192,117464,1,2,0:0:0:0:
182,192,117978,1,2,0:0:0:0:
182,192,118150,1,2,0:0:0:0:
475,192,118835,1,2,0:0:0:0:
475,192,119350,1,2,0:0:0:0:
475,192,119521,1,2,0:0:0:0:
109,192,120207,1,2,0:0:0:0:
256,192,120550,1,8,0:0:0:0:
402,192,120892,1,2,0:0:0:0:
182,192,121064,1,2,0:0:0:0:
329,192,121407,1,2,0:0:0:0:
402,192,121750,1,2,0:0:0:0:
109,192,121921,1,8,0:0:0:0:
36,192,122264,1,2,0:0:0:0:
182,192,122435,1,2,0:0:0:0:
329,192,122607,1,8,0:0:0:0:
109,192,122950,1,2,0:0:0:0:
475,192,123121,1,10,0:0:0:0:
475,192,123292,1,8,0:0:0:0:
256,192,123635,1,2,0:0:0:0:
36,192,123807,1,8,0:0:0:0:
36,192,123978,1,8,0:0:0:0:
475,192,124321,1,2,0:0:0:0:
182,192,124492,1,8,0:0:0:0:
402,192,124664,1,8,0:0:0:0:
109,192,124835,1,8,0:0:0:0:
256,192,125178,1,2,0:0:0:0:
329,192,125350,1,8,0:0:0:0:
36,192,125692,128,2,126035:0:0:0:0:
402,192,125692,1,4,0:0:0:0:
475,192,126035,1,8,0:0:0:0:
329,192,126207,1,0,0:0:0:0:
182,192,126378,128,2,126721:0:0:0:0:
475,192,126892,128,2,127235:0:0:0:0:
256,192,127235,1,2,0:0:0:0:
36,192,127407,1,8,0:0:0:0:
182,192,127578,1,0,0:0:0:0:
329,192,127750,128,2,128092:0:0:0:0:
109,192,128435,1,10,0:0:0:0:
402,192,128607,1,2,0:0:0:0:
256,192,128778,1,8,0:0:0:0:
36,192,128950,128,2,129292:0:0:0:0:
182,192,129292,1,2,0:0:0:0:
329,192,129464,1,8,0:0:0:0:
475,192,129635,128,2,129978:0:0:0:0:
256,192,129978,1,2,0:0:0:0:
109,192,130150,128,8,130492:0:0:0:0:
402,192,130492,128,10,130835:0:0:0:0:
36,192,130835,1,8,0:0:0:0:
475,192,131178,1,2,0:0:0:0:
329,192,131350,1,0,0:0:0:0:
109,192,131521,1,8,0:0:0:0:
182,192,131692,128,10,132035:0:0:0:0:
402,192,132035,1,2,0:0:0:0:
329,192,132207,1,8,0:0:0:0:
256,192,132378,128,6,133235:0:0:0:0:
36,192,133578,1,10,0:0:0:0:
182,192,133750,1,0,0:0:0:0:
475,192,133921,1,2,0:0:0:0:
329,192,134092,1,0,0:0:0:0:
109,192,134264,1,8,0:0:0:0:
402,192,134435,128,10,134778:0:0:0:0:
36,192,134950,1,8,0:0:0:0:
182,192,135121,1,8,0:0:0:0:
475,192,135292,1,2,0:0:0:0:
256,192,135464,1,0,0:0:0:0:
402,192,135635,1,8,0:0:0:0:
109,192,135807,128,6,136150:0:0:0:0:
36,192,136321,1,8,0:0:0:0:
182,192,136492,1,0,0:0:0:0:
475,192,136664,1,2,0:0:0:0:
329,192,136835,1,0,0:0:0:0:
109,192,137007,1,8,0:0:0:0:
402,192,137178,128,6,137864:0:0:0:0:
256,192,138035,1,8,0:0:0:0:
36,192,138378,128,0,138721:0:0:0:0:
182,192,138721,128,0,139235:0:0:0:0:
475,192,139235,128,2,139578:0:0:0:0:
109,192,139578,1,10,0:0:0:0:
109,192,139750,1,10,0:0:0:0:
402,192,139921,1,10,0:0:0:0:
402,192,140092,1,10,0:0:0:0:
256,192,140435,1,8,0:0:0:0:
329,192,140607,128,2,146264:0:0:0:0:
