osu file format v14

[General]
AudioFilename: audio.mp3
AudioLeadIn: 0
PreviewTime: 81807
Countdown: 0
SampleSet: Normal
StackLeniency: 0.7
Mode: 3
LetterboxInBreaks: 0
SpecialStyle: 0
WidescreenStoryboard: 1

[Editor]
DistanceSpacing: 0.6
BeatDivisor: 2
GridSize: 4
TimelineZoom: 1.8

[Metadata]
Title:Onegai! Cinderella (M@STER VERSION)
TitleUnicode:お願い!シンデレラ (M@STER VERSION)
Artist:CINDERELLA GIRLS!!
ArtistUnicode:CINDERELLA GIRLS!!
Creator:Sun
Version:Asha's Normal
Source:アイドルマスター シンデレラガールズ
Tags:Rivals_7 _Asha dudehacker THE IDOLM@STER THE IDOLMASTER japanese anime op opening 島村卯月 Shimamura Uzuki 大橋彩香 Oohashi Ayaka 小日向美穂 Kohinata Miho 津田美波 Tsuda Minami 三村かな子 Mimura Kanako 大坪由佳 Ootsubo Yuka 渋谷凛 Shibuya Rin 福原綾香 Fukuhara Ayaka 多田李衣菜 Tada Riina 青木瑠璃子 Aoki Ruriko 神崎蘭子 Kanzaki Ranko 内田 真礼 Uchida Maaya 本田未央 Honda Mio 原紗友里 Hara Sayuri 城ヶ崎美嘉 Jougasaki Mika 佳村はるか Yoshimura Haruka 城ヶ崎莉嘉 Jougasaki Rika 山本希望 Yamamoto Nozomi
BeatmapID:2267343
BeatmapSetID:1083155

[Difficulty]
HPDrainRate:7.5
CircleSize:7
OverallDifficulty:7.5
ApproachRate:5
SliderMultiplier:1.4
SliderTickRate:1

[Events]
//Background and Video events
0,0,"mahou.jpg",0,0
Video,115,"OP.flv"
//Break Periods
//Storyboard Layer 0 (Background)
//Storyboard Layer 1 (Fail)
//Storyboard Layer 2 (Pass)
//Storyboard Layer 3 (Foreground)
//Storyboard Layer 4 (Overlay)
//Storyboard Sound Samples

[TimingPoints]
26950,342.857142857143,4,1,1,70,1,0
81807,-100,4,1,1,70,0,1
102378,-100,4,1,1,70,0,0
125692,-100,4,1,1,70,0,1
133921,-100,4,1,1,70,0,0

[HitObjects]
475,192,26950,128,0,28150:0:0:0:0:
36,192,26950,1,0,0:0:0:0:
329,192,27292,1,0,0:0:0:0:
256,192,27464,1,0,0:0:0:0:
182,192,27635,1,0,0:0:0:0:
36,192,28150,128,0,29692:0:0:0:0:
402,192,28150,1,0,0:0:0:0:
182,192,28664,1,0,0:0:0:0:
256,192,28835,1,0,0:0:0:0:
329,192,29007,1,0,0:0:0:0:
475,192,29692,1,0,0:0:0:0:
402,192,29692,128,0,30892:0:0:0:0:
182,192,29864,1,0,0:0:0:0:
109,192,30035,1,0,0:0:0:0:
329,192,30207,1,0,0:0:0:0:
256,192,30550,1,0,0:0:0:0:
182,192,30721,1,0,0:0:0:0:
109,192,30892,128,0,32092:0:0:0:0:
36,192,30892,1,0,0:0:0:0:
475,192,31235,1,0,0:0:0:0:
182,192,31407,1,0,0:0:0:0:
402,192,31750,1,0,0:0:0:0:
256,192,32092,128,0,32435:0:0:0:0:
182,192,32264,1,0,0:0:0:0:
402,192,32435,128,0,32950:0:0:0:0:
36,192,32435,1,0,0:0:0:0:
329,192,32607,1,0,0:0:0:0:
182,192,32778,1,0,0:0:0:0:
475,192,32950,128,0,33635:0:0:0:0:
109,192,32950,1,0,0:0:0:0:
256,192,33292,1,0,0:0:0:0:
329,192,33464,1,0,0:0:0:0:
36,192,33635,128,0,34492:0:0:0:0:
182,192,33635,1,0,0:0:0:0:
36,192,34835,1,0,0:0:0:0:
475,192,35007,1,0,0:0:0:0:
402,192,35178,1,0,0:0:0:0:
109,192,35178,128,0,35521:0:0:0:0:
256,192,35350,1,0,0:0:0:0:
182,192,35521,1,0,0:0:0:0:
329,192,35521,1,8,0:0:0:0:
36,192,35692,1,2,0:0:0:0:
475,192,35692,128,8,36207:0:0:0:0:
256,192,36035,1,0,0:0:0:0:
109,192,36207,1,0,0:0:0:0:
402,192,36207,1,8,0:0:0:0:
329,192,36378,1,2,0:0:0:0:
182,192,36378,128,8,36721:0:0:0:0:
402,192,36721,1,2,0:0:0:0:
475,192,36721,1,8,0:0:0:0:
402,192,36892,1,2,0:0:0:0:
475,192,36892,1,8,0:0:0:0:
36,192,37064,1,8,0:0:0:0:
109,192,37064,1,2,0:0:0:0:
36,192,37235,1,8,0:0:0:0:
109,192,37235,1,2,0:0:0:0:
256,192,37578,1,2,0:0:0:0:
402,192,37578,1,0,0:0:0:0:
182,192,37750,1,8,0:0:0:0:
329,192,37835,1,8,0:0:0:0:
36,192,37921,1,4,0:0:0:0:
475,192,37921,128,2,38264:0:0:0:0:
402,192,38264,1,0,0:0:0:0:
182,192,38264,1,8,0:0:0:0:
329,192,38607,128,2,38778:0:0:0:0:
109,192,38778,128,2,38950:0:0:0:0:
475,192,38950,1,0,0:0:0:0:
256,192,38950,1,8,0:0:0:0:
36,192,39121,128,2,39464:0:0:0:0:
402,192,39464,1,2,0:0:0:0:
109,192,39635,1,0,0:0:0:0:
329,192,39635,1,8,0:0:0:0:
256,192,39807,1,0,0:0:0:0:
256,192,39978,128,2,40150:0:0:0:0:
109,192,40150,1,2,0:0:0:0:
182,192,40321,128,0,40492:0:0:0:0:
402,192,40321,1,8,0:0:0:0:
36,192,40492,128,0,40664:0:0:0:0:
475,192,40664,128,2,41007:0:0:0:0:
109,192,41007,128,0,41350:0:0:0:0:
36,192,41007,1,8,0:0:0:0:
402,192,41178,128,2,41350:0:0:0:0:
256,192,41350,1,0,0:0:0:0:
329,192,41521,128,2,41692:0:0:0:0:
36,192,41692,1,0,0:0:0:0:
475,192,41692,1,8,0:0:0:0:
182,192,41864,128,2,42378:0:0:0:0:
329,192,42207,1,2,0:0:0:0:
475,192,42378,128,0,42721:0:0:0:0:
402,192,42378,1,8,0:0:0:0:
256,192,42721,1,2,0:0:0:0:
182,192,42892,1,2,0:0:0:0:
36,192,43064,128,0,43407:0:0:0:0:
109,192,43064,1,8,0:0:0:0:
329,192,43407,1,2,0:0:0:0:
402,192,43407,128,0,43750:0:0:0:50:normal-hitfinish.wav
182,192,43750,1,8,0:0:0:0:
109,192,43750,128,0,44092:0:0:0:0:
329,192,43921,1,0,0:0:0:0:
475,192,44092,128,2,44435:0:0:0:0:
256,192,44264,1,2,0:0:0:0:
36,192,44435,1,0,0:0:0:0:
182,192,44435,128,8,44778:0:0:0:0:
329,192,44778,128,2,45121:0:0:0:0:
402,192,45121,128,8,45464:0:0:0:0:
109,192,45121,1,0,0:0:0:0:
256,192,45464,1,2,0:0:0:0:
475,192,45635,128,2,45807:0:0:0:0:
36,192,45807,128,0,45978:0:0:0:0:
182,192,45807,1,8,0:0:0:0:
402,192,45978,1,2,0:0:0:0:
329,192,45978,128,0,46492:0:0:0:50:normal-hitfinish.wav
109,192,46321,1,2,0:0:0:0:
109,192,46492,128,0,46835:0:0:0:0:
256,192,46492,1,8,0:0:0:0:
475,192,46835,1,2,0:0:0:0:
475,192,47007,1,2,0:0:0:0:
36,192,47178,1,0,0:0:0:0:
402,192,47178,1,8,0:0:0:0:
109,192,47350,128,0,47692:0:0:0:0:
182,192,47350,1,2,0:0:0:0:
329,192,47692,1,2,0:0:0:0:
402,192,47692,1,8,0:0:0:0:
402,192,47864,1,8,0:0:0:0:
329,192,47864,1,2,0:0:0:0:
182,192,48207,1,0,0:0:0:50:normal-hitfinish.wav
329,192,48207,1,2,0:0:0:0:
475,192,48550,1,2,0:0:0:0:
36,192,48550,1,8,0:0:0:0:
109,192,48892,1,0,0:0:0:0:
402,192,48892,1,0,0:0:0:50:normal-hitfinish.wav
256,192,48892,1,2,0:0:0:0:
182,192,49235,1,0,0:0:0:0:
329,192,49235,1,8,0:0:0:0:
109,192,49407,1,0,0:0:0:0:
402,192,49578,1,2,0:0:0:0:
329,192,49750,1,0,0:0:0:0:
182,192,49921,1,8,0:0:0:0:
36,192,49921,1,0,0:0:0:0:
256,192,50092,1,0,0:0:0:0:
402,192,50264,1,2,0:0:0:0:
36,192,50435,1,0,0:0:0:0:
182,192,50607,1,0,0:0:0:0:
329,192,50607,1,8,0:0:0:0:
475,192,50778,1,0,0:0:0:0:
109,192,50950,1,2,0:0:0:0:
182,192,51121,1,2,0:0:0:0:
329,192,51292,1,8,0:0:0:0:
402,192,51292,1,0,0:0:0:0:
256,192,51464,1,0,0:0:0:0:
36,192,51635,1,2,0:0:0:0:
475,192,51807,1,0,0:0:0:0:
402,192,51978,1,8,0:0:0:0:
182,192,51978,1,0,0:0:0:0:
329,192,52150,1,0,0:0:0:0:
109,192,52321,1,2,0:0:0:0:
182,192,52492,1,2,0:0:0:0:
256,192,52664,1,8,0:0:0:0:
36,192,52664,1,0,0:0:0:0:
402,192,52835,128,2,53178:0:0:0:0:
182,192,53178,1,2,0:0:0:0:
475,192,53350,1,0,0:0:0:0:
402,192,53350,1,8,0:0:0:0:
109,192,53521,128,2,54035:0:0:0:0:
402,192,53864,1,2,0:0:0:0:
182,192,54035,1,0,0:0:0:0:
329,192,54035,1,8,0:0:0:0:
256,192,54207,1,0,0:0:0:0:
36,192,54378,1,0,0:0:0:0:
475,192,54378,1,2,0:0:0:0:
402,192,54721,1,0,0:0:0:0:
329,192,54721,1,8,0:0:0:0:
182,192,54892,1,0,0:0:0:0:
475,192,55064,1,2,0:0:0:0:
402,192,55235,1,2,0:0:0:0:
256,192,55407,1,8,0:0:0:0:
182,192,55407,1,0,0:0:0:0:
329,192,55578,1,0,0:0:0:0:
36,192,55750,1,2,0:0:0:0:
182,192,55921,1,0,0:0:0:0:
402,192,56092,1,8,0:0:0:0:
475,192,56092,1,0,0:0:0:0:
109,192,56264,1,0,0:0:0:0:
256,192,56435,1,2,0:0:0:0:
402,192,56607,1,2,0:0:0:0:
182,192,56778,1,8,0:0:0:0:
109,192,56778,1,0,0:0:0:0:
256,192,56950,1,0,0:0:0:0:
36,192,57121,1,2,0:0:0:0:
475,192,57292,1,0,0:0:0:0:
402,192,57464,1,0,0:0:0:0:
329,192,57464,1,8,0:0:0:0:
182,192,57635,1,0,0:0:0:0:
109,192,57807,1,2,0:0:0:0:
329,192,57978,1,2,0:0:0:0:
109,192,58150,1,8,0:0:0:0:
36,192,58150,1,0,0:0:0:0:
256,192,58321,1,0,0:0:0:0:
256,192,58492,128,2,58835:0:0:0:0:
36,192,58835,1,0,0:0:0:0:
475,192,58835,1,8,0:0:0:0:
329,192,59007,128,2,59521:0:0:0:0:
182,192,59350,1,2,0:0:0:0:
402,192,59521,1,8,0:0:0:0:
109,192,59521,128,0,59864:0:0:0:0:
256,192,59864,1,2,0:0:0:0:
475,192,59864,1,0,0:0:0:50:normal-hitfinish.wav
329,192,60207,1,8,0:0:0:0:
36,192,60207,1,0,0:0:0:0:
182,192,60378,1,0,0:0:0:0:
402,192,60550,1,2,0:0:0:0:
329,192,60721,1,2,0:0:0:0:
256,192,60892,1,8,0:0:0:0:
109,192,60892,1,0,0:0:0:0:
475,192,61064,1,0,0:0:0:0:
36,192,61235,1,2,0:0:0:0:
182,192,61407,1,0,0:0:0:0:
256,192,61578,1,8,0:0:0:0:
402,192,61578,1,0,0:0:0:0:
109,192,61750,1,0,0:0:0:0:
182,192,61921,1,2,0:0:0:0:
256,192,62092,1,2,0:0:0:0:
475,192,62264,1,0,0:0:0:0:
329,192,62264,1,8,0:0:0:0:
36,192,62435,1,0,0:0:0:0:
402,192,62607,1,2,0:0:0:0:
329,192,62778,1,0,0:0:0:0:
256,192,62950,1,8,0:0:0:0:
109,192,62950,1,0,0:0:0:0:
182,192,63121,1,0,0:0:0:0:
36,192,63292,1,2,0:0:0:0:
329,192,63464,1,2,0:0:0:0:
475,192,63635,1,0,0:0:0:0:
109,192,63635,1,8,0:0:0:0:
256,192,63807,128,2,64150:0:0:0:0:
475,192,64150,1,2,0:0:0:0:
402,192,64321,1,8,0:0:0:0:
36,192,64321,1,0,0:0:0:0:
182,192,64492,128,2,65007:0:0:0:0:
329,192,64835,1,2,0:0:0:0:
109,192,65007,1,0,0:0:0:0:
475,192,65007,1,8,0:0:0:0:
256,192,65350,1,2,0:0:0:0:
402,192,65350,1,0,0:0:0:0:
182,192,65692,1,0,0:0:0:0:
329,192,65692,1,8,0:0:0:0:
256,192,65864,1,0,0:0:0:0:
475,192,66035,1,2,0:0:0:0:
402,192,66207,1,2,0:0:0:0:
36,192,66378,1,0,0:0:0:0:
182,192,66378,1,8,0:0:0:0:
329,192,66550,1,0,0:0:0:0:
109,192,66721,1,2,0:0:0:0:
182,192,66892,1,0,0:0:0:0:
475,192,67064,1,0,0:0:0:0:
329,192,67064,1,8,0:0:0:0:
256,192,67235,1,0,0:0:0:0:
402,192,67407,1,2,0:0:0:0:
329,192,67578,1,2,0:0:0:0:
182,192,67750,1,8,0:0:0:0:
36,192,67750,1,0,0:0:0:0:
256,192,67921,1,0,0:0:0:0:
109,192,68092,1,2,0:0:0:0:
475,192,68264,1,0,0:0:0:0:
402,192,68435,1,8,0:0:0:0:
256,192,68435,1,0,0:0:0:0:
182,192,68607,1,0,0:0:0:0:
329,192,68778,1,2,0:0:0:0:
256,192,68950,1,2,0:0:0:0:
36,192,69121,1,0,0:0:0:0:
475,192,69121,1,8,0:0:0:0:
109,192,69292,1,0,0:0:0:0:
109,192,69464,128,0,69807:0:0:0:0:
402,192,69464,1,2,0:0:0:0:
329,192,69635,1,8,0:0:0:0:
475,192,69807,128,0,70150:0:0:0:0:
329,192,69807,1,8,0:0:0:0:
182,192,70150,1,8,0:0:0:0:
36,192,70150,128,2,70835:0:0:0:0:
329,192,70492,128,2,70835:0:0:0:0:
182,192,70835,1,2,0:0:0:0:
475,192,70835,128,0,71178:0:0:0:50:normal-hitfinish.wav
329,192,71178,1,0,0:0:0:0:
109,192,71350,128,2,71864:0:0:0:0:
402,192,71521,1,0,0:0:0:0:
475,192,71521,1,8,0:0:0:0:
329,192,71864,128,2,72207:0:0:0:0:
36,192,72207,128,2,72892:0:0:0:0:
256,192,72721,1,2,0:0:0:0:
475,192,72892,1,0,0:0:0:0:
402,192,72892,1,8,0:0:0:0:
182,192,73235,1,2,0:0:0:0:
329,192,73407,1,0,0:0:0:0:
475,192,73578,128,0,73921:0:0:0:0:
36,192,73578,1,2,0:0:0:0:
182,192,73921,1,0,0:0:0:0:
402,192,74092,128,2,74607:0:0:0:0:
36,192,74264,1,0,0:0:0:0:
109,192,74264,1,8,0:0:0:0:
256,192,74607,128,2,74950:0:0:0:0:
475,192,74950,128,2,75464:0:0:0:0:
109,192,75121,1,8,0:0:0:0:
109,192,75292,1,8,0:0:0:0:
329,192,75464,1,2,0:0:0:0:
109,192,75635,1,8,0:0:0:0:
402,192,75807,1,8,0:0:0:0:
329,192,75978,1,2,0:0:0:0:
256,192,76150,1,8,0:0:0:0:
36,192,76150,128,0,76664:0:0:0:50:normal-hitfinish.wav
475,192,76492,1,2,0:0:0:0:
182,192,76664,1,8,0:0:0:0:
329,192,76664,128,0,76835:0:0:0:0:
402,192,77007,128,2,77350:0:0:0:0:
256,192,77178,1,2,0:0:0:0:
109,192,77350,1,0,0:0:0:0:
182,192,77350,1,8,0:0:0:0:
475,192,77521,128,2,78035:0:0:0:0:
36,192,77864,1,2,0:0:0:0:
329,192,78035,1,0,0:0:0:0:
256,192,78035,1,8,0:0:0:0:
182,192,78207,1,0,0:0:0:0:
402,192,78378,128,2,78550:0:0:0:0:
256,192,78550,1,2,0:0:0:0:
109,192,78721,1,8,0:0:0:0:
475,192,78721,128,0,78892:0:0:0:0:
36,192,79064,128,0,79750:0:0:0:50:normal-hitfinish.wav
402,192,79064,128,2,79750:0:0:0:0:
182,192,79750,1,2,0:0:0:0:
329,192,79750,1,8,0:0:0:0:
329,192,79921,1,8,0:0:0:0:
182,192,79921,1,2,0:0:0:0:
475,192,80264,1,2,0:0:0:0:
402,192,80264,128,8,80607:0:0:0:0:
36,192,80607,1,8,0:0:0:0:
109,192,80607,1,2,0:0:0:0:
475,192,80778,1,2,0:0:0:0:
329,192,80778,1,8,0:0:0:0:
329,192,80950,1,8,0:0:0:0:
182,192,80950,1,2,0:0:0:0:
182,192,81121,1,2,0:0:0:0:
36,192,81121,1,8,0:0:0:0:
329,192,81464,1,8,0:0:0:0:
402,192,81464,1,0,0:0:0:0:
182,192,81635,1,8,0:0:0:0:
475,192,81807,1,4,0:0:0:0:
36,192,81807,128,0,82150:0:0:0:0:
256,192,81807,1,2,0:0:0:0:
182,192,82150,1,0,0:0:0:0:
329,192,82150,1,8,0:0:0:0:
402,192,82321,1,0,0:0:0:0:
109,192,82492,128,2,82835:0:0:0:0:
256,192,82664,1,2,0:0:0:0:
182,192,82835,1,8,0:0:0:0:
475,192,82835,1,0,0:0:0:0:
402,192,83007,128,2,83521:0:0:0:0:
256,192,83350,1,2,0:0:0:0:
109,192,83521,1,8,0:0:0:0:
36,192,83521,1,0,0:0:0:0:
402,192,83692,1,0,0:0:0:0:
182,192,83864,128,2,84207:0:0:0:0:
329,192,84035,1,2,0:0:0:0:
329,192,84207,128,0,84550:0:0:0:0:
475,192,84207,1,8,0:0:0:0:
402,192,84550,1,0,0:0:0:0:
109,192,84550,1,2,0:0:0:0:
329,192,84721,1,2,0:0:0:0:
182,192,84892,1,8,0:0:0:0:
475,192,84892,1,0,0:0:0:0:
256,192,85064,128,2,85407:0:0:0:0:
36,192,85407,1,2,0:0:0:0:
402,192,85578,1,0,0:0:0:0:
329,192,85578,1,8,0:0:0:0:
109,192,85750,128,2,86092:0:0:0:0:
475,192,86092,1,2,0:0:0:0:
402,192,86264,128,0,86607:0:0:0:0:
256,192,86264,1,8,0:0:0:0:
182,192,86607,128,2,86950:0:0:0:0:
475,192,86950,1,0,0:0:0:0:
329,192,86950,1,8,0:0:0:0:
109,192,87121,1,0,0:0:0:0:
402,192,87292,128,0,87635:0:0:0:0:
109,192,87292,1,2,0:0:0:0:
182,192,87635,1,8,0:0:0:0:
329,192,87635,1,0,0:0:0:0:
36,192,87807,1,0,0:0:0:0:
475,192,87978,128,2,88321:0:0:0:0:
256,192,88150,1,2,0:0:0:0:
402,192,88321,1,0,0:0:0:0:
182,192,88321,1,8,0:0:0:0:
109,192,88492,128,2,88835:0:0:0:0:
329,192,88835,1,2,0:0:0:0:
475,192,89007,1,8,0:0:0:0:
329,192,89007,128,0,89350:0:0:0:0:
182,192,89350,1,2,0:0:0:0:
402,192,89521,1,2,0:0:0:0:
109,192,89692,1,0,0:0:0:0:
402,192,89692,128,8,90035:0:0:0:0:
329,192,90035,1,0,0:0:0:0:
182,192,90035,1,2,0:0:0:0:
475,192,90207,1,0,0:0:0:0:
109,192,90207,1,2,0:0:0:0:
402,192,90378,1,0,0:0:0:0:
36,192,90378,1,8,0:0:0:0:
182,192,90721,1,2,0:0:0:0:
329,192,90721,1,0,0:0:0:0:
402,192,90892,1,2,0:0:0:0:
36,192,90892,1,0,0:0:0:0:
475,192,91064,1,8,0:0:0:0:
109,192,91064,1,0,0:0:0:0:
182,192,91407,1,0,0:0:0:0:
329,192,91407,1,2,0:0:0:0:
109,192,91578,1,0,0:0:0:0:
402,192,91578,1,8,0:0:0:0:
402,192,91750,1,8,0:0:0:0:
109,192,91750,1,0,0:0:0:0:
256,192,91921,1,8,0:0:0:0:
36,192,91921,128,0,92264:0:0:0:0:
475,192,91921,128,0,92264:0:0:0:0:
182,192,92264,1,0,0:0:0:0:
329,192,92264,1,2,0:0:0:0:
402,192,92435,1,8,0:0:0:0:
109,192,92435,1,0,0:0:0:0:
256,192,92607,1,8,0:0:0:0:
475,192,92778,1,0,0:0:0:0:
109,192,92778,128,0,93121:0:0:0:50:normal-hitfinish.wav
329,192,92778,1,2,0:0:0:0:
402,192,93121,1,8,0:0:0:0:
182,192,93121,1,0,0:0:0:0:
329,192,93292,1,0,0:0:0:0:
475,192,93464,128,2,93807:0:0:0:0:
182,192,93635,1,2,0:0:0:0:
256,192,93807,1,8,0:0:0:0:
36,192,93807,1,0,0:0:0:0:
109,192,93978,128,2,94321:0:0:0:0:
475,192,94321,1,2,0:0:0:0:
256,192,94492,1,8,0:0:0:0:
182,192,94492,1,0,0:0:0:0:
329,192,94664,1,0,0:0:0:0:
402,192,94835,128,2,95178:0:0:0:0:
36,192,95007,1,2,0:0:0:0:
36,192,95178,128,0,95521:0:0:0:0:
182,192,95178,1,8,0:0:0:0:
256,192,95521,1,2,0:0:0:0:
475,192,95521,1,0,0:0:0:0:
329,192,95692,1,2,0:0:0:0:
402,192,95864,1,8,0:0:0:0:
36,192,95864,1,0,0:0:0:0:
182,192,96035,128,2,96378:0:0:0:0:
256,192,96378,1,2,0:0:0:0:
329,192,96550,1,8,0:0:0:0:
402,192,96550,1,0,0:0:0:0:
109,192,96721,128,2,97064:0:0:0:0:
475,192,97064,1,2,0:0:0:0:
329,192,97235,128,0,97578:0:0:0:0:
402,192,97235,1,8,0:0:0:0:
109,192,97578,128,2,97921:0:0:0:0:
36,192,97921,1,0,0:0:0:0:
475,192,97921,128,8,98264:0:0:0:0:
256,192,98092,1,0,0:0:0:0:
182,192,98264,1,0,0:0:0:50:normal-hitfinish.wav
329,192,98264,1,2,0:0:0:0:
402,192,98435,1,0,0:0:0:0:
475,192,98607,1,8,0:0:0:0:
36,192,98607,1,0,0:0:0:0:
256,192,98778,1,8,0:0:0:0:
109,192,98778,128,2,99121:0:0:0:0:
329,192,99121,1,2,0:0:0:0:
182,192,99292,1,8,0:0:0:0:
475,192,99292,1,0,0:0:0:0:
256,192,99464,1,4,0:0:0:0:
402,192,99464,128,2,100321:0:0:0:0:
109,192,99807,1,2,0:0:0:0:
329,192,99978,1,0,0:0:0:0:
182,192,99978,1,8,0:0:0:0:
36,192,100321,1,2,0:0:0:0:
182,192,100492,1,2,0:0:0:0:
475,192,100664,1,0,0:0:0:0:
109,192,100664,1,8,0:0:0:0:
329,192,100835,1,0,0:0:0:0:
182,192,101007,1,2,0:0:0:0:
36,192,101007,1,0,0:0:0:50:normal-hitfinish.wav
402,192,101178,1,0,0:0:0:0:
329,192,101350,1,8,0:0:0:0:
256,192,101350,1,0,0:0:0:0:
475,192,101521,1,2,0:0:0:0:
109,192,101521,128,8,101864:0:0:0:0:
402,192,101864,1,2,0:0:0:0:
182,192,102035,1,8,0:0:0:0:
36,192,102035,1,0,0:0:0:0:
329,192,102207,128,10,102550:0:0:0:0:
475,192,102207,1,0,0:0:0:50:normal-hitfinish.wav
402,192,102550,1,2,0:0:0:0:
109,192,102550,1,8,0:0:0:0:
402,192,102721,1,2,0:0:0:0:
109,192,102721,1,8,0:0:0:0:
329,192,102892,1,2,0:0:0:0:
182,192,102892,1,8,0:0:0:0:
329,192,103064,1,2,0:0:0:0:
182,192,103064,1,8,0:0:0:0:
475,192,103407,1,8,0:0:0:0:
36,192,103407,1,0,0:0:0:0:
329,192,103578,1,8,0:0:0:0:
256,192,103664,1,8,0:0:0:0:
109,192,103750,1,2,0:0:0:0:
402,192,103750,128,4,104435:0:0:0:0:
36,192,104092,1,0,0:0:0:0:
329,192,104092,1,8,0:0:0:0:
256,192,104435,128,2,104607:0:0:0:0:
475,192,104607,128,2,104778:0:0:0:0:
109,192,104778,1,8,0:0:0:0:
36,192,104778,1,0,0:0:0:0:
182,192,104950,128,2,105978:0:0:0:0:
329,192,105292,1,2,0:0:0:0:
475,192,105464,1,8,0:0:0:0:
36,192,105464,1,0,0:0:0:0:
402,192,105807,1,2,0:0:0:0:
329,192,105978,1,2,0:0:0:0:
475,192,106150,1,0,0:0:0:0:
109,192,106150,128,8,106321:0:0:0:0:
402,192,106321,128,0,106492:0:0:0:0:
36,192,106492,128,2,106835:0:0:0:0:
329,192,106835,1,8,0:0:0:0:
475,192,106835,128,0,107178:0:0:0:0:
182,192,107007,128,0,107178:0:0:0:0:
109,192,107178,1,2,0:0:0:0:
256,192,107350,128,2,107521:0:0:0:0:
182,192,107521,1,8,0:0:0:0:
36,192,107521,1,0,0:0:0:0:
402,192,107692,128,2,108721:0:0:0:0:
109,192,108035,1,2,0:0:0:0:
182,192,108207,1,8,0:0:0:0:
256,192,108207,1,0,0:0:0:0:
475,192,108550,1,2,0:0:0:0:
36,192,108721,1,2,0:0:0:0:
182,192,108892,1,8,0:0:0:0:
329,192,108892,1,0,0:0:0:0:
475,192,109064,1,0,0:0:0:0:
402,192,109235,1,2,0:0:0:0:
109,192,109235,128,0,109578:0:0:0:50:normal-hitfinish.wav
329,192,109578,1,8,0:0:0:0:
182,192,109578,128,0,109921:0:0:0:0:
402,192,109921,128,2,110264:0:0:0:0:
109,192,110264,1,8,0:0:0:0:
329,192,110264,128,0,110607:0:0:0:0:
475,192,110607,1,2,0:0:0:0:
36,192,110607,128,0,110950:0:0:0:50:normal-hitfinish.wav
329,192,110950,1,8,0:0:0:0:
182,192,110950,128,0,111292:0:0:0:0:
402,192,111292,1,2,0:0:0:0:
109,192,111464,1,2,0:0:0:0:
475,192,111635,1,0,0:0:0:0:
402,192,111635,1,8,0:0:0:0:
36,192,111807,1,8,0:0:0:0:
109,192,111807,128,2,113178:0:0:0:0:
256,192,112150,1,2,0:0:0:0:
475,192,112321,1,0,0:0:0:0:
329,192,112321,1,8,0:0:0:0:
256,192,112664,1,2,0:0:0:0:
36,192,112835,1,2,0:0:0:0:
329,192,113007,1,0,0:0:0:0:
182,192,113007,1,8,0:0:0:0:
475,192,113178,128,2,114035:0:0:0:0:
402,192,113178,1,8,0:0:0:0:
109,192,113864,1,2,0:0:0:0:
256,192,114035,1,8,0:0:0:0:
36,192,114035,1,2,0:0:0:0:
182,192,114378,1,2,0:0:0:0:
402,192,114378,128,8,114721:0:0:0:0:
329,192,114721,1,2,0:0:0:0:
109,192,114721,128,4,115064:0:0:0:0:
182,192,115064,1,0,0:0:0:0:
256,192,115235,1,2,0:0:0:0:
256,192,115407,1,2,0:0:0:0:
475,192,115921,128,0,116435:0:0:0:0:
36,192,116092,1,2,0:0:0:0:
256,192,116435,1,0,0:0:0:0:
329,192,116607,1,2,0:0:0:0:
329,192,116778,128,2,117121:0:0:0:0:
402,192,117121,128,0,117464:0:0:0:0:
36,192,117464,1,2,0:0:0:0:
109,192,117635,1,0,0:0:0:0:
475,192,117807,1,0,0:0:0:0:
182,192,117978,128,2,118321:0:0:0:0:
256,192,118150,1,2,0:0:0:0:
402,192,118321,1,0,0:0:0:0:
329,192,118492,1,0,0:0:0:0:
256,192,118664,128,0,119007:0:0:0:0:
475,192,119007,1,0,0:0:0:0:
109,192,119178,128,0,119521:0:0:0:0:
402,192,119350,1,2,0:0:0:0:
402,192,119521,1,2,0:0:0:0:
36,192,119864,128,0,120207:0:0:0:0:
329,192,120035,1,0,0:0:0:0:
256,192,120207,1,2,0:0:0:0:
182,192,120207,128,0,120550:0:0:0:0:
475,192,120550,1,0,0:0:0:50:normal-hitfinish.wav
402,192,120550,1,0,0:0:0:0:
329,192,120550,1,8,0:0:0:0:
109,192,120721,1,0,0:0:0:0:
182,192,120892,1,2,0:0:0:0:
182,192,121064,1,2,0:0:0:0:
475,192,121407,128,2,121921:0:0:0:0:
329,192,121750,1,2,0:0:0:0:
109,192,121921,1,8,0:0:0:0:
182,192,121921,1,0,0:0:0:50:normal-hitfinish.wav
36,192,121921,128,0,122264:0:0:0:0:
256,192,122264,1,2,0:0:0:0:
182,192,122435,1,2,0:0:0:0:
329,192,122607,1,8,0:0:0:0:
402,192,122607,1,0,0:0:0:50:normal-hitfinish.wav
475,192,122607,128,0,122950:0:0:0:0:
36,192,122950,1,2,0:0:0:0:
402,192,123121,1,2,0:0:0:0:
256,192,123121,1,8,0:0:0:0:
256,192,123292,1,8,0:0:0:0:
402,192,123292,1,0,0:0:0:0:
475,192,123635,1,2,0:0:0:0:
109,192,123807,1,0,0:0:0:0:
256,192,123807,1,8,0:0:0:0:
109,192,123978,1,0,0:0:0:0:
256,192,123978,1,8,0:0:0:0:
36,192,124321,1,0,0:0:0:0:
475,192,124321,1,2,0:0:0:0:
109,192,124492,1,8,0:0:0:0:
402,192,124492,1,0,0:0:0:0:
329,192,124664,1,0,0:0:0:0:
182,192,124664,1,8,0:0:0:0:
36,192,124835,128,0,125178:0:0:0:0:
475,192,124835,128,8,125178:0:0:0:0:
256,192,125178,1,2,0:0:0:0:
182,192,125350,1,8,0:0:0:0:
329,192,125350,1,0,0:0:0:0:
475,192,125521,1,8,0:0:0:0:
109,192,125692,1,4,0:0:0:0:
402,192,125692,1,2,0:0:0:0:
256,192,125692,128,0,126035:0:0:0:0:
402,192,126035,1,8,0:0:0:0:
109,192,126035,1,0,0:0:0:0:
402,192,126378,1,0,0:0:0:0:
109,192,126378,1,2,0:0:0:0:
182,192,126550,1,2,0:0:0:0:
36,192,126721,1,0,0:0:0:0:
329,192,126721,1,8,0:0:0:0:
256,192,126892,1,2,0:0:0:0:
182,192,127064,1,8,0:0:0:0:
475,192,127064,1,0,0:0:0:0:
182,192,127407,1,8,0:0:0:0:
475,192,127407,1,0,0:0:0:0:
475,192,127750,1,0,0:0:0:0:
182,192,127750,1,2,0:0:0:0:
329,192,127921,1,2,0:0:0:0:
109,192,128092,1,8,0:0:0:0:
402,192,128092,1,0,0:0:0:0:
329,192,128435,1,2,0:0:0:0:
36,192,128435,1,8,0:0:0:0:
329,192,128778,1,8,0:0:0:0:
36,192,128778,1,0,0:0:0:0:
329,192,129121,1,8,0:0:0:0:
36,192,129121,1,0,0:0:0:0:
182,192,129292,1,2,0:0:0:0:
402,192,129464,1,8,0:0:0:0:
109,192,129464,1,0,0:0:0:0:
256,192,129635,1,2,0:0:0:0:
329,192,129807,1,8,0:0:0:0:
182,192,129807,1,0,0:0:0:0:
182,192,130150,1,0,0:0:0:0:
329,192,130150,1,8,0:0:0:0:
329,192,130492,1,2,0:0:0:0:
182,192,130492,1,8,0:0:0:0:
36,192,130664,1,2,0:0:0:0:
402,192,130835,1,0,0:0:0:0:
256,192,130835,1,8,0:0:0:0:
109,192,131007,1,8,0:0:0:0:
329,192,131178,1,0,0:0:0:50:normal-hitfinish.wav
182,192,131178,1,2,0:0:0:0:
475,192,131178,1,0,0:0:0:0:
256,192,131350,1,0,0:0:0:0:
475,192,131521,1,0,0:0:0:0:
402,192,131521,1,8,0:0:0:0:
36,192,131692,1,8,0:0:0:0:
109,192,131692,128,2,132035:0:0:0:0:
329,192,132035,1,2,0:0:0:0:
256,192,132207,1,8,0:0:0:0:
475,192,132207,1,0,0:0:0:0:
109,192,132378,1,4,0:0:0:0:
402,192,132378,128,2,133235:0:0:0:0:
256,192,132721,1,2,0:0:0:0:
182,192,132892,1,0,0:0:0:0:
329,192,132892,1,8,0:0:0:0:
109,192,133235,1,2,0:0:0:0:
256,192,133407,1,2,0:0:0:0:
475,192,133578,1,8,0:0:0:0:
36,192,133578,1,2,0:0:0:0:
329,192,133750,1,0,0:0:0:0:
182,192,133921,1,0,0:0:0:50:normal-hitfinish.wav
402,192,133921,1,2,0:0:0:0:
256,192,134092,1,0,0:0:0:0:
109,192,134264,1,8,0:0:0:0:
36,192,134264,1,0,0:0:0:0:
402,192,134435,128,8,134778:0:0:0:0:
475,192,134435,128,2,134778:0:0:0:0:
256,192,134778,1,2,0:0:0:0:
475,192,134950,1,0,0:0:0:0:
329,192,134950,1,8,0:0:0:0:
182,192,135121,1,8,0:0:0:0:
402,192,135292,1,2,0:0:0:0:
36,192,135292,1,0,0:0:0:50:normal-hitfinish.wav
256,192,135464,1,0,0:0:0:0:
182,192,135635,1,8,0:0:0:0:
109,192,135635,1,0,0:0:0:0:
402,192,135807,128,2,136150:0:0:0:0:
329,192,135807,128,4,136150:0:0:0:0:
256,192,136150,1,2,0:0:0:0:
475,192,136321,1,0,0:0:0:0:
36,192,136321,1,8,0:0:0:0:
182,192,136492,1,0,0:0:0:0:
402,192,136664,1,0,0:0:0:50:normal-hitfinish.wav
329,192,136664,1,2,0:0:0:0:
109,192,136835,1,0,0:0:0:0:
475,192,137007,1,0,0:0:0:0:
256,192,137007,1,8,0:0:0:0:
182,192,137178,128,4,137521:0:0:0:0:
402,192,137178,128,2,138035:0:0:0:0:
256,192,137521,1,2,0:0:0:0:
109,192,137692,1,8,0:0:0:0:
36,192,137692,1,0,0:0:0:0:
329,192,137864,1,2,0:0:0:0:
256,192,138035,1,8,0:0:0:0:
182,192,138378,1,0,0:0:0:0:
182,192,138721,128,0,139064:0:0:0:0:
475,192,139064,1,8,0:0:0:0:
402,192,139064,1,0,0:0:0:0:
36,192,139235,128,0,139578:0:0:0:50:normal-hitfinish.wav
475,192,139235,128,2,139578:0:0:0:0:
329,192,139578,1,2,0:0:0:0:
109,192,139578,1,8,0:0:0:0:
109,192,139750,1,2,0:0:0:0:
329,192,139750,1,8,0:0:0:0:
475,192,139921,1,2,0:0:0:0:
256,192,139921,1,8,0:0:0:0:
475,192,140092,1,2,0:0:0:0:
256,192,140092,1,8,0:0:0:0:
182,192,140435,1,0,0:0:0:0:
329,192,140435,1,8,0:0:0:0:
256,192,140607,1,2,0:0:0:0:
36,192,140607,128,0,146264:0:0:0:50:normal-hitfinish.wav
475,192,140607,128,0,146264:0:0:0:0:
