osu file format v14

[General]
AudioFilename: audio.mp3
AudioLeadIn: 0
PreviewTime: 21703
Countdown: 0
SampleSet: Soft
StackLeniency: 0.6
Mode: 0
LetterboxInBreaks: 0
WidescreenStoryboard: 1

[Editor]
Bookmarks: 6581,22318,30187,40023,56251,64120,71005,74940,82808,90677,96579,98546,106415,114284,124120,131988
DistanceSpacing: 1.5
BeatDivisor: 4
GridSize: 32
TimelineZoom: 2.240797

[Metadata]
Title:Fukuiku no Machi
TitleUnicode:馥郁の街
Artist:CIEL
ArtistUnicode:CIEL
Creator:Iceluin
Version:Hard
Source:
Tags:japanese pop j-pop electronic elysium KAMITSUBAKI STUDIO 神椿スタジオ virtual youtuber artist vtuber vsinger thinkr chanel N°5 no 5 Eau de Toilette Parfum PREMIÈRE premiere L’EAU leau l'eau perfume shirahane suou mocaotic ayucchi kotoha
BeatmapID:3602614
BeatmapSetID:1734266

[Difficulty]
HPDrainRate:5
CircleSize:3.8
OverallDifficulty:6.5
ApproachRate:8
SliderMultiplier:2
SliderTickRate:1

[Events]
//Background and Video events
0,0,"cielispog.jpg",0,0
Video,0,"video.mp4"
//Break Periods
2,75140,82058
//Storyboard Layer 0 (Background)
//Storyboard Layer 1 (Fail)
//Storyboard Layer 2 (Pass)
//Storyboard Layer 3 (Foreground)
//Storyboard Layer 4 (Overlay)
//Storyboard Sound Samples

[TimingPoints]
680,491.803278688525,4,2,1,20,1,0
5106,-200,4,2,1,20,0,0
6581,491.803278688525,4,2,1,30,1,0
6581,-133.333333333333,4,2,1,30,0,0
18384,-133.333333333333,4,2,1,45,0,0
20843,-133.333333333333,4,2,1,30,0,0
22318,-86.9565217391304,4,2,1,75,0,0
29757,-86.9565217391304,4,2,1,5,0,0
29818,-86.9565217391304,4,2,1,75,0,0
29880,-86.9565217391304,4,2,1,5,0,0
29941,-86.9565217391304,4,2,1,75,0,0
30126,-86.9565217391304,4,2,1,5,0,0
30187,-86.9565217391304,4,2,1,75,0,0
35781,-86.9565217391304,4,2,1,5,0,0
35843,-86.9565217391304,4,2,1,75,0,0
35904,-86.9565217391304,4,2,1,5,0,0
35966,-86.9565217391304,4,2,1,75,0,0
36027,-86.9565217391304,4,2,1,5,0,0
36089,-86.9565217391304,4,2,1,75,0,0
38056,-100,4,2,2,50,0,0
40023,491.803278688525,4,2,2,65,1,0
40023,-95.2380952380952,4,2,2,65,0,0
47891,-133.333333333333,4,2,2,30,0,0
48383,491.803278688525,4,2,2,65,1,0
48383,-95.2380952380952,4,2,2,65,0,0
56251,-117.647058823529,4,2,1,55,0,0
64120,-133.333333333333,4,2,1,45,0,0
64612,-100,4,2,1,60,0,0
65104,-133.333333333333,4,2,1,45,0,0
65596,-100,4,2,1,60,0,0
66087,-133.333333333333,4,2,1,45,0,0
66579,-100,4,2,1,60,0,0
67071,-133.333333333333,4,2,1,45,0,0
67563,-100,4,2,1,60,0,0
67993,-100,4,2,1,5,0,0
68055,-200,4,2,1,30,0,0
70022,-100,4,2,1,35,0,0
70206,-100,4,2,1,5,0,0
70268,-100,4,2,1,35,0,0
70514,-100,4,2,1,42,0,0
70698,-100,4,2,1,5,0,0
70760,-100,4,2,1,42,0,0
71005,-100,4,2,1,49,0,0
71190,-100,4,2,1,5,0,0
71252,-100,4,2,1,49,0,0
71497,-100,4,2,1,57,0,0
71682,-100,4,2,1,5,0,0
71744,-100,4,2,1,57,0,0
71989,-100,4,2,1,65,0,0
72727,-200,4,2,1,65,0,0
72758,-200,4,2,1,5,0,0
74448,-200,4,2,1,25,0,0
74940,491.803278688525,4,2,1,30,1,0
74940,-200,4,2,1,30,0,0
82808,-153.846153846154,4,2,1,45,0,0
87235,-153.846153846154,4,2,0,45,0,0
87726,-153.846153846154,4,2,1,45,0,0
88218,-153.846153846154,4,2,0,45,0,0
88710,-153.846153846154,4,2,1,45,0,0
90185,-153.846153846154,4,2,1,30,0,0
90677,-86.9565217391304,4,2,1,75,0,0
98116,-86.9565217391304,4,2,1,5,0,0
98177,-86.9565217391304,4,2,1,75,0,0
98239,-86.9565217391304,4,2,1,5,0,0
98300,-86.9565217391304,4,2,1,75,0,0
98485,-86.9565217391304,4,2,1,5,0,0
98546,-86.9565217391304,4,2,1,75,0,0
104140,-86.9565217391304,4,2,1,5,0,0
104202,-86.9565217391304,4,2,1,75,0,0
104263,-86.9565217391304,4,2,1,5,0,0
104325,-86.9565217391304,4,2,1,75,0,0
104386,-86.9565217391304,4,2,1,5,0,0
104448,-86.9565217391304,4,2,1,75,0,0
106415,-133.333333333333,4,2,1,50,0,0
109243,-86.9565217391304,4,2,1,75,0,0
113853,-86.9565217391304,4,2,1,5,0,0
113915,-86.9565217391304,4,2,1,75,0,0
113976,-86.9565217391304,4,2,1,5,0,0
114038,-86.9565217391304,4,2,1,75,0,0
114222,-86.9565217391304,4,2,1,5,0,0
114284,-80,4,2,1,85,0,1
120001,-80,4,2,1,5,0,1
120062,-80,4,2,1,85,0,1
120124,-80,4,2,1,5,0,1
120185,-80,4,2,1,85,0,1
122153,-100,4,2,1,85,0,0
124120,491.803278688525,4,2,1,50,1,0
124120,-133.333333333333,4,2,1,50,0,0
131988,-153.846153846153,4,2,1,30,0,0

[Colours]
Combo1 : 255,155,106
Combo2 : 0,183,183
Combo3 : 156,156,205
Combo4 : 0,210,105

[HitObjects]
63,324,5106,6,0,P|111:313|161:308,2,100,2|0|0,0:0|0:0|0:0,0:0:0:0:
63,324,6581,6,0,B|25:264|80:191|105:216|168:142|124:80,1,275.000010490418,2|2,0:0|0:0,0:0:0:0:
451,324,8548,2,0,B|488:264|433:191|408:215|344:141|389:79,1,275.000010490418,2|2,0:0|0:0,0:0:0:0:
388,80,10023,2,0,P|416:56|452:62,1,75.0000028610231
387,209,10515,6,0,P|240:179|92:157,1,300.000011444092,2|2,0:0|0:0,0:0:0:0:
92,157,11990,1,0,0:0:0:0:
3,17,12236,1,0,0:0:0:0:
92,157,12482,6,0,P|83:212|75:268,1,112.500004291535,2|0,0:0|0:0,0:0:0:0:
13,323,12974,2,0,P|67:312|111:346,1,112.500004291535,2|0,0:0|0:0,0:0:0:0:
186,378,13466,2,0,B|234:370|234:370|245:372|245:372|297:365,1,112.500004291535,2|0,0:0|0:0,0:0:0:0:
378,350,13958,1,2,0:0:0:0:
378,350,14449,6,0,B|477:270|445:174|361:153|324:229|354:247,1,275.000010490418,2|2,0:0|0:0,0:0:0:0:
95,30,16417,2,0,B|-3:108|26:205|111:226|149:150|120:133,1,275.000010490418,2|2,0:0|0:0,0:0:0:0:
119,133,17891,2,0,P|155:125|192:120,1,75.0000028610231
359,139,18384,6,0,P|378:169|369:204,1,75.0000028610231,0|0,1:0|0:0,0:0:0:0:
294,356,18876,1,8,0:0:0:0:
294,356,19121,1,2,0:0:0:0:
169,247,19367,2,0,L|173:217,4,30.0000011444092,0|8|8|8|8,1:0|0:0|0:0|0:0|0:0,0:0:0:0:
128,278,19859,2,0,L|124:308,4,30.0000011444092,8|4|4|4|4,0:0|0:3|0:3|0:3|0:3,0:0:0:0:
93,240,20351,5,2,3:2:0:0:
448,64,21826,5,2,3:2:0:0:
448,64,22318,6,0,P|366:48|301:101,1,172.500003290176,6|2,1:2|0:0,0:0:0:0:
239,161,22810,2,0,P|183:151|126:143,1,115.000002193451,2|2,1:2|0:0,0:0:0:0:
44,128,23179,2,0,B|-16:189|-16:189|22:266,1,172.500003290176,6|0,1:2|0:0,0:0:0:0:
71,338,23671,1,8,0:0:0:0:
140,286,23794,2,0,P|168:291|196:294,1,57.5000010967255,4|4,0:3|0:3,0:0:0:0:
282,310,24040,1,4,0:3:0:0:
467,316,24285,6,0,P|473:343|459:367,1,57.5000010967255,6|2,1:2|0:0,0:0:0:0:
373,350,24531,2,0,P|368:322|383:299,1,57.5000010967255,10|2,0:0|0:0,0:0:0:0:
440,233,24777,2,0,P|449:177|458:119,1,115.000002193451,2|2,1:2|0:0,0:0:0:0:
512,41,25146,2,0,P|451:97|370:78,1,172.500003290176,6|2,1:2|0:0,0:0:0:0:
314,12,25638,1,8,0:0:0:0:
241,59,25761,2,0,P|212:55|184:51,1,57.5000010967255,4|4,0:3|0:3,0:0:0:0:
98,36,26007,1,4,0:3:0:0:
46,177,26253,6,0,P|74:181|102:185,1,57.5000010967255,6|0,1:2|0:0,0:0:0:0:
171,135,26499,2,0,P|199:139|227:143,1,57.5000010967255,10|0,0:0|0:0,0:0:0:0:
275,216,26744,2,0,P|271:244|267:272,2,57.5000010967255,2|8|2,1:2|0:0|0:0,0:0:0:0:
340,156,27113,2,0,B|363:180|363:180|346:317,1,172.500003290176,6|2,1:2|0:0,0:0:0:0:
285,380,27605,1,8,0:0:0:0:
209,338,27728,2,0,P|180:341|152:346,1,57.5000010967255,4|4,0:3|0:3,0:0:0:0:
66,363,27974,1,4,0:3:0:0:
26,205,28220,6,0,P|18:148|7:91,1,115.000002193451,6|10,1:2|0:0,0:0:0:0:
76,38,28589,1,0,1:0:0:0:
144,90,28712,2,0,P|133:146|125:203,1,115.000002193451,8|2,0:0|1:2,0:0:0:0:
196,254,29081,1,0,1:0:0:0:
269,207,29203,2,0,P|261:150|250:93,1,115.000002193451,8|2,0:0|3:3,0:0:0:0:
318,41,29572,1,10,0:0:0:0:
386,93,29695,2,0,P|380:121|376:149,2,57.5000010967255,4|4|4,0:3|0:3|1:3,0:0:0:0:
512,4,30187,6,0,P|497:88|484:174,1,172.500003290176,6|2,1:2|0:0,0:0:0:0:
501,263,30679,2,0,P|472:257|444:254,1,57.5000010967255,10|0,1:2|0:0,0:0:0:0:
372,302,30925,1,2,3:2:0:0:
315,237,31048,2,0,B|276:210|230:249|245:265|199:299|162:276,1,172.500003290176,2|0,0:0|3:0,0:0:0:0:
115,114,31662,1,10,1:2:0:0:
115,114,31785,2,0,P|159:80|211:99,1,115.000002193451,2|0,0:0|0:0,0:0:0:0:
285,144,32154,6,0,P|341:134|398:126,1,115.000002193451,2|2,1:2|3:2,0:0:0:0:
451,57,32523,1,0,0:0:0:0:
512,118,32646,2,0,P|507:146|503:174,1,57.5000010967255,10|0,1:2|0:0,0:0:0:0:
442,236,32892,1,2,3:2:0:0:
507,290,33015,2,0,P|451:281|406:314,1,115.000002193451,2|0,0:0|0:0,0:0:0:0:
344,375,33384,2,0,P|287:364|230:356,1,115.000002193451,2|8,3:2|1:2,0:0:0:0:
58,334,33876,2,0,P|55:306|50:278,1,57.5000010967255,4|4,0:3|0:3,0:0:0:0:
35,195,34121,5,0,1:0:0:0:
167,99,34367,2,0,P|184:46|150:2,2,115.000002193451,2|10|2,3:2|1:2|3:2,0:0:0:0:
120,172,34982,1,0,0:0:0:0:
187,226,35105,2,0,P|243:216|300:208,1,115.000002193451,2|2,1:2|3:2,0:0:0:0:
401,319,35597,2,0,P|429:313|457:309,1,57.5000010967255,2|8,1:2|0:0,0:0:0:0:
512,241,35843,2,0,P|506:212|502:184,1,57.5000010967255,8|8,0:0|0:0,0:0:0:0:
445,118,36089,6,0,P|390:104|343:134,1,115.000002193451,0|8,1:0|0:0,0:0:0:0:
300,207,36458,1,2,3:3:0:0:
229,156,36581,2,0,P|224:127|219:99,1,57.5000010967255,4|4,0:3|0:3,0:0:0:0:
199,15,36826,1,4,0:3:0:0:
32,48,37072,1,8,0:0:0:0:
32,48,37195,2,0,P|40:104|49:161,1,115.000002193451,8|0,0:0|1:0,0:0:0:0:
83,331,37687,1,8,0:0:0:0:
148,275,37810,1,2,1:2:0:0:
448,128,39367,6,0,B|463:121|463:121|481:136,2,33.3333333333333,0|0|0,1:0|1:0|1:0,0:0:0:0:
366,186,39695,5,0,1:0:0:0:
429,263,39859,5,0,1:0:0:0:
340,319,40023,6,0,P|262:305|184:294,1,157.499995193482,6|0,1:2|0:0,0:0:0:0:
105,336,40514,2,0,L|96:284,1,52.4999983978272,10|2,0:0|0:0,0:0:0:0:
149,212,40760,2,0,L|140:160,1,52.4999983978272,2|2,0:0|0:0,0:0:0:0:
66,108,41006,1,2,1:2:0:0:
214,8,41252,2,0,P|266:14|317:24,1,104.999996795654,2|8,0:0|0:0,0:0:0:0:
398,190,41744,2,0,L|346:181,1,52.4999983978272,2|0,0:0|0:0,0:0:0:0:
270,210,41990,6,0,B|237:162|284:106|303:124|345:68|317:24,1,209.999993591309,0|10,1:0|0:0,0:0:0:0:
435,23,42645,2,0,P|422:72|448:116,1,104.999996795654,2|2,0:0|0:0,0:0:0:0:
358,271,43137,2,0,P|383:315|371:364,2,104.999996795654,2|2|2,0:0|0:0|0:0,0:0:0:0:
326,241,43711,1,2,0:0:0:0:
208,329,43957,6,0,P|130:316|52:304,1,157.499995193482,0|0,1:0|0:0,0:0:0:0:
68,215,44449,2,0,L|119:223,1,52.4999983978272,10|2,0:0|0:0,0:0:0:0:
184,161,44695,2,0,L|235:169,1,52.4999983978272,2|2,0:0|0:0,0:0:0:0:
296,103,44940,1,2,1:2:0:0:
425,225,45186,2,0,P|432:173|441:121,1,104.999996795654,2|8,0:0|0:0,0:0:0:0:
302,7,45679,2,0,P|277:2|254:14,1,52.4999983978272,2|0,0:0|0:0,0:0:0:0:
185,71,45924,6,0,B|137:104|81:57|99:38|43:-4|-1:24,1,209.999993591309,0|8,1:0|0:0,0:0:0:0:
17,142,46580,2,0,P|25:193|31:245,1,104.999996795654,2|2,0:0|0:0,0:0:0:0:
171,357,47072,2,0,P|223:348|275:342,2,104.999996795654,2|2|2,0:0|0:0|0:0,0:0:0:0:
125,364,47646,1,2,0:0:0:0:
127,237,47891,5,0,1:0:0:0:
127,237,48137,1,0,1:0:0:0:
127,237,48383,6,0,B|138:243|138:243|267:222|267:222|278:229,1,157.499995193482,6|0,1:2|0:0,0:0:0:0:
359,268,48874,2,0,P|384:262|410:259,1,52.4999983978272,10|2,0:0|0:0,0:0:0:0:
490,299,49120,2,0,P|494:272|499:247,1,52.4999983978272,2|2,0:0|0:0,0:0:0:0:
445,174,49366,1,2,1:2:0:0:
512,15,49612,2,0,P|462:3|419:29,1,104.999996795654,2|8,0:0|0:0,0:0:0:0:
275,137,50104,2,0,P|249:132|223:128,1,52.4999983978272,2|0,0:0|0:0,0:0:0:0:
133,117,50350,6,0,P|149:220|164:324,1,209.999993591309,0|10,1:0|0:0,0:0:0:0:
42,344,51005,2,0,P|34:290|26:239,1,104.999996795654,2|2,0:0|0:0,0:0:0:0:
133,117,51497,2,0,P|125:63|117:12,2,104.999996795654,2|2|2,0:0|0:0|0:0,0:0:0:0:
140,162,52071,1,2,0:0:0:0:
164,324,52317,6,0,P|236:300|297:344,1,157.499995193482,0|0,1:0|0:0,0:0:0:0:
371,294,52808,2,0,P|396:297|422:302,1,52.4999983978272,10|2,0:0|0:0,0:0:0:0:
490,241,53055,2,0,P|485:215|481:189,1,52.4999983978272,2|2,0:0|0:0,0:0:0:0:
468,100,53300,1,2,1:2:0:0:
329,213,53546,2,0,P|277:203|225:196,1,104.999996795654,2|8,0:0|0:0,0:0:0:0:
47,170,54038,2,0,P|42:144|38:118,1,52.4999983978272,2|0,0:0|0:0,0:0:0:0:
15,31,54284,6,0,B|63:-2|119:45|101:64|157:106|201:78,1,209.999993591309,0|10,1:0|0:0,0:0:0:0:
300,11,54939,2,0,P|352:17|403:27,1,104.999996795654,2|2,0:0|0:0,0:0:0:0:
504,176,55432,2,0,P|495:227|488:279,2,104.999996795654,2|2|0,0:0|0:0|0:0,0:0:0:0:
512,137,56005,1,2,0:0:0:0:
338,105,56251,6,0,P|324:188|312:273,1,170.000003242493,6|8,1:2|0:0,0:0:0:0:
36,353,57235,2,0,P|-1:303|18:244,1,127.50000243187,2|0,1:2|0:0,0:0:0:0:
74,181,57727,2,0,P|71:162|67:139,1,42.5000008106232,10|0,0:0|0:0,0:0:0:0:
144,103,57973,2,0,P|152:144|158:186,1,85.0000016212464,2|0,0:0|1:0,0:0:0:0:
190,353,58464,6,0,P|212:349|232:346,1,42.5000008106232,2|0,0:0|0:0,0:0:0:0:
310,380,58710,2,0,P|393:364|477:352,1,170.000003242493,10|0,0:0|1:0,0:0:0:0:
442,185,59448,2,0,P|399:190|358:198,2,85.0000016212464,2|10|2,0:0|0:0|0:0,0:0:0:0:
412,16,60186,6,0,P|369:21|328:29,1,85.0000016212464,0|2,1:0|0:0,0:0:0:0:
267,89,60555,1,0,0:0:0:0:
267,89,60678,2,0,P|226:96|189:76,1,85.0000016212464,10|2,0:0|0:0,0:0:0:0:
31,13,61169,2,0,P|45:96|58:180,1,170.000003242493,0|8,1:0|0:0,0:0:0:0:
89,348,61907,1,2,0:0:0:0:
257,324,62153,6,0,P|250:281|243:240,1,85.0000016212464,2|0,1:2|0:0,0:0:0:0:
175,83,62645,2,0,P|217:76|258:69,1,85.0000016212464,10|0,0:0|0:0,0:0:0:0:
416,1,63137,2,0,P|422:43|429:84,1,85.0000016212464,2|0,1:2|0:0,0:0:0:0:
498,242,63628,2,0,P|455:248|414:255,1,85.0000016212464,10|0,0:0|0:0,0:0:0:0:
257,324,64120,5,2,1:3:0:0:
257,324,64366,1,2,0:3:0:0:
257,324,64612,2,2,B|233:338|233:338|153:288|153:288|131:303,1,150,2|0,0:0|0:0,0:1:0:0:
74,377,65104,5,2,1:3:0:0:
74,377,65350,1,2,0:3:0:0:
74,377,65596,2,2,B|102:347|75:302|60:321|28:277|61:244,1,150,2|0,0:0|0:0,0:1:0:0:
44,161,66087,5,2,1:3:0:0:
44,161,66333,1,2,0:3:0:0:
44,161,66579,2,2,B|82:139|88:104|88:104|82:139|113:171,1,150,2|0,0:0|0:0,0:1:0:0:
185,118,67071,5,2,1:3:0:0:
185,118,67317,1,2,0:3:0:0:
185,118,67563,2,2,B|226:124|226:124|233:130|233:130|276:136|276:136|283:142|283:142|330:150,1,150,2|0,3:2|0:0,0:1:0:0:
412,168,68055,6,0,P|471:111|391:90,1,200,2|2,0:0|0:0,0:0:0:0:
390,90,70022,5,2,1:2:0:0:
353,256,70268,1,2,0:0:0:0:
300,104,70514,5,2,1:2:0:0:
264,271,70760,1,2,0:0:0:0:
210,118,71005,5,2,1:2:0:0:
173,285,71251,1,2,0:0:0:0:
120,132,71497,5,2,1:2:0:0:
84,299,71743,1,2,0:0:0:0:
30,146,71989,6,0,P|0:107|16:62,1,100,6|0,1:2|0:0,0:0:0:0:
107,48,72358,2,0,P|136:86|120:131,1,100,2|0,1:2|0:0,0:0:0:0:
88,213,72727,6,0,B|153:244|227:204|186:129|241:91|316:92|363:170|320:224|272:211,1,350,2|0,1:2|0:0,0:0:0:0:
119,131,74940,5,6,0:0:0:0:
448,64,82808,6,0,P|441:95|437:128,1,64.9999970245363,2|0,0:0|0:0,0:0:0:0:
470,281,83300,1,0,1:0:0:0:
470,281,83710,2,0,P|415:231|344:249,1,151.666659723918,2|0,0:0|1:0,0:0:0:0:
144,370,84776,6,0,P|114:365|80:359,1,64.9999970245363,2|0,0:0|0:0,0:0:0:0:
11,224,85268,1,0,1:0:0:0:
11,224,85677,2,0,P|85:236|160:251,1,151.666659723918,2|0,0:0|1:0,0:0:0:0:
352,128,86743,6,0,P|359:97|343:70,1,64.9999970245363,2|0,1:2|0:0,0:0:0:0:
203,9,87235,1,8,0:0:0:0:
203,9,87480,1,8,0:0:0:0:
88,114,87726,2,0,P|81:145|97:172,1,64.9999970245363,0|0,0:0|1:0,0:0:0:0:
239,238,88218,1,10,0:0:0:0:
352,128,88464,1,2,0:0:0:0:
494,194,88710,1,2,3:2:0:0:
128,352,90185,5,2,0:0:0:0:
128,352,90677,6,0,P|114:266|100:181,1,172.500003290176,6|2,1:2|0:0,0:0:0:0:
39,125,91169,2,0,P|92:139|139:108,1,115.000002193451,2|2,1:2|0:0,0:0:0:0:
198,44,91538,2,0,B|237:17|283:56|268:72|314:106|351:83,1,172.500003290176,6|0,1:2|0:0,0:0:0:0:
422,33,92030,1,8,0:0:0:0:
477,98,92153,2,0,P|472:126|469:154,1,57.5000010967255,4|4,0:3|0:3,0:0:0:0:
455,240,92399,1,4,0:3:0:0:
267,257,92644,6,0,B|256:283|256:283|274:306,1,57.5000010967255,6|2,1:2|0:0,0:0:0:0:
359,287,92890,2,0,B|369:260|369:260|351:237,1,57.5000010967255,10|2,0:0|0:0,0:0:0:0:
292,176,93136,2,0,P|283:119|274:62,1,115.000002193451,2|2,1:2|0:0,0:0:0:0:
189,78,93505,2,0,P|197:134|206:191,1,115.000002193451,6|8,1:2|0:0,0:0:0:0:
167,271,93874,1,2,0:0:0:0:
167,271,93997,1,8,0:0:0:0:
93,217,94120,2,0,P|88:189|84:160,1,57.5000010967255,4|4,0:3|0:3,0:0:0:0:
66,77,94366,1,4,0:3:0:0:
206,191,94612,6,0,P|234:187|262:183,1,57.5000010967255,6|0,1:2|0:0,0:0:0:0:
329,238,94858,2,0,P|357:234|385:230,1,57.5000010967255,10|0,0:0|0:0,0:0:0:0:
437,160,95103,2,0,P|465:156|493:152,2,57.5000010967255,2|8|2,1:2|0:0|0:0,0:0:0:0:
380,93,95472,2,0,B|341:79|330:27|330:27|335:80|300:104,1,172.500003290176,6|2,1:2|0:0,0:0:0:0:
226,58,95964,1,8,0:0:0:0:
166,120,96087,2,0,P|137:123|109:128,1,57.5000010967255,4|4,0:3|0:3,0:0:0:0:
23,144,96333,1,4,0:3:0:0:
53,313,96579,6,0,P|109:302|166:294,1,115.000002193451,6|10,1:2|0:0,0:0:0:0:
228,229,96948,1,0,1:0:0:0:
285,296,97071,2,0,P|341:303|398:315,1,115.000002193451,8|2,0:0|1:2,0:0:0:0:
473,267,97440,1,0,1:0:0:0:
415,199,97562,2,0,P|358:188|301:180,1,115.000002193451,8|2,0:0|3:3,0:0:0:0:
228,229,97931,1,10,0:0:0:0:
157,179,98054,2,0,P|128:183|100:189,2,57.5000010967255,4|4|4,0:3|0:3|1:3,0:0:0:0:
256,37,98546,6,0,P|341:48|426:64,1,172.500003290176,6|2,1:2|0:0,0:0:0:0:
511,50,99038,2,0,P|506:83|502:107,1,57.5000010967255,10|0,1:2|0:0,0:0:0:0:
428,153,99284,1,2,3:2:0:0:
481,222,99407,2,0,P|400:202|340:259,1,172.500003290176,2|0,0:0|3:0,0:0:0:0:
205,365,100021,1,10,1:2:0:0:
205,365,100144,2,0,P|148:353|91:345,1,115.000002193451,2|0,0:0|0:0,0:0:0:0:
5,356,100513,6,0,P|-1:328|12:304,1,57.5000010967255,2|2,1:2|0:0,0:0:0:0:
58,231,100759,2,0,P|49:174|40:117,1,115.000002193451,2|10,3:2|1:2,0:0:0:0:
93,49,101128,1,2,0:0:0:0:
93,49,101251,1,2,3:2:0:0:
166,94,101374,2,0,P|218:110|264:79,1,115.000002193451,2|0,0:0|0:0,0:0:0:0:
328,19,101743,2,0,P|385:29|442:37,1,115.000002193451,2|8,3:2|1:2,0:0:0:0:
453,209,102235,2,0,P|425:203|397:199,1,57.5000010967255,4|4,0:3|0:3,0:0:0:0:
313,188,102480,5,4,1:3:0:0:
166,94,102726,2,0,P|113:77|69:111,2,115.000002193451,2|10|2,3:2|1:2|3:2,0:0:0:0:
238,142,103341,1,2,0:0:0:0:
190,214,103464,2,0,P|200:270|208:327,1,115.000002193451,2|2,1:2|3:2,0:0:0:0:
376,370,103956,2,0,P|389:344|383:317,1,57.5000010967255,2|8,1:2|0:0,0:0:0:0:
470,307,104202,2,0,P|468:278|450:257,1,57.5000010967255,8|8,0:0|0:0,0:0:0:0:
488,179,104448,6,0,P|433:165|386:195,1,115.000002193451,0|8,1:0|0:0,0:0:0:0:
320,251,104817,1,2,3:3:0:0:
246,204,104940,2,0,P|217:209|189:213,1,57.5000010967255,4|4,0:3|0:3,0:0:0:0:
134,280,105185,1,4,0:3:0:0:
8,165,105431,1,8,0:0:0:0:
8,165,105554,2,0,P|-9:112|23:67,1,115.000002193451,8|8,0:0|0:0,0:0:0:0:
195,86,106046,1,8,0:0:0:0:
195,86,106169,1,2,1:2:0:0:
266,38,106292,1,2,0:0:0:0:
323,101,106415,6,0,B|364:160|304:230|280:207|228:277|263:333,1,262.500010013581,6|2,1:2|0:0,0:0:0:0:
263,333,108382,1,2,1:2:0:0:
343,299,108505,1,2,1:2:0:0:
96,32,109243,6,0,P|80:116|69:202,1,172.500003290176,6|2,1:2|0:0,0:0:0:0:
5,262,109735,1,8,0:0:0:0:
51,334,109858,2,0,P|79:328|107:324,1,57.5000010967255,4|4,0:3|0:3,0:0:0:0:
192,307,110104,1,4,0:3:0:0:
351,373,110350,6,0,P|379:369|407:365,1,57.5000010967255,6|0,1:2|0:0,0:0:0:0:
472,306,110596,2,0,P|468:278|464:250,1,57.5000010967255,10|0,0:0|0:0,0:0:0:0:
392,200,110841,2,0,P|388:172|384:144,2,57.5000010967255,2|8|2,1:2|0:0|0:0,0:0:0:0:
332,263,111210,2,0,B|293:290|246:250|262:234|216:200|179:223,1,172.500003290176,6|2,1:2|0:0,0:0:0:0:
112,279,111702,1,8,0:0:0:0:
41,228,111825,2,0,P|27:203|32:175,1,57.5000010967255,4|4,0:3|0:3,0:0:0:0:
94,117,112071,1,4,0:3:0:0:
227,15,112317,6,0,P|282:1|328:32,1,115.000002193451,6|10,1:2|0:0,0:0:0:0:
392,90,112685,1,0,1:0:0:0:
470,53,112808,2,0,P|482:107|451:153,1,115.000002193451,8|2,0:0|1:2,0:0:0:0:
395,217,113177,1,0,1:0:0:0:
432,295,113300,2,0,P|377:307|331:276,1,115.000002193451,8|2,0:0|3:3,0:0:0:0:
268,220,113669,1,8,0:0:0:0:
198,270,113792,2,0,L|189:326,2,57.5000010967255,4|4|4,0:3|0:3|1:3,0:0:0:0:
53,165,114284,6,0,P|56:133|62:103,1,62.5,6|0,1:2|0:0,0:0:0:0:
20,26,114530,2,0,P|50:20|81:16,1,62.5,2|0,0:0|0:0,0:0:0:0:
147,75,114776,2,0,P|208:64|270:55,1,125,10|2,1:2|0:0,0:0:0:0:
340,2,115144,1,0,0:0:0:0:
415,44,115267,6,0,P|428:71|421:101,1,62.5,8|0,1:2|0:0,0:0:0:0:
462,179,115513,2,0,P|434:192|404:185,1,62.5,0|0,1:0|0:0,0:0:0:0:
334,140,115759,1,10,1:2:0:0:
334,140,115882,2,0,P|368:189|350:247,1,125,2|0,0:0|0:0,0:0:0:0:
367,334,116251,6,0,P|336:328|305:324,1,62.5,10|0,1:2|0:0,0:0:0:0:
235,377,116497,2,0,P|204:371|173:367,1,62.5,2|0,0:0|0:0,0:0:0:0:
116,299,116743,2,0,P|85:293|54:289,2,62.5,10|0|2,1:2|0:0|0:0,0:0:0:0:
184,243,117112,2,0,P|198:184|165:133,1,125,2|0,0:0|0:0,0:0:0:0:
98,77,117480,2,0,P|156:91|207:58,1,125,2|8,1:2|1:2,0:0:0:0:
344,168,117972,2,0,P|374:162|405:158,1,62.5,4|4,0:3|0:3,0:0:0:0:
476,105,118218,6,0,P|465:167|457:229,1,125,4|0,1:3|0:0,0:0:0:0:
335,356,118710,2,0,P|273:346|211:337,2,125,8|0|10,1:2|0:0|1:2,0:0:0:0:
412,313,119325,2,0,P|442:317|473:322,2,62.5,2|2|2,0:0|1:2|0:0,0:0:0:0:
347,252,119694,2,0,P|351:221|355:190,1,62.5,2|8,1:2|0:0,0:0:0:0:
367,106,119940,2,0,P|371:75|375:44,1,62.5,8|8,0:0|0:0,0:0:0:0:
294,0,120186,6,0,P|285:62|277:126,1,125,0|10,1:0|0:0,0:0:0:0:
218,189,120555,1,2,0:0:0:0:
149,135,120678,2,0,P|119:129|92:144,1,62.5,4|4,0:3|0:3,0:0:0:0:
41,215,120923,2,0,P|46:245|51:276,1,62.5,4|2,0:3|0:0,0:0:0:0:
115,337,121169,2,0,P|176:325|238:317,1,125,8|2,0:0|0:0,0:0:0:0:
307,372,121538,2,0,P|337:365|368:361,1,62.5,2|0,1:2|0:0,0:0:0:0:
422,292,121784,1,10,0:0:0:0:
422,292,121907,1,10,0:0:0:0:
350,241,122030,1,2,0:0:0:0:
128,64,123464,6,0,B|122:31,2,33.3333333333333,0|0|0,1:0|1:0|1:0,0:0:0:0:
75,141,123792,5,0,1:0:0:0:
151,194,123956,5,0,1:0:0:0:
212,115,124120,6,0,P|286:125|360:136,1,150.000005722046,6|2,1:2|1:2,0:0:0:0:
454,49,124857,1,2,0:0:0:0:
512,163,125103,2,0,P|505:199|499:236,1,75.0000028610231,2|2,1:2|0:0,0:0:0:0:
282,372,125841,1,2,0:0:0:0:
202,272,126087,6,0,P|271:292|331:251,1,150.000005722046,0|2,1:0|1:2,0:0:0:0:
383,184,126742,2,0,P|377:134|374:97,1,75.0000028610231,2|2,0:0|0:0,0:0:0:0:
291,12,127234,1,2,0:0:0:0:
196,97,127480,2,0,P|146:87|97:80,1,100.000003814697,2|2,0:0|0:0,0:0:0:0:
0,164,128054,6,0,P|11:238|21:312,1,150.000005722046,0|2,1:0|1:2,0:0:0:0:
127,382,128791,1,2,0:0:0:0:
215,290,129037,2,0,P|250:280|280:300,1,75.0000028610231,2|2,1:2|0:0,0:0:0:0:
472,119,129775,1,2,0:0:0:0:
357,62,130021,6,0,P|369:135|381:209,1,150.000005722046,0|2,1:0|1:2,0:0:0:0:
433,278,130677,2,0,P|402:298|366:293,1,75.0000028610231,2|2,0:0|0:0,0:0:0:0:
257,225,131169,1,2,0:0:0:0:
177,324,131415,2,0,P|127:315|78:308,1,100.000003814697,2|2,0:0|0:0,0:0:0:0:
0,201,131988,5,4,0:2:0:0:
0,201,132480,2,0,P|4:168|10:136,1,64.9999970245363,2|2,0:0|0:0,0:0:0:0:
151,159,132972,2,0,P|146:191|140:223,1,64.9999970245363,2|2,0:0|0:0,0:0:0:0:
385,372,133709,1,2,0:0:0:0:
504,291,133956,6,0,P|522:231|487:179,1,129.999994049073,0|2,0:0|0:0,0:0:0:0:
407,125,134610,2,0,P|374:128|342:135,1,64.9999970245363,2|2,0:0|0:0,0:0:0:0:
240,236,135102,1,2,0:0:0:0:
113,167,135349,2,0,P|91:130|101:89,1,86.6666626993817,2|2,0:0|0:0,0:0:0:0:
214,0,135923,5,0,0:0:0:0:
214,0,136415,2,0,P|246:4|278:10,1,64.9999970245363,2|2,0:0|0:0,0:0:0:0:
418,36,136906,2,0,P|450:40|482:46,1,64.9999970245363,2|2,0:0|0:0,0:0:0:0:
444,310,137643,1,2,0:0:0:0:
335,216,137889,6,0,P|274:198|223:235,1,129.999994049073,0|2,0:0|0:0,0:0:0:0:
159,306,138545,2,0,P|127:299|94:295,1,64.9999970245363,2|2,0:0|0:0,0:0:0:0:
5,182,139038,1,2,0:0:0:0:
104,76,139283,2,0,P|146:81|189:89,1,86.6666626993817,2|2,0:0|0:0,0:0:0:0:
331,114,139857,5,0,0:0:0:0:
