osu file format v14

[General]
AudioFilename: audio.mp3
AudioLeadIn: 0
PreviewTime: 21703
Countdown: 0
SampleSet: Soft
StackLeniency: 0.7
Mode: 0
LetterboxInBreaks: 0
WidescreenStoryboard: 1

[Editor]
Bookmarks: 6581,22318,30187,40023,56251,64120,71005,74940,82808,90677,98546,106415,114284,124120,131988
DistanceSpacing: 1
BeatDivisor: 4
GridSize: 32
TimelineZoom: 2.040798

[Metadata]
Title:Fukuiku no Machi
TitleUnicode:馥郁の街
Artist:CIEL
ArtistUnicode:CIEL
Creator:Iceluin
Version:Easy
Source:
Tags:japanese pop j-pop electronic elysium KAMITSUBAKI STUDIO 神椿スタジオ virtual youtuber artist vtuber vsinger thinkr chanel N°5 no 5 Eau de Toilette Parfum PREMIÈRE premiere L’EAU leau l'eau perfume shirahane suou mocaotic ayucchi kotoha
BeatmapID:3566019
BeatmapSetID:1734266

[Difficulty]
HPDrainRate:3
CircleSize:3
OverallDifficulty:3
ApproachRate:4
SliderMultiplier:1.2
SliderTickRate:1

[Events]
//Background and Video events
0,0,"cielispog.jpg",0,0
Video,0,"video.mp4"
//Break Periods
2,75140,81488
//Storyboard Layer 0 (Background)
//Storyboard Layer 1 (Fail)
//Storyboard Layer 2 (Pass)
//Storyboard Layer 3 (Foreground)
//Storyboard Layer 4 (Overlay)
//Storyboard Sound Samples

[TimingPoints]
680,491.803278688525,4,2,1,20,1,0
5106,-111.111111111111,4,2,1,20,0,0
6581,491.803278688525,4,2,1,30,1,0
6581,-111.111111111111,4,2,1,30,0,0
18384,-111.111111111111,4,2,1,45,0,0
20843,-111.111111111111,4,2,1,30,0,0
22318,-100,4,2,1,75,0,0
38056,-100,4,2,2,50,0,0
40023,491.803278688525,4,2,2,65,1,0
40023,-100,4,2,2,65,0,0
47891,-100,4,2,2,30,0,0
48383,491.803278688525,4,2,2,65,1,0
48383,-100,4,2,2,65,0,0
56251,-100,4,2,1,55,0,0
64120,-100,4,2,2,45,0,0
64612,-100,4,2,1,60,0,0
65104,-100,4,2,2,45,0,0
65596,-100,4,2,1,60,0,0
66087,-100,4,2,2,45,0,0
66579,-100,4,2,1,60,0,0
67071,-100,4,2,1,45,0,0
67563,-100,4,2,1,60,0,0
68055,-111.111111111111,4,2,1,30,0,0
70022,-100,4,2,1,35,0,0
70514,-100,4,2,1,42,0,0
71005,-100,4,2,1,49,0,0
71497,-100,4,2,1,57,0,0
71989,-100,4,2,1,65,0,0
72727,-100,4,2,1,65,0,0
72973,-100,4,2,1,55,0,0
73464,-100,4,2,1,45,0,0
73956,-100,4,2,1,35,0,0
74448,-100,4,2,1,25,0,0
74940,491.803278688525,4,2,1,30,1,0
74940,-111.111111111111,4,2,1,30,0,0
82808,-111.111111111111,4,2,1,45,0,0
87235,-100,4,2,0,45,0,0
87726,-100,4,2,1,45,0,0
88218,-100,4,2,0,45,0,0
88710,-100,4,2,1,45,0,0
90185,-100,4,2,1,30,0,0
90677,-100,4,2,1,75,0,0
106415,-111.111111111111,4,2,1,50,0,0
109243,-100,4,2,1,75,0,0
114284,-90.9090909090909,4,2,1,85,0,1
122153,-100,4,2,1,50,0,0
124120,491.803278688525,4,2,1,40,1,0
124120,-111.111111111111,4,2,1,40,0,0
131988,-125,4,2,1,30,0,0

[Colours]
Combo1 : 255,155,106
Combo2 : 0,183,183
Combo3 : 156,156,205
Combo4 : 0,210,105

[HitObjects]
404,95,5106,5,2,0:0:0:0:
404,95,6581,6,0,P|386:192|371:290,1,197.99999395752,2|2,0:0|0:0,0:0:0:0:
141,291,8548,2,0,P|125:193|108:95,1,197.99999395752,2|2,0:0|0:0,0:0:0:0:
224,45,10023,2,0,P|228:71|233:98,1,53.9999983520508
244,151,10515,6,0,B|292:115|350:165|330:185|388:228|435:199,1,215.999993408203,2|2,0:0|0:0,0:0:0:0:
512,122,11990,2,0,P|518:96|505:74,1,53.9999983520508,0|0,0:0|0:0,0:0:0:0:
467,35,12482,1,2,0:0:0:0:
371,85,12974,1,2,0:0:0:0:
274,35,13466,1,2,0:0:0:0:
178,85,13958,1,2,0:0:0:0:
82,34,14449,6,0,P|15:102|39:193,1,197.99999395752,2|2,0:0|0:0,0:0:0:0:
192,369,16417,2,0,P|257:301|233:209,1,197.99999395752,2|2,0:0|0:0,0:0:0:0:
323,120,17892,2,0,P|349:123|376:128,1,53.9999983520508
420,96,18384,6,0,P|462:66|512:81,1,107.999996704102,0|8,1:0|0:0,0:0:0:0:
480,184,19367,2,0,P|470:237|463:290,1,107.999996704102,0|8,1:0|0:0,0:0:0:0:
455,347,20105,1,0,0:0:0:0:
455,347,20351,1,2,3:2:0:0:
96,64,22318,6,0,P|60:109|80:163,1,120,6|2,1:2|1:2,0:0:0:0:
144,227,23179,2,0,P|217:213|292:203,1,150,6|4,1:2|0:3,0:0:0:0:
355,199,24040,1,4,0:3:0:0:
355,199,24285,2,0,P|344:258|336:317,1,120,6|2,1:2|1:2,0:0:0:0:
424,337,25146,2,0,P|432:292|438:248,1,90,6|2,1:2|0:0,0:0:0:0:
449,188,25761,1,4,0:3:0:0:
483,72,26253,6,0,P|429:52|384:88,1,120,6|2,1:2|1:2,0:0:0:0:
318,148,27113,2,0,P|244:135|169:125,1,150,6|4,1:2|0:3,0:0:0:0:
117,149,27974,1,4,0:3:0:0:
117,149,28220,2,0,P|82:195|99:250,1,120,6|8,1:2|0:0,0:0:0:0:
89,366,29203,2,0,P|118:360|148:356,1,60,8|2,0:0|3:3,0:0:0:0:
215,377,29695,1,4,0:3:0:0:
215,377,29941,1,4,1:3:0:0:
215,377,30187,6,0,P|274:367|333:358,1,120,6|10,1:2|1:2,0:0:0:0:
396,351,30925,1,2,3:2:0:0:
396,351,31171,1,0,1:0:0:0:
466,253,31662,1,10,1:2:0:0:
363,190,32154,2,0,P|333:193|303:199,1,60,2|2,1:2|3:2,0:0:0:0:
245,215,32646,1,10,1:2:0:0:
187,284,33015,2,0,P|142:275|98:269,1,90,2|2,0:0|3:2,0:0:0:0:
39,258,33630,1,8,1:2:0:0:
80,148,34121,5,0,1:0:0:0:
80,148,34367,2,0,P|109:151|139:157,2,60,2|10|2,3:2|1:2|3:2,0:0:0:0:
31,111,35105,2,0,P|0:61|22:7,1,120,2|2,1:2|1:2,0:0:0:0:
129,61,36089,2,0,P|187:50|247:41,1,120,0|4,1:0|0:3,0:0:0:0:
311,38,36826,1,4,0:3:0:0:
311,38,37072,2,0,B|321:63|337:75|337:75|321:89|311:111,2,90,8|0|2,0:0|1:0|1:2,0:0:0:0:
96,288,40023,6,0,P|155:297|214:309,1,120,6|10,1:2|0:0,0:0:0:0:
333,315,41006,2,0,P|339:286|324:260,1,60,2|2,1:2|0:0,0:0:0:0:
229,196,41744,1,2,0:0:0:0:
229,196,41990,2,0,P|212:140|244:92,1,120,0|10,1:0|0:0,0:0:0:0:
327,34,42891,1,2,0:0:0:0:
327,34,43137,2,0,P|366:39|406:46,1,80,2|8,0:0|0:0,0:0:0:0:
465,57,43711,1,2,0:0:0:0:
465,57,43957,6,0,P|454:116|446:175,1,120,0|10,1:0|0:0,0:0:0:0:
484,289,44940,2,0,B|460:308|460:308|430:293,1,60,2|2,1:2|0:0,0:0:0:0:
341,371,45678,1,2,0:0:0:0:
341,371,45924,2,0,P|332:311|322:252,1,120,0|8,1:0|0:0,0:0:0:0:
353,160,46825,1,2,0:0:0:0:
353,160,47071,2,0,P|361:121|341:88,1,80,2|10,0:0|0:0,0:0:0:0:
298,54,47645,1,2,0:0:0:0:
298,54,47891,1,0,1:0:0:0:
218,144,48383,6,0,P|169:111|112:125,1,120,6|10,1:2|0:0,0:0:0:0:
19,199,49366,2,0,P|23:228|27:258,1,60,2|2,1:2|0:0,0:0:0:0:
52,380,50104,1,2,0:0:0:0:
52,380,50350,2,0,P|110:368|170:361,1,120,0|10,1:0|0:0,0:0:0:0:
250,301,51251,1,2,0:0:0:0:
250,301,51497,2,0,P|288:293|323:312,1,80,2|10,0:0|0:0,0:0:0:0:
375,352,52071,1,2,0:0:0:0:
375,352,52317,6,0,P|384:292|394:233,1,120,0|10,1:0|0:0,0:0:0:0:
403,113,53301,2,0,P|374:106|348:121,1,60,2|2,1:2|0:0,0:0:0:0:
254,195,54039,1,2,0:0:0:0:
254,195,54285,2,0,P|194:184|135:176,1,120,0|10,1:0|0:0,0:0:0:0:
151,80,55186,1,2,0:0:0:0:
151,80,55432,2,0,P|190:85|230:92,1,80,2|10,0:0|0:0,0:0:0:0:
281,58,56006,1,2,0:0:0:0:
281,58,56251,6,0,P|329:25|386:38,1,120,6|8,1:2|0:0,0:0:0:0:
500,1,57235,2,0,P|489:60|481:119,1,120,2|10,1:2|0:0,0:0:0:0:
473,182,57973,1,2,0:0:0:0:
473,182,58219,1,0,1:0:0:0:
511,295,58710,2,0,P|461:325|404:311,1,120,10|0,0:0|1:0,0:0:0:0:
361,269,59448,2,0,P|364:239|370:209,2,60,2|10|2,0:0|0:0|0:0,0:0:0:0:
316,310,60186,6,0,P|256:317|197:326,1,120,0|10,1:0|0:0,0:0:0:0:
84,368,61169,2,0,P|92:308|102:249,1,120,0|8,1:0|0:0,0:0:0:0:
122,195,61907,1,2,0:0:0:0:
122,195,62153,1,2,1:2:0:0:
40,107,62645,1,10,0:0:0:0:
129,27,63137,1,2,1:2:0:0:
211,115,63628,1,10,0:0:0:0:
323,73,64120,6,0,L|382:82,1,60,2|2,1:3|0:3,0:0:0:0:
441,93,64612,1,2,0:0:0:0:
423,211,65104,2,0,L|363:201,1,60,2|2,1:3|0:3,0:0:0:0:
305,191,65596,1,2,0:0:0:0:
211,115,66087,2,0,P|182:109|155:122,1,60,2|2,1:3|0:3,0:0:0:0:
107,158,66579,1,2,0:0:0:0:
101,277,67071,2,0,P|129:282|156:269,1,60,2|2,1:3|0:3,0:0:0:0:
205,234,67563,1,2,3:2:0:0:
295,311,68055,6,0,P|385:257|488:279,1,215.999993408203,2|2,0:0|0:0,0:0:0:0:
389,36,70022,6,0,P|339:67|283:52,1,120,2|2,1:2|1:2,0:0:0:0:
233,28,70760,1,2,0:0:0:0:
233,28,71005,2,0,P|173:36|114:46,1,120,2|2,1:2|1:2,0:0:0:0:
59,63,71743,1,2,0:0:0:0:
59,63,71989,2,0,P|34:98|46:140,2,90,6|2|2,1:2|1:2|1:2,0:0:0:0:
256,192,72973,12,6,74940,0:0:0:0:
384,288,82808,6,0,P|378:314|374:343,2,53.9999983520508,2|0|0,0:0|0:0|1:0,0:0:0:0:
463,246,83710,2,0,P|481:187|447:138,1,125.999996154785,2|0,0:0|1:0,0:0:0:0:
372,61,84776,2,0,P|375:34|380:7,2,53.9999983520508,2|0|0,0:0|0:0|1:0,0:0:0:0:
292,102,85677,2,0,P|230:90|167:82,1,125.999996154785,2|0,0:0|1:0,0:0:0:0:
144,188,86743,6,0,P|197:195|250:204,1,107.999996704102,2|8,1:2|0:0,0:0:0:0:
314,217,87480,1,8,0:0:0:0:
314,217,87726,1,0,0:0:0:0:
415,150,88218,1,10,0:0:0:0:
415,150,88464,1,2,0:0:0:0:
415,150,88710,1,2,3:2:0:0:
128,320,90677,6,0,P|119:260|109:201,1,120,6|2,1:2|1:2,0:0:0:0:
34,150,91538,2,0,P|93:108|163:128,1,150,6|4,1:2|0:3,0:0:0:0:
218,164,92399,1,4,0:3:0:0:
218,164,92644,2,0,P|277:153|336:145,1,120,6|2,1:2|1:2,0:0:0:0:
394,76,93505,2,0,P|436:64|471:90,1,90,6|2,1:2|0:0,0:0:0:0:
512,134,94120,1,4,0:3:0:0:
449,236,94612,6,0,P|460:294|468:354,1,120,6|2,1:2|1:2,0:0:0:0:
382,381,95472,2,0,P|372:306|359:232,1,150,6|4,1:2|0:3,0:0:0:0:
349,178,96333,1,4,0:3:0:0:
349,178,96579,2,0,P|293:195|247:160,1,120,6|8,1:2|0:0,0:0:0:0:
150,90,97562,2,0,P|120:93|90:100,1,60,8|2,0:0|3:3,0:0:0:0:
39,119,98054,1,4,0:3:0:0:
39,119,98300,1,4,1:3:0:0:
39,119,98546,6,0,P|49:178|58:237,1,120,6|10,1:2|1:2,0:0:0:0:
77,299,99284,1,2,3:2:0:0:
77,299,99530,1,0,1:0:0:0:
169,374,100021,1,10,1:2:0:0:
265,302,100513,2,0,P|295:305|325:311,1,60,2|2,1:2|3:2,0:0:0:0:
383,324,101005,1,10,1:2:0:0:
456,376,101374,2,0,P|478:338|468:295,1,90,2|2,0:0|3:2,0:0:0:0:
435,244,101989,1,8,1:2:0:0:
358,159,102480,5,4,1:3:0:0:
358,159,102726,2,0,P|361:130|367:100,2,60,2|10|2,3:2|1:2|3:2,0:0:0:0:
312,199,103464,2,0,P|253:187|193:181,1,120,2|2,1:2|1:2,0:0:0:0:
107,264,104448,2,0,P|98:204|86:145,1,120,0|4,1:0|0:3,0:0:0:0:
79,90,105185,1,4,0:3:0:0:
79,90,105431,2,0,P|36:95|-1:71,2,90,8|8|2,0:0|0:0|1:2,0:0:0:0:
123,60,106415,6,0,P|216:70|309:88,1,188.999994232178,6|2,1:2|0:0,0:0:0:0:
309,88,108382,1,2,1:2:0:0:
463,230,109243,6,0,P|455:275|449:319,1,90,6|2,1:2|0:0,0:0:0:0:
433,377,109858,1,4,0:3:0:0:
328,317,110350,6,0,P|274:297|229:333,1,120,6|2,1:2|1:2,0:0:0:0:
151,377,111210,2,0,P|82:355|61:286,1,150,6|4,1:2|0:3,0:0:0:0:
89,234,112071,1,4,0:3:0:0:
89,234,112317,2,0,P|81:175|69:115,1,120,6|8,1:2|0:0,0:0:0:0:
187,94,113300,2,0,P|193:123|198:152,1,60,8|2,0:0|3:3,0:0:0:0:
214,216,113792,1,4,0:3:0:0:
214,216,114038,1,4,1:3:0:0:
214,216,114284,6,0,P|278:202|344:194,1,132.00000402832,6|10,1:2|1:2,0:0:0:0:
398,229,115021,1,2,0:0:0:0:
398,229,115267,2,0,P|430:225|463:220,1,66.0000020141602,8|0,1:2|1:0,0:0:0:0:
503,176,115759,1,8,1:2:0:0:
466,63,116251,2,0,P|400:74|335:82,1,132.00000402832,10|10,1:2|1:2,0:0:0:0:
291,51,116989,1,2,0:0:0:0:
291,51,117235,2,0,P|259:44|230:59,1,66.0000020141602,8|0,1:2|1:0,0:0:0:0:
194,106,117726,1,8,1:2:0:0:
85,57,118218,6,0,P|97:123|106:188,1,132.00000402832,4|8,1:3|1:2,0:0:0:0:
121,249,118956,1,0,0:0:0:0:
121,249,119202,2,0,P|57:255|18:307,1,132.00000402832,10|2,1:2|1:2,0:0:0:0:
120,368,120185,2,0,P|152:361|185:357,1,66.0000020141602,0|10,1:0|0:0,0:0:0:0:
238,326,120677,1,4,0:3:0:0:
238,326,120923,1,4,0:3:0:0:
238,326,121169,2,0,P|244:276|253:228,2,99.0000030212403,8|2|10,0:0|1:2|0:0,0:0:0:0:
416,64,124120,6,0,P|363:59|323:94,1,107.999996704102,6|2,1:2|1:2,0:0:0:0:
400,170,125103,1,2,1:2:0:0:
256,331,126087,2,0,P|203:320|149:314,1,107.999996704102,0|2,1:0|1:2,0:0:0:0:
67,345,126988,1,2,0:0:0:0:
67,345,127234,2,0,P|55:320|59:294,1,53.9999983520508,2|2,0:0|0:0,0:0:0:0:
30,171,128054,6,0,P|75:197|127:185,1,107.999996704102,0|2,1:0|1:2,0:0:0:0:
219,129,129038,1,2,1:2:0:0:
353,298,130021,2,0,P|406:288|459:280,1,107.999996704102,0|2,1:0|1:2,0:0:0:0:
510,207,130923,1,2,0:0:0:0:
510,207,131169,2,0,P|505:179|502:153,1,53.9999983520508,2|2,0:0|0:0,0:0:0:0:
413,67,131988,6,0,P|365:75|318:82,1,96,4|2,0:2|0:0,0:0:0:0:
231,21,132972,1,2,0:0:0:0:
231,21,133956,2,0,P|222:68|215:115,1,96,0|2,0:0|0:0,0:0:0:0:
203,201,134857,2,0,P|247:214|265:257,1,96,2|2,0:0|0:0,0:0:0:0:
223,373,135923,6,0,P|175:364|128:357,1,96,0|2,0:0|0:0,0:0:0:0:
25,332,136906,1,2,0:0:0:0:
25,332,137890,2,0,P|13:286|38:246,1,96,0|2,0:0|0:0,0:0:0:0:
107,188,138792,2,0,P|154:194|202:201,1,96,2|2,0:0|0:0,0:0:0:0:
297,123,139857,5,0,0:0:0:0:
