osu file format v14

[General]
AudioFilename: audio.mp3
AudioLeadIn: 0
PreviewTime: 21703
Countdown: 0
SampleSet: Soft
StackLeniency: 0.7
Mode: 0
LetterboxInBreaks: 0
WidescreenStoryboard: 1

[Editor]
Bookmarks: 74571,74633,74694,74755,74817
DistanceSpacing: 0.2
BeatDivisor: 8
GridSize: 8
TimelineZoom: 1.140798

[Metadata]
Title:Fukuiku no Machi
TitleUnicode:馥郁の街
Artist:CIEL
ArtistUnicode:CIEL
Creator:Iceluin
Version:Ayucchi's CHANEL N.5
Source:
Tags:japanese pop j-pop electronic elysium KAMITSUBAKI STUDIO 神椿スタジオ virtual youtuber artist vtuber vsinger thinkr chanel N°5 no 5 Eau de Toilette Parfum PREMIÈRE premiere L’EAU leau l'eau perfume shirahane suou mocaotic ayucchi kotoha
BeatmapID:3628465
BeatmapSetID:1734266

[Difficulty]
HPDrainRate:5
CircleSize:4
OverallDifficulty:8.5
ApproachRate:9.2
SliderMultiplier:2.5
SliderTickRate:1

[Events]
//Background and Video events
0,0,"cielispog.jpg",0,0
Video,0,"video.mp4"
//Break Periods
2,75140,82238
//Storyboard Layer 0 (Background)
//Storyboard Layer 1 (Fail)
//Storyboard Layer 2 (Pass)
//Storyboard Layer 3 (Foreground)
//Storyboard Layer 4 (Overlay)
//Storyboard Sound Samples

[TimingPoints]
680,491.803278688525,4,2,1,20,1,0
6581,491.803278688525,4,2,1,30,1,0
6581,-166.666666666667,4,2,1,30,0,0
18384,-100,4,2,1,45,0,0
20843,-100,4,2,1,30,0,0
22011,-100,4,2,1,5,0,0
22072,-100,4,2,1,30,0,0
22134,-100,4,2,1,5,0,0
22195,-100,4,2,1,30,0,0
22257,-100,4,2,1,5,0,0
22318,-58.8235294117647,4,2,1,75,0,0
22871,-58.8235294117647,4,2,1,5,0,0
22933,-58.8235294117647,4,2,1,75,0,0
22994,-58.8235294117647,4,2,1,5,0,0
23056,-58.8235294117647,4,2,1,75,0,0
23486,-58.8235294117647,4,2,1,5,0,0
23548,-58.8235294117647,4,2,1,75,0,0
23732,-58.8235294117647,4,2,1,5,0,0
23794,-58.8235294117647,4,2,1,75,0,0
26437,-58.8235294117647,4,2,1,5,0,0
26499,-58.8235294117647,4,2,1,75,0,0
27052,-58.8235294117647,4,2,1,5,0,0
27113,-58.8235294117647,4,2,1,75,0,0
28035,-58.8235294117647,4,2,1,5,0,0
28097,-58.8235294117647,4,2,1,75,0,0
28158,-58.8235294117647,4,2,1,5,0,0
28220,-50,4,2,1,75,0,0
28712,-52.6315789473684,4,2,1,75,0,0
29203,-55.5555555555556,4,2,1,75,0,0
29695,-58.8235294117647,4,2,1,75,0,0
29757,-58.8235294117647,4,2,1,5,0,0
29818,-58.8235294117647,4,2,1,75,0,0
29880,-58.8235294117647,4,2,1,5,0,0
29941,-58.8235294117647,4,2,1,75,0,0
30126,-58.8235294117647,4,2,1,5,0,0
30187,-71.4285714285714,4,2,1,75,0,0
31601,-71.4285714285714,4,2,1,5,0,0
31662,-71.4285714285714,4,2,1,75,0,0
33876,-71.4285714285714,4,2,1,75,0,0
33999,-71.4285714285714,4,2,1,75,0,0
34060,-71.4285714285714,4,2,1,5,0,0
34121,-71.4285714285714,4,2,1,75,0,0
35781,-71.4285714285714,4,2,1,5,0,0
35843,-71.4285714285714,4,2,1,75,0,0
35904,-71.4285714285714,4,2,1,5,0,0
35966,-71.4285714285714,4,2,1,75,0,0
36027,-71.4285714285714,4,2,1,5,0,0
36089,-71.4285714285714,4,2,1,75,0,0
37810,-1000,4,2,1,75,0,0
37841,-1000,4,2,2,5,0,0
39367,-1000,4,2,2,50,0,0
40023,491.803278688525,4,2,2,65,1,0
40023,-76.9230769230769,4,2,2,65,0,0
41928,-76.9230769230769,4,2,2,5,0,0
41990,-76.9230769230769,4,2,2,65,0,0
45863,-76.9230769230769,4,2,2,5,0,0
45924,-76.9230769230769,4,2,2,65,0,0
47891,-55.5555555555556,4,2,2,30,0,0
48383,491.803278688525,4,2,2,65,1,0
48383,-76.9230769230769,4,2,2,65,0,0
50288,-76.9230769230769,4,2,2,5,0,0
50350,-76.9230769230769,4,2,2,65,0,0
54222,-76.9230769230769,4,2,2,5,0,0
54284,-76.9230769230769,4,2,2,65,0,0
56251,-100,4,2,1,55,0,0
64120,-200,4,2,1,45,0,0
64612,-13.755158220407,4,2,1,45,0,1
65104,-200,4,2,1,45,0,0
65596,-13.755158220407,4,2,1,45,0,1
66087,-200,4,2,1,45,0,0
66579,-13.755158220407,4,2,1,45,0,1
67071,-100,4,2,1,45,0,0
67563,-13.755158220407,4,2,1,45,0,1
67993,-62.5,4,2,1,5,0,1
68055,-166.666666666667,4,2,1,30,0,0
70022,-166.666666666667,4,2,1,35,0,0
70206,-166.666666666667,4,2,1,5,0,0
70268,-166.666666666667,4,2,1,35,0,0
70514,-166.666666666667,4,2,1,42,0,0
70698,-166.666666666667,4,2,1,5,0,0
70760,-166.666666666667,4,2,1,42,0,0
71005,-166.666666666667,4,2,1,49,0,0
71190,-166.666666666667,4,2,1,5,0,0
71252,-166.666666666667,4,2,1,49,0,0
71497,-166.666666666667,4,2,1,57,0,0
71682,-166.666666666667,4,2,1,5,0,0
71744,-166.666666666667,4,2,1,57,0,0
71989,-83.3333333333334,4,2,1,65,0,0
72051,-83.3333333333334,4,2,1,5,0,0
72358,-83.3333333333334,4,2,1,65,0,0
72419,-83.3333333333334,4,2,1,5,0,0
72727,-13.755158220407,4,2,1,65,0,0
72758,-13.755158220407,4,2,1,5,0,0
74940,491.803278688525,4,2,1,30,1,0
82808,-142.857142857143,4,2,1,45,0,0
87235,-142.857142857143,4,2,0,45,0,0
87726,-142.857142857143,4,2,1,45,0,0
88218,-142.857142857143,4,2,0,45,0,0
88249,-142.857142857143,4,2,1,45,0,0
88649,-142.857142857143,4,2,1,5,0,0
88710,-142.857142857143,4,2,1,45,0,0
90185,-100,4,2,1,30,0,0
90370,-100,4,2,1,5,0,0
90431,-100,4,2,1,30,0,0
90493,-100,4,2,1,5,0,0
90554,-100,4,2,1,30,0,0
90616,-100,4,2,1,5,0,0
90677,-58.8235294117647,4,2,1,75,0,0
91230,-58.8235294117647,4,2,1,5,0,0
91292,-58.8235294117647,4,2,1,75,0,0
91353,-58.8235294117647,4,2,1,5,0,0
91415,-58.8235294117647,4,2,1,75,0,0
91845,-58.8235294117647,4,2,1,5,0,0
91907,-58.8235294117647,4,2,1,75,0,0
92091,-58.8235294117647,4,2,1,5,0,0
92153,-58.8235294117647,4,2,1,75,0,0
94796,-58.8235294117647,4,2,1,5,0,0
94858,-58.8235294117647,4,2,1,75,0,0
95411,-58.8235294117647,4,2,1,5,0,0
95472,-58.8235294117647,4,2,1,75,0,0
96394,-58.8235294117647,4,2,1,5,0,0
96456,-58.8235294117647,4,2,1,75,0,0
96517,-58.8235294117647,4,2,1,5,0,0
96579,-50,4,2,1,75,0,0
97071,-52.6315789473684,4,2,1,75,0,0
97562,-55.5555555555556,4,2,1,75,0,0
98054,-58.8235294117647,4,2,1,75,0,0
98116,-58.8235294117647,4,2,1,5,0,0
98177,-58.8235294117647,4,2,1,75,0,0
98239,-58.8235294117647,4,2,1,5,0,0
98300,-58.8235294117647,4,2,1,75,0,0
98485,-58.8235294117647,4,2,1,5,0,0
98546,-71.4285714285714,4,2,1,75,0,0
99960,-71.4285714285714,4,2,1,5,0,0
100021,-71.4285714285714,4,2,1,75,0,0
102173,-71.4285714285714,4,2,1,5,0,0
102235,-71.4285714285714,4,2,1,75,0,0
102296,-71.4285714285714,4,2,1,5,0,0
102358,-71.4285714285714,4,2,1,75,0,0
102419,-71.4285714285714,4,2,1,5,0,0
102480,-71.4285714285714,4,2,1,75,0,0
102665,-71.4285714285714,4,2,1,5,0,0
102726,-71.4285714285714,4,2,1,75,0,0
104140,-71.4285714285714,4,2,1,5,0,0
104202,-71.4285714285714,4,2,1,75,0,0
104263,-71.4285714285714,4,2,1,5,0,0
104325,-71.4285714285714,4,2,1,75,0,0
104386,-71.4285714285714,4,2,1,5,0,0
104448,-71.4285714285714,4,2,1,75,0,0
106415,-71.4285714285714,4,2,1,50,0,0
108382,-58.8235294117647,4,2,1,50,0,0
108444,-58.8235294117647,4,2,1,5,0,0
108505,-58.8235294117647,4,2,1,50,0,0
108567,-58.8235294117647,4,2,1,5,0,0
109243,-58.8235294117647,4,2,1,75,0,0
110534,-58.8235294117647,4,2,1,5,0,0
110595,-58.8235294117647,4,2,1,75,0,0
111149,-58.8235294117647,4,2,1,5,0,0
111210,-58.8235294117647,4,2,1,75,0,0
112132,-58.8235294117647,4,2,1,5,0,0
112194,-58.8235294117647,4,2,1,75,0,0
112255,-58.8235294117647,4,2,1,5,0,0
112317,-50,4,2,1,75,0,0
112808,-52.6315789473684,4,2,1,75,0,0
113300,-55.5555555555556,4,2,1,75,0,0
113792,-58.8235294117647,4,2,1,75,0,0
113853,-58.8235294117647,4,2,1,5,0,0
113915,-58.8235294117647,4,2,1,75,0,0
113976,-58.8235294117647,4,2,1,5,0,0
114038,-58.8235294117647,4,2,1,75,0,0
114222,-58.8235294117647,4,2,1,5,0,0
114284,-43.4782608695652,4,2,1,85,0,0
114468,-43.4782608695652,4,2,1,5,0,0
114530,-43.4782608695652,4,2,1,85,0,0
114960,-43.4782608695652,4,2,1,5,0,0
115021,-43.4782608695652,4,2,1,85,0,0
115452,-43.4782608695652,4,2,1,5,0,0
115513,-43.4782608695652,4,2,1,85,0,0
115821,-43.4782608695652,4,2,1,5,0,0
115882,-43.4782608695652,4,2,1,85,0,0
116435,-43.4782608695652,4,2,1,5,0,0
116497,-43.4782608695652,4,2,1,85,0,0
116927,-43.4782608695652,4,2,1,5,0,0
116989,-43.4782608695652,4,2,1,85,0,0
117419,-43.4782608695652,4,2,1,5,0,0
117480,-43.4782608695652,4,2,1,85,0,0
117911,-43.4782608695652,4,2,1,5,0,0
117972,-43.4782608695652,4,2,1,85,0,0
118034,-43.4782608695652,4,2,1,5,0,0
118095,-43.4782608695652,4,2,1,85,0,0
118157,-43.4782608695652,4,2,1,5,0,0
118218,-43.4782608695652,4,2,1,85,0,0
118403,-43.4782608695652,4,2,1,5,0,0
118464,-43.4782608695652,4,2,1,85,0,0
119386,-43.4782608695652,4,2,1,5,0,0
119448,-43.4782608695652,4,2,1,85,0,0
119755,-43.4782608695652,4,2,1,5,0,0
119817,-43.4782608695652,4,2,1,85,0,0
119878,-43.4782608695652,4,2,1,5,0,0
119940,-43.4782608695652,4,2,1,85,0,0
120001,-43.4782608695652,4,2,1,5,0,0
120062,-43.4782608695652,4,2,1,85,0,0
120124,-43.4782608695652,4,2,1,5,0,0
120185,-43.4782608695652,4,2,1,85,0,0
120370,-43.4782608695652,4,2,1,5,0,0
120431,-43.4782608695652,4,2,1,85,0,0
121907,-1000,4,2,1,85,0,0
121937,-1000,4,2,1,5,0,0
123464,-1000,4,2,1,85,0,0
124120,491.803278688525,4,2,1,40,1,0
124120,-200,4,2,1,40,0,0
131988,-500,4,2,1,30,0,0

[Colours]
Combo1 : 255,155,106
Combo2 : 0,183,183
Combo3 : 156,156,205
Combo4 : 0,210,105

[HitObjects]
256,192,925,12,0,4614,0:0:0:0:
67,64,6581,6,0,P|178:119|188:258,1,274.999991607666,2|0,0:0|0:0,0:0:0:0:
29,366,8548,6,0,P|156:300|282:261,1,274.999991607666,2|0,0:0|0:0,0:0:0:0:
490,362,10515,5,2,0:0:0:0:
196,74,11499,1,2,0:0:0:0:
478,41,12236,5,0,0:0:0:0:
478,41,12482,1,2,0:0:0:0:
351,156,12974,1,2,0:0:0:0:
196,74,13466,1,2,0:0:0:0:
69,189,13958,1,2,0:0:0:0:
254,354,14449,6,0,B|210:283|262:239|274:255|329:196|257:104,1,274.999991607666,2|0,0:0|0:0,0:0:0:0:
458,34,16417,6,0,P|347:94|214:182,1,274.999991607666,2|0,0:0|0:0,0:0:0:0:
286,372,18384,6,0,L|305:306,1,50,0|8,1:0|0:0,0:0:0:0:
355,106,18581,5,8,0:0:0:0:
392,128,18679,1,8,0:0:0:0:
391,168,18777,1,8,0:0:0:0:
380,182,18876,2,0,P|352:187|319:195,1,50,8|4,0:0|0:3,0:0:0:0:
124,318,19072,5,8,0:0:0:0:
126,308,19171,1,4,0:3:0:0:
128,298,19269,1,8,0:0:0:0:
130,288,19367,2,0,P|124:251|113:214,1,50,0|8,1:0|0:0,0:0:0:0:
71,34,19564,5,8,0:0:0:0:
42,80,19662,1,8,0:0:0:0:
71,126,19761,1,8,0:0:0:0:
150,154,19859,5,8,0:0:0:0:
186,126,19958,1,4,0:3:0:0:
229,115,20056,1,4,0:3:0:0:
273,118,20154,1,4,0:3:0:0:
312,140,20253,1,4,0:3:0:0:
307,154,20351,5,2,3:2:0:0:
302,168,20843,5,0,3:0:0:0:
297,182,21335,5,0,3:0:0:0:
292,196,21826,6,0,P|300:252|302:310,1,93.75,2|0,3:2|0:0,0:0:0:0:
298,298,22072,6,0,P|283:277|280:246,1,31.25,2|0,0:0|0:0,0:0:0:0:
386,200,22195,2,0,P|371:221|368:252,1,31.25,2|0,0:0|0:0,0:0:0:0:
259,373,22318,6,0,B|308:273|442:287|404:348|361:341,1,212.500004053116,6|8,1:2|0:0,0:0:0:0:
143,243,22687,1,2,0:0:0:0:
266,381,22810,6,0,L|279:312,1,53.125001013279,2|0,1:2|0:0,0:0:0:0:
292,196,22933,2,0,L|305:127,1,53.125001013279,8|0,0:0|0:0,0:0:0:0:
220,9,23056,1,2,0:0:0:0:
23,241,23179,6,0,B|77:220|96:156|96:156|134:233|234:224,1,265.625005066395,6|0,1:2|0:0,0:0:0:0:
218,224,23548,1,0,0:0:0:0:
150,39,23671,2,0,L|157:115,1,53.125001013279,8|0,0:0|0:0,0:0:0:0:
154,337,23794,6,0,P|128:279|160:227,1,106.250002026558,4|4,0:3|0:3,0:0:0:0:
290,49,24040,2,0,P|316:107|284:159,1,106.250002026558,4|0,0:3|0:0,0:0:0:0:
159,171,24285,5,6,1:2:0:0:
141,165,24408,1,2,0:0:0:0:
220,9,24531,5,10,0:0:0:0:
233,3,24654,1,2,0:0:0:0:
366,73,24777,5,2,1:2:0:0:
356,201,24900,1,8,0:0:0:0:
229,119,25023,1,2,0:0:0:0:
301,143,25146,6,0,B|410:138|374:244|501:233,1,212.500004053116,6|8,1:2|0:0,0:0:0:0:
308,336,25515,5,2,0:0:0:0:
304,309,25576,1,0,0:0:0:0:
300,282,25638,1,8,0:0:0:0:
477,241,25761,6,0,P|483:174|492:128,1,106.250002026558,4|4,0:3|0:3,0:0:0:0:
413,313,26007,1,4,0:3:0:0:
413,313,26130,1,0,0:0:0:0:
301,143,26253,6,0,P|240:142|228:244,1,159.375003039837,6|0,1:2|0:0,0:0:0:0:
218,237,26499,2,0,P|139:224|100:219,1,106.250002026558,10|0,0:0|0:0,0:0:0:0:
98,24,26744,2,0,P|110:103|117:141,1,106.250002026558,2|8,1:2|0:0,0:0:0:0:
64,346,26990,6,0,B|54:323|54:323|65:297,1,53.125001013279,2|0,0:0|0:0,0:0:0:0:
72,289,27113,6,0,B|97:180|3:166|3:166|32:183|44:211,1,212.500004053116,6|8,1:2|0:0,0:0:0:0:
294,269,27482,2,0,P|259:274|198:333,1,106.250002026558,2|8,0:0|0:0,0:0:0:0:
192,153,27728,5,4,0:3:0:0:
334,206,27851,1,4,0:3:0:0:
192,153,27974,6,0,L|266:132,1,53.125001013279,4|0,0:3|0:0,0:0:0:0:
357,102,28097,2,0,L|431:81,1,53.125001013279
336,340,28220,6,0,B|299:259|344:223|359:230|421:175|322:77,1,250,6|10,1:2|0:0,0:0:0:0:
282,70,28589,1,0,1:0:0:0:
461,210,28712,6,0,B|326:185|326:185|275:207|294:268,1,237.499993658066,8|2,0:0|1:2,0:0:0:0:
336,340,29081,1,0,1:0:0:0:
468,136,29203,6,0,B|481:63|405:37|405:37|388:104|329:115,1,224.999993133545,8|2,0:0|3:3,0:0:0:0:
282,70,29572,1,10,0:0:0:0:
187,209,29695,6,0,P|203:134|229:61,1,106.250002026558,4|4,0:3|0:3,0:0:0:0:
75,80,29941,5,4,1:3:0:0:
152,57,30064,1,0,0:0:0:0:
0,42,30187,6,0,P|43:94|42:206,1,174.999994659424,6|0,1:2|3:0,0:0:0:0:
45,197,30556,1,2,0:0:0:0:
86,323,30679,6,0,P|34:311|22:259,2,87.499997329712,10|0|2,1:2|0:0|3:2,0:0:0:0:
169,360,31048,2,0,P|166:285|136:155,1,174.999994659424,2|0,0:0|0:0,0:0:0:0:
146,187,31417,6,0,P|218:177|223:246,1,131.249995994568,0|0,3:0|0:0,0:0:0:0:
196,287,31662,5,10,1:2:0:0:
243,138,31785,2,0,P|323:123|441:95,1,174.999994659424,2|0,0:0|0:0,0:0:0:0:
321,11,32154,6,0,P|296:43|320:108,1,87.499997329712,2|0,1:2|0:0,0:0:0:0:
447,343,32400,2,0,P|472:311|448:246,1,87.499997329712,2|0,3:2|0:0,0:0:0:0:
325,164,32646,5,10,1:2:0:0:
414,101,32769,1,0,0:0:0:0:
479,148,32892,1,2,3:2:0:0:
416,207,33015,6,0,P|436:110|469:11,1,174.999994659424,2|0,0:0|0:0,0:0:0:0:
338,255,33384,2,0,P|330:205|311:146,1,87.499997329712,2|0,3:2|0:0,0:0:0:0:
169,60,33630,6,0,P|147:122|212:175,1,131.249995994568,8|0,1:2|0:0,0:0:0:0:
195,170,33876,6,0,L|256:155,1,43.749998664856,4|4,0:3|0:3,0:0:0:0:
328,171,33999,2,0,L|389:156,1,43.749998664856,4|4,0:3|0:3,0:0:0:0:
272,372,34121,6,0,P|267:312|248:231,1,131.249995994568,0|0,1:0|0:0,0:0:0:0:
243,237,34367,6,0,B|203:245|203:245|157:324|157:324|102:337,2,174.999994659424,2|10|2,3:2|1:2|3:2,0:0:0:0:
44,41,35105,6,0,P|64:92|77:138,1,87.499997329712,2|0,1:2|0:0,0:0:0:0:
206,151,35351,2,0,P|226:109|196:72,1,87.499997329712,2|0,3:2|0:0,0:0:0:0:
132,68,35597,1,10,1:2:0:0:
46,203,35720,5,8,0:0:0:0:
115,333,35843,1,8,0:0:0:0:
46,203,35966,1,8,0:0:0:0:
156,224,36089,6,0,L|264:239,1,87.499997329712,0|0,1:0|0:0,0:0:0:0:
300,283,36273,1,0,0:0:0:0:
297,291,36335,1,8,0:0:0:0:
376,201,36458,1,2,3:3:0:0:
281,102,36581,6,0,P|295:161|306:214,1,87.499997329712,4|4,0:3|0:3,0:0:0:0:
433,53,36826,1,4,0:3:0:0:
365,97,36949,1,0,0:0:0:0:
450,176,37072,5,8,0:0:0:0:
396,284,37195,2,0,P|366:239|380:194,1,87.499997329712,8|0,0:0|0:0,0:0:0:0:
505,305,37441,2,0,P|464:349|444:392,1,87.499997329712,0|0,1:0|0:0,0:0:0:0:
297,291,37687,5,8,0:0:0:0:
165,361,37810,6,0,P|131:353|92:346,1,75,2|0,1:2|0:0,0:0:0:0:
78,356,39367,5,0,1:0:0:0:
73,336,39449,1,0,1:0:0:0:
90,307,39531,1,0,1:0:0:0:
162,169,39695,5,0,1:0:0:0:
310,175,39859,5,0,1:0:0:0:
434,59,40023,6,0,P|395:177|376:313,1,243.749988842011,6|0,1:2|0:0,0:0:0:0:
481,271,40514,5,10,0:0:0:0:
467,261,40637,1,2,0:0:0:0:
308,256,40760,5,2,0:0:0:0:
294,266,40883,1,2,0:0:0:0:
385,372,41006,6,0,P|373:305|270:271,2,162.499992561341,2|2|8,1:2|0:0|0:0,0:0:0:0:
46,347,41744,6,0,P|-4:295|20:232,1,121.874994421006,2|0,0:0|0:0,0:0:0:0:
10,248,41990,2,0,P|76:224|199:192,1,162.499992561341,0|0,1:0|0:0,0:0:0:0:
164,199,42482,5,10,0:0:0:0:
221,256,42604,2,0,P|183:289|148:283,1,81.2499962806703,2|0,0:0|0:0,0:0:0:0:
80,109,42850,2,0,P|54:148|71:202,1,81.2499962806703,2|0,0:0|1:0,0:0:0:0:
214,32,43137,6,0,P|235:85|217:148,1,108.333328374227,2|0,0:0|0:0,0:0:0:0:
224,142,43383,2,0,P|273:123|307:120,1,54.1666641871136,2|8,0:0|0:0,0:0:0:0:
449,93,43588,5,2,0:0:0:0:
449,93,43711,2,0,P|354:79|358:3,1,162.499992561341,2|0,0:0|1:0,0:0:0:0:
478,187,44203,1,0,0:0:0:0:
294,146,44449,5,10,0:0:0:0:
300,127,44572,1,2,0:0:0:0:
214,32,44695,5,2,0:0:0:0:
208,13,44818,1,2,0:0:0:0:
154,168,44941,6,0,P|217:123|312:171,2,162.499992561341,2|2|8,1:2|0:0|0:0,0:0:0:0:
345,327,45678,6,0,B|319:273|385:271|359:180,1,121.874994421006,2|0,0:0|0:0,0:0:0:0:
370,204,45924,2,0,P|239:241|179:259,1,162.499992561341,0|0,1:0|0:0,0:0:0:0:
213,248,46416,5,8,0:0:0:0:
155,308,46539,2,0,P|184:357|195:389,1,81.2499962806703,2|0,0:0|0:0,0:0:0:0:
273,192,46785,2,0,P|267:147|209:121,1,81.2499962806703,2|0,0:0|1:0,0:0:0:0:
40,249,47072,6,0,B|100:244|72:214|156:208,1,108.333328374227,2|0,0:0|0:0,0:0:0:0:
144,214,47318,2,0,P|146:163|127:124,1,54.1666641871136,2|10,0:0|0:0,0:0:0:0:
14,67,47523,1,0,0:0:0:0:
14,67,47645,2,0,P|61:85|103:86,1,81.2499962806703,2|0,0:0|0:0,0:0:0:0:
169,66,47891,6,0,B|152:39|178:-7|247:8|246:80|194:94|172:69|172:69|172:69|172:69|154:41|180:-4|249:11|248:83|196:97|174:72,1,337.499989700318,0|0,1:0|0:0,0:0:0:0:
173,71,48383,6,0,P|248:83|264:166,1,162.499992561341,6|0,1:2|0:0,0:0:0:0:
161,329,48874,5,10,0:0:0:0:
155,312,48997,1,2,0:0:0:0:
318,352,49120,5,2,0:0:0:0:
324,335,49243,1,2,0:0:0:0:
221,215,49366,6,0,P|233:276|243:391,2,162.499992561341,2|2|8,1:2|0:0|0:0,0:0:0:0:
386,78,50104,6,0,B|328:96|358:133|267:150,1,121.874994421006,2|0,0:0|0:0,0:0:0:0:
290,154,50350,2,0,P|349:210|402:157,1,162.499992561341,0|0,1:0|0:0,0:0:0:0:
401,169,50842,5,10,0:0:0:0:
309,72,50964,2,0,P|257:59|217:47,1,81.2499962806703,2|0,0:0|0:0,0:0:0:0:
488,37,51210,2,0,P|476:76|467:115,1,81.2499962806703,2|0,0:0|1:0,0:0:0:0:
372,352,51497,6,0,P|360:255|344:217,1,108.333328374227,2|0,0:0|0:0,0:0:0:0:
360,239,51743,2,0,P|406:254|431:258,1,54.1666641871136,2|10,0:0|0:0,0:0:0:0:
268,362,51948,5,2,0:0:0:0:
268,362,52071,2,0,P|232:291|145:300,1,162.499992561341,2|0,0:0|1:0,0:0:0:0:
9,151,52563,1,0,0:0:0:0:
200,62,52809,5,10,0:0:0:0:
194,82,52932,1,2,0:0:0:0:
99,201,53055,5,2,0:0:0:0:
93,181,53178,1,2,0:0:0:0:
237,147,53301,6,0,P|162:124|77:101,2,162.499992561341,2|2|8,1:2|0:0|0:0,0:0:0:0:
85,356,54038,6,0,P|37:322|48:258,1,121.874994421006,2|0,0:0|0:0,0:0:0:0:
48,259,54284,2,0,P|137:273|224:295,1,162.499992561341,0|0,1:0|0:0,0:0:0:0:
207,290,54776,5,10,0:0:0:0:
283,273,54899,2,0,P|299:236|295:196,1,81.2499962806703,2|0,0:0|0:0,0:0:0:0:
148,172,55145,2,0,P|131:209|136:249,1,81.2499962806703,2|2,0:0|1:2,0:0:0:0:
345,325,55432,6,0,P|418:307|485:297,1,108.333328374227,2|0,0:0|0:0,0:0:0:0:
454,294,55678,2,0,P|453:249|463:217,1,54.1666641871136,2|10,0:0|0:0,0:0:0:0:
396,63,55883,1,0,0:0:0:0:
396,63,56005,2,0,P|454:90|505:108,1,81.2499962806703,2|0,0:0|0:0,0:0:0:0:
295,196,56251,6,0,P|316:162|400:181,2,125,6|0|8,1:2|0:0|0:0,0:0:0:0:
323,268,56989,1,0,0:0:0:0:
227,362,57235,6,0,P|161:331|86:318,1,125,2|0,1:2|0:0,0:0:0:0:
45,146,57727,1,10,0:0:0:0:
175,58,57973,2,0,L|157:143,2,62.5,2|0|0,0:0|0:0|1:0,0:0:0:0:
226,232,58464,6,0,L|102:197,2,125,2|10|0,0:0|0:0|0:0,0:0:0:0:
226,232,59079,1,0,0:0:0:0:
226,232,59202,1,0,1:0:0:0:
413,166,59448,5,2,0:0:0:0:
267,90,59694,1,10,0:0:0:0:
368,36,59940,2,0,P|343:118|328:175,1,125,2|0,0:0|1:0,0:0:0:0:
210,305,60432,5,2,0:0:0:0:
356,229,60678,1,10,0:0:0:0:
255,175,60924,2,0,P|280:257|295:314,2,125,2|0|0,0:0|1:0|0:0,0:0:0:0:
473,223,61661,1,8,0:0:0:0:
332,368,61907,6,0,P|283:337|194:337,1,125,2|2,0:0|1:2,0:0:0:0:
25,259,62399,1,0,0:0:0:0:
131,354,62645,1,10,0:0:0:0:
249,145,62891,5,0,0:0:0:0:
249,145,63014,1,0,0:0:0:0:
249,145,63137,2,0,P|189:174|123:225,1,125,2|0,1:2|0:0,0:0:0:0:
108,273,63505,1,0,0:0:0:0:
22,61,63628,6,0,P|77:75|146:116,1,125,10|0,0:0|0:0,0:0:0:0:
218,210,63997,1,0,0:0:0:0:
347,114,64120,6,0,L|353:157,1,31.25,2|0,1:3|0:0,0:0:0:0:
355,106,64366,2,0,L|361:149,1,31.25,2|0,0:3|0:0,0:0:0:0:
457,73,64612,6,2,B|415:84|415:84|386:150|386:150|389:143|386:150|386:150|383:156|386:150|386:150|375:175|375:175|377:170|375:175|375:175|373:180|375:175|375:175|371:184|371:184|369:189|371:184|371:184|368:191|368:191|365:197|368:191|368:191|364:200|364:200|365:198|364:200|364:200|361:206|364:200|364:200|360:209|360:209|361:206|360:209|360:209|358:214|360:209|360:209|357:216|357:216|358:214|357:216|357:216|354:223|357:216|357:216|353:225|353:225|351:222|353:225|353:225|357:230|353:225|353:225|357:230|357:230|361:232|357:230|357:230|350:227|357:230|357:230|348:226|348:226|344:221|348:226|348:226|352:232|348:226|348:226|351:230|351:230|352:228|351:230|351:230|348:238|351:230|351:230|348:237|348:237|350:233|348:237|348:237|345:245|348:237|348:237|346:242|346:242|348:237|346:242|346:242|342:251|346:242|346:242|343:249|343:249|339:245|343:249|343:249|347:253|343:249|343:249|344:250|344:250|346:252|344:250|344:250|345:251|345:251|343:249|345:251|345:251|346:252|346:252|350:256|346:252|346:252|347:253|347:253|338:249|347:253|347:253|342:251|342:251|346:252|342:251|342:251|331:247|342:251|342:251|337:249|337:249|333:245|337:249|337:249|339:251|337:249|337:249|339:251|337:249|337:249|339:251|337:249|337:249|338:250|337:249|337:249|338:250|338:250|340:252|338:250|338:250|340:252|338:250|338:250|340:252|338:250|338:250|339:251|338:250|338:250|339:251|339:251|341:253|339:251|339:251|341:253|339:251|339:251|341:253|339:251|339:251|341:253|339:251|339:251|340:252|340:252|339:251|340:252|340:252|342:254|340:252|340:252|342:254|340:252|340:252|342:254|340:252|340:252|341:253|341:253|342:251|341:253|341:253|340:256|341:253|341:253|340:256|341:253|341:253|340:256|341:253|341:253|340:256|341:253|341:253|340:256|341:253|341:253|340:256|340:256|341:253|340:256|340:256|341:253|340:256|340:256|341:253|340:256|340:256|339:259|340:256|340:256|339:259|340:256|340:256|339:257|339:257|340:254|339:257|339:257|340:254|339:257|339:257|340:254|339:257|339:257|338:260|339:257|339:257|338:260|339:257|339:257|338:260|339:257|339:257|338:260|338:260|339:258|338:260|338:260|337:263|338:260|338:260|337:263|338:260|338:260|337:263|338:260|338:260|337:263|338:260|338:260|337:263|338:260|338:260|337:263|338:260|338:260|337:262|338:260|338:260|337:263|337:263|338:260|337:263|337:263|338:260|337:263|337:263|338:260|337:263|337:263|336:266|337:263|337:263|336:266|337:263|337:263|336:264|336:264|337:261|336:264|336:264|337:261|336:264|336:264|337:262|336:264|336:264|335:267|336:264|336:264|335:267|336:264|336:264|335:266|336:264|336:264|335:267|335:267|336:265|335:267|335:267|334:270|335:267|335:267|334:270|335:267|335:267|334:270|335:267|335:267|334:270|335:267|335:267|334:270|335:267|335:267|334:270|335:267|335:267|334:269|335:267|335:267|334:270|334:270|335:267|334:270|334:270|335:267|334:270|334:270|335:267|334:270|334:270|333:273|334:270|334:270|333:273|334:270|334:270|333:273|334:270|334:270|333:272|333:272|334:269|333:272|333:272|334:270|333:272|333:272|332:275|333:272|333:272|332:275|333:272|333:272|332:275|333:272|333:272|332:274|332:274|333:271|332:274|332:274|333:271|332:274|332:274|333:271|332:274|332:274|333:271|332:274|332:274|333:271|332:274|332:274|333:272|332:274|332:274|333:272|333:272|332:275|333:272|333:272|332:275|333:272|333:272|332:274|333:272|333:272|334:270|333:272|333:272|333:271|333:271|335:273|333:271|333:271|335:273|333:271|333:271|335:273|333:271|333:271|334:272|334:272|333:271|334:272|334:272|336:274|334:272|334:272|336:274|334:272|334:272|336:274|334:272|334:272|335:273|335:273|334:272|335:273|335:273|337:275|335:273|335:273|337:275|335:273|335:273|337:275|335:273|335:273|336:274|336:274|338:275|336:274|336:274|333:273|336:274|336:274|333:273|336:274|336:274|333:273|336:274|336:274|333:273|336:274|336:274|333:273|336:274|336:274|333:273|333:273|336:274|333:273|333:273|336:274|333:273|333:273|335:274|333:273|333:273|330:272|333:273|333:273|330:272|333:273|333:273|332:272|332:272|335:273|332:272|332:272|335:273|332:272|332:272|335:273|332:272|332:272|329:271|332:272|332:272|329:271|332:272|332:272|329:271|329:271|327:269|329:271|329:271|331:273|329:271|329:271|331:273|329:271|329:271|331:273|329:271|329:271|331:273|329:271|329:271|331:273|329:271|329:271|330:272|330:272|332:274|330:272|330:272|332:274|330:272|330:272|332:274|330:272|330:272|331:273|330:272|330:272|331:273|331:273|333:275|331:273|331:273|333:275|331:273|331:273|333:275|331:273|331:273|332:274|331:273|331:273|332:274|332:274|329:275|332:274|332:274|329:275|332:274|332:274|329:275|332:274|332:274|329:275|332:274|332:274|329:275|332:274|332:274|329:275|329:275|332:274|329:275|329:275|331:275|329:275|329:275|326:276|329:275|329:275|326:276|329:275|329:275|326:276|329:275|329:275|328:275|328:275|325:276|328:275|328:275|325:276|328:275|328:275|325:276|328:275|328:275|325:276|328:275|328:275|326:275|328:275|328:275|325:276|325:276|328:275|325:276|325:276|328:275|325:276|325:276|322:277|325:276|325:276|322:277|325:276|325:276|323:276|325:276|325:276|324:276|324:276|327:275|324:276|324:276|327:275|324:276|324:276|321:277|324:276|324:276|321:277|324:276|324:276|321:277|324:276|324:276|322:276|324:276|324:276|320:277|320:277|323:276|320:277|320:277|317:278|320:277|320:277|317:278|320:277|320:277|317:278|320:277|320:277|317:278|320:277|320:277|318:277|320:277|320:277|319:277|319:277|316:278|319:277|319:277|316:278|319:277|319:277|318:277|318:277|321:276|318:277|318:277|321:276|318:277|318:277|321:276|318:277|318:277|315:278|318:277|318:277|315:278|315:278|318:277|315:278|315:278|318:277|315:278|315:278|318:277|315:278|315:278|312:279|315:278|315:278|312:279|315:278|315:278|312:279|315:278|315:278|312:279|315:278|315:278|313:278|315:278|315:278|312:279|312:279|315:278|312:279|312:279|315:278|312:279|312:279|309:280|312:279|312:279|309:280|312:279|312:279|311:279|311:279|310:282|311:279|311:279|310:282|311:279|311:279|310:282|311:279|311:279|310:282|311:279|311:279|310:281|311:279|311:279|310:282|310:282|311:279|310:282|310:282|311:279|310:282|310:282|311:279|310:282|310:282|311:280|310:282|310:282|309:285|310:282|310:282|309:285|310:282|310:282|309:284|309:284|308:280|309:284|309:284|308:280|309:284|309:284|308:280|309:284|309:284|308:280|309:284|309:284|308:280|309:284|309:284|309:282|309:284|309:284|308:280|308:280|308:282|308:280|308:280|307:276|308:280|308:280|307:276|308:280|308:280|307:276|308:280|308:280|308:278|308:280|308:280|308:279|308:279|307:275|308:279|308:279|307:275|308:279|308:279|307:275|308:279|308:279|307:275|308:279|308:279|307:275|307:275|308:279|307:275|307:275|306:271|307:275|307:275|306:271|307:275|307:275|306:271|307:275|307:275|307:274|307:274|306:278|307:274|307:274|306:278|307:274|307:274|307:276|307:274|307:274|307:276|307:276|308:272|307:276|307:276|308:272|307:276|307:276|308:272|307:276|307:276|307:274|307:276|307:276|306:280|307:276|307:276|306:279|306:279|307:275|306:279|306:279|307:275|306:279|306:279|306:277|306:279|306:279|306:282|306:279|306:279|306:280|306:280|302:281|306:280|306:280|302:281|306:280|306:280|302:281|306:280|306:280|304:280|306:280|306:280|303:281|303:281|307:280|303:281|303:281|306:280|303:281|303:281|299:282|303:281|303:281|299:282|303:281|303:281|301:281|301:281|305:280|301:281|301:281|305:280|301:281|301:281|297:282|301:281|301:281|297:282|301:281|301:281|298:282|298:282|302:281|298:282|298:282|300:282|298:282|298:282|294:283|298:282|298:282|294:283|298:282|298:282|297:282|297:282|293:283|297:282|297:282|293:283|297:282|297:282|293:283|297:282|297:282|294:283|294:283|298:282|294:283|294:283|298:282|294:283|294:283|296:283|294:283|294:283|290:284|294:283|294:283|293:283|293:283|289:284|293:283|293:283|289:284|293:283|293:283|289:284|293:283|293:283|289:284|293:283|293:283|289:284|289:284|293:283|289:284|289:284|285:285|289:284|289:284|285:285|289:284|289:284|285:285|289:284|289:284|288:284|288:284|292:283|288:284|288:284|290:284|288:284|288:284|284:285|288:284|288:284|284:285|288:284|288:284|285:285|285:285|289:284|285:285|285:285|288:284|285:285|285:285|282:286|285:285|285:285|285:285|285:285|289:284|285:285|285:285|287:285|285:285,1,1363.12499642372,2|0,0:0|0:0,0:1:0:0:
187,214,65104,6,0,L|230:208,1,31.25,2|0,1:3|0:0,0:0:0:0:
179,206,65350,2,0,L|222:200,1,31.25,2|0,0:3|0:0,0:0:0:0:
96,229,65596,6,2,B|154:221|201:257|201:257|197:253|201:257|201:257|206:263|201:257|201:257|217:274|234:290|234:290|226:283|234:290|234:290|233:289|234:290|234:290|238:293|234:290|234:290|242:297|242:297|240:295|242:297|242:297|246:300|242:297|242:297|249:303|249:303|246:300|249:303|249:303|257:309|249:303|249:303|264:315|264:315|257:320|264:315|264:315|268:312|264:315|264:315|268:312|268:312|269:310|268:312|268:312|264:319|268:312|268:312|263:321|263:321|259:324|263:321|263:321|269:317|263:321|263:321|268:318|268:318|265:317|268:318|268:318|277:322|268:318|268:318|277:322|277:322|272:320|277:322|277:322|287:326|277:322|277:322|280:323|277:322|277:322|286:326|286:326|281:331|286:326|286:326|290:322|286:326|286:326|287:325|287:325|289:323|287:325|287:325|288:324|288:324|287:325|288:324|288:324|289:323|288:324|288:324|289:323|289:323|292:320|289:323|289:323|290:322|290:322|288:327|290:322|290:322|289:325|289:325|290:322|289:325|289:325|287:331|289:325|289:325|288:328|288:328|289:326|288:328|288:328|286:334|288:328|288:328|287:331|287:331|286:333|287:331|287:331|293:323|287:331|287:331|290:327|290:327|285:326|290:327|290:327|298:329|290:327|290:327|293:328|293:328|290:327|293:328|293:328|290:327|293:328|293:328|291:327|293:328|293:328|296:329|293:328|293:328|295:329|293:328|293:328|294:328|294:328|291:327|294:328|294:328|291:327|294:328|294:328|291:327|294:328|294:328|297:329|294:328|294:328|297:329|294:328|294:328|297:329|297:329|294:328|297:329|297:329|294:328|297:329|297:329|300:330|297:329|297:329|300:330|297:329|297:329|299:329|297:329|297:329|298:329|298:329|301:330|298:329|298:329|301:330|298:329|298:329|301:330|298:329|298:329|301:330|298:329|298:329|301:330|298:329|298:329|301:330|301:330|298:329|301:330|301:330|304:331|301:330|301:330|304:331|301:330|301:330|304:331|301:330|301:330|303:330|301:330|301:330|302:330|302:330|299:329|302:330|302:330|305:331|302:330|302:330|303:330|303:330|306:331|303:330|303:330|306:331|303:330|303:330|304:330|304:330|301:329|304:330|304:330|301:329|304:330|304:330|301:329|304:330|304:330|301:329|304:330|304:330|301:329|304:330|304:330|307:331|304:330|304:330|308:331|308:331|305:331|308:331|308:331|305:331|308:331|308:331|305:331|308:331|308:331|311:331|308:331|308:331|311:331|308:331|308:331|311:331|308:331|308:331|310:331|308:331|308:331|309:331|309:331|306:331|309:331|309:331|307:331|309:331|309:331|311:331|309:331|309:331|310:331|310:331|312:328|310:331|310:331|312:328|310:331|310:331|312:328|310:331|310:331|311:329|311:329|309:332|311:329|311:329|309:332|311:329|311:329|309:332|311:329|311:329|310:331|311:329|311:329|313:326|311:329|311:329|312:327|312:327|310:330|312:327|312:327|310:330|312:327|312:327|310:330|312:327|312:327|313:325|312:327|312:327|313:326|313:326|313:329|313:326|313:326|313:329|313:326|313:326|313:329|313:326|313:326|313:329|313:326|313:326|313:328|313:328|313:325|313:328|313:328|313:325|313:328|313:328|313:325|313:328|313:328|313:325|313:328|313:328|313:329|313:329|313:326|313:329|313:329|313:326|313:329|313:329|313:326|313:329|313:329|313:326|313:329|313:329|313:326|313:329|313:329|313:331|313:329|313:329|312:333|312:333|312:330|312:333|312:333|312:330|312:333|312:333|312:330|312:333|312:333|312:331|312:333|312:333|312:336|312:333|312:333|312:336|312:333|312:333|312:336|312:333|312:333|312:335|312:333|312:333|312:335|312:335|312:332|312:335|312:335|312:338|312:335|312:335|312:338|312:335|312:335|312:336|312:336|314:333|312:336|312:336|314:333|312:336|312:336|314:333|312:336|312:336|314:333|312:336|312:336|314:334|312:336|312:336|314:333|314:333|312:336|314:333|314:333|312:335|314:333|314:333|316:330|314:333|314:333|316:330|314:333|314:333|316:330|314:333|314:333|315:332|315:332|318:332|315:332|315:332|318:332|315:332|315:332|318:332|315:332|315:332|318:332|315:332|315:332|318:332|315:332|315:332|318:332|318:332|315:332|318:332|318:332|315:332|318:332|318:332|315:332|318:332|318:332|321:332|318:332|318:332|321:332|318:332|318:332|321:332|318:332|318:332|320:332|320:332|317:332|320:332|320:332|317:332|320:332|320:332|323:332|320:332|320:332|323:332|320:332|320:332|323:332|320:332|320:332|323:332|320:332|320:332|323:332|320:332|320:332|323:332|320:332|320:332|323:332|320:332|320:332|323:332|320:332|320:332|323:332|320:332|320:332|323:332|320:332|320:332|323:332|320:332|320:332|323:332|320:332|320:332|323:332|320:332|320:332|326:333|332:332|332:332|336:332|332:332|332:332|336:332|332:332|332:332|336:332|332:332|332:332|336:332|332:332|332:332|336:332|332:332|332:332|336:332|332:332|332:332|336:332|332:332|332:332|336:332|332:332|332:332|336:332|332:332|332:332|336:332|332:332|332:332|336:332|332:332|332:332|336:332|332:332|332:332|334:332|332:332|332:332|333:332|333:332|337:332|333:332|333:332|337:332|333:332|333:332|335:332|333:332|333:332|335:332|335:332|331:332|335:332|335:332|333:332|335:332|335:332|339:332|335:332|335:332|336:332|336:332|337:329|336:332|336:332|337:329|336:332|336:332|337:329|336:332|336:332|337:329|336:332|336:332|337:330|336:332|336:332|337:329|337:329|336:332|337:329|337:329|336:332|337:329|337:329|336:332|337:329|337:329|336:331|337:329|337:329|338:326|337:329|337:329|338:327|337:329|337:329|338:327|338:327|338:331|338:327|338:327|338:331|338:327|338:327|338:331|338:327|338:327|338:328|338:328|338:332|338:328|338:328|338:330|338:328|338:328|338:329|338:329|338:333|338:329|338:329|338:332|338:329|338:329|338:330|338:330|338:334|338:330|338:330|338:333|338:330|338:330|338:331|338:331|338:335|338:331|338:331|338:333|338:331|338:331|338:332|338:332|338:330|338:332|338:332|338:336|338:332|338:332|338:333|338:333|338:331|338:333|338:333|338:337|338:333|338:333|338:335|338:333|338:333|338:334|338:334|338:338|338:334|338:334|338:337|338:334|338:334|338:335|338:335|338:339|338:335|338:335|338:337|338:335|338:335|338:336|338:336|338:340|338:336|338:336|338:339|338:336|338:336|338:337|338:337|339:334|338:337|338:337|339:334|338:337|338:337|339:334|338:337|338:337|339:334|338:337|338:337|339:334|339:334|338:337|339:334|339:334|338:337|339:334|339:334|338:337|339:334|339:334|338:336|339:334|339:334|340:331|339:334|339:334|340:331|339:334|339:334|340:332|340:332|344:332|340:332|340:332|344:332|340:332|340:332|344:332|340:332|340:332|341:332|341:332|345:332|341:332|341:332|345:332|341:332|341:332|345:332|341:332|341:332|344:332|344:332|340:332|344:332|344:332|340:332|344:332|344:332|348:332|344:332|344:332|348:332|344:332|344:332|346:332|346:332|342:332|346:332|346:332|342:332|346:332|346:332|350:332|346:332|346:332|348:332|348:332|344:332|348:332|348:332|344:332|348:332|348:332|344:332|348:332|348:332|352:332|348:332|348:332|352:332|348:332|348:332|352:332|348:332|348:332|352:332|348:332|348:332|352:332|348:332|348:332|352:332|348:332|348:332|350:332|348:332|348:332|355:332|355:332|357:331|357:331|357:331|357:331|355:331|357:331|357:331|361:331|357:331|357:331|361:331|357:331|357:331|361:331|357:331|357:331|361:331|357:331|357:331|361:331|357:331|357:331|361:331|357:331|357:331|361:331|357:331|357:331|360:331|357:331|357:331|358:331|358:331|354:331|358:331|358:331|362:331|358:331|358:331|360:331|360:331|359:335|360:331|360:331|361:327|360:331|360:331|361:327|360:331|360:331|361:327|360:331|360:331|361:328|361:328|360:332|361:328|361:328|360:332|361:328|361:328|361:330|361:328|361:328|362:324|361:328|361:328|361:327|361:327|362:331|361:327|361:327|362:331|361:327|361:327|361:329|361:329|360:325|361:329|361:329|360:325|361:329|361:329|360:325|361:329|361:329|361:326|361:329|361:329|361:331|361:329|361:329|362:332|362:332|361:328|362:332|362:332|361:328|362:332|362:332|361:328|362:332|362:332|362:335|362:332|362:332|362:334|362:334|361:338|362:334|362:334|363:330|362:334|362:334|363:330|362:334|362:334|363:330|362:334|362:334|363:331|363:331|362:335|363:331|363:331|362:334|363:331|363:331|364:328|363:331|363:331|363:331,1,1363.12499642372,2|0,0:0|0:0,0:1:0:0:
437,250,66087,6,0,L|431:207,1,31.25,2|0,1:3|0:0,0:0:0:0:
429,258,66333,2,0,L|423:215,1,31.25,2|0,0:3|0:0,0:0:0:0:
373,151,66579,6,2,B|326:168|283:193|283:193|278:196|278:196|282:193|278:196|278:196|275:198|278:196|278:196|262:206|262:206|265:204|262:206|262:206|258:209|262:206|262:206|246:217|246:217|250:214|246:217|246:217|244:219|246:217|246:217|239:222|239:222|241:221|239:222|239:222|237:224|239:222|239:222|235:225|235:225|237:224|235:225|235:225|230:229|235:225|235:225|222:235|222:235|227:231|222:235|222:235|216:240|222:235|222:235|210:245|210:245|216:240|210:245|210:245|205:250|210:245|210:245|203:251|203:251|202:247|203:251|203:251|204:255|203:251|203:251|204:254|204:254|205:258|204:254|204:254|205:257|205:257|198:249|205:257|205:257|198:249|198:249|197:242|198:249|198:249|199:256|198:249|198:249|199:255|199:255|202:252|199:255|199:255|191:262|199:255|199:255|194:259|199:255|199:255|188:265|188:265|196:257|188:265|188:265|190:263|188:265|188:265|185:268|188:265|188:265|187:266|187:266|185:268|187:266|187:266|186:267|186:267|187:266|186:267|186:267|184:269|186:267|186:267|185:268|185:268|185:266|185:268|185:268|186:276|185:268|185:268|186:274|186:274|191:279|186:274|186:274|179:266|186:274|186:274|184:272|186:274|186:274|181:268|181:268|188:277|181:268|181:268|184:272|181:268|181:268|179:266|181:268|181:268|179:266|181:268|181:268|179:266|179:266|178:263|179:266|179:266|180:269|179:266|179:266|180:269|179:266|179:266|180:269|179:266|179:266|180:269|179:266|179:266|180:269|179:266|179:266|180:268|180:268|179:265|180:268|180:268|179:265|180:268|180:268|179:266|180:268|180:268|181:271|180:268|180:268|180:269|180:269|181:272|180:269|180:269|181:272|180:269|180:269|181:272|180:269|180:269|181:272|180:269|180:269|181:271|181:271|180:268|181:271|181:271|180:268|181:271|181:271|182:274|181:271|181:271|182:273|181:271|181:271|181:272|181:272|179:274|181:272|181:272|179:274|181:272|181:272|179:274|181:272|181:272|180:273|180:273|178:275|180:273|180:273|178:275|180:273|180:273|178:275|180:273|180:273|179:274|180:273|180:273|179:274|179:274|177:276|179:274|179:274|177:276|179:274|179:274|177:276|179:274|179:274|177:276|179:274|179:274|178:275|178:275|176:277|178:275|178:275|176:277|178:275|178:275|176:277|178:275|178:275|177:276|178:275|178:275|177:276|177:276|178:275|177:276|177:276|175:278|177:276|177:276|175:278|177:276|177:276|175:278|177:276|177:276|176:277|177:276|177:276|176:277|176:277|174:279|176:277|176:277|174:279|176:277|176:277|174:279|176:277|176:277|175:278|176:277|176:277|175:278|175:278|173:280|175:278|175:278|173:280|175:278|175:278|173:280|175:278|175:278|173:280|175:278|175:278|174:279|174:279|172:281|174:279|174:279|172:281|174:279|174:279|172:281|174:279|174:279|173:280|174:279|174:279|173:280|173:280|174:279|173:280|173:280|171:282|173:280|173:280|171:282|173:280|173:280|171:282|173:280|173:280|172:281|172:281|173:280|172:281|172:281|170:283|172:281|172:281|170:283|172:281|172:281|170:283|172:281|172:281|171:282|172:281|172:281|171:282|171:282|169:284|171:282|171:282|169:284|171:282|171:282|169:284|171:282|171:282|170:283|171:282|171:282|170:283|170:283|168:285|170:283|170:283|168:285|170:283|170:283|168:285|170:283|170:283|168:285|170:283|170:283|169:284|169:284|167:286|169:284|169:284|167:286|169:284|169:284|167:286|169:284|169:284|168:285|169:284|169:284|168:285|168:285|166:287|168:285|168:285|166:287|168:285|168:285|166:287|168:285|168:285|167:286|168:285|168:285|167:286|167:286|166:283|167:286|167:286|168:289|167:286|167:286|168:289|167:286|167:286|168:289|167:286|167:286|168:289|167:286|167:286|168:288|167:286|167:286|168:289|168:289|167:286|168:289|168:289|167:286|168:289|168:289|167:286|168:289|168:289|169:292|168:289|168:289|169:292|168:289|168:289|169:291|168:289|168:289|169:291|169:291|167:289|169:291|169:291|167:289|169:291|169:291|167:289|169:291|169:291|167:289|169:291|169:291|167:289|169:291|169:291|168:290|168:290|166:288|168:290|168:290|166:288|168:290|168:290|166:288|168:290|168:290|167:289|168:290|168:290|167:289|167:289|165:287|167:289|167:289|165:287|167:289|167:289|165:287|167:289|167:289|166:288|167:289|167:289|166:288|166:288|164:286|166:288|166:288|164:286|166:288|166:288|164:286|166:288|166:288|164:286|166:288|166:288|165:287|165:287|163:285|165:287|165:287|163:285|165:287|165:287|163:285|165:287|165:287|164:286|164:286|162:284|164:286|164:286|162:284|164:286|164:286|162:284|164:286|164:286|162:284|164:286|164:286|163:285|163:285|161:283|163:285|163:285|161:283|163:285|163:285|161:283|163:285|163:285|162:284|163:285|163:285|162:284|162:284|163:287|162:284|162:284|163:287|162:284|162:284|163:287|162:284|162:284|163:287|162:284|162:284|163:286|163:286|162:283|163:286|163:286|162:283|163:286|163:286|162:283|163:286|163:286|162:284|163:286|163:286|163:287|163:287|164:290|163:287|163:287|164:290|163:287|163:287|164:290|163:287|163:287|164:289|163:287|163:287|164:289|164:289|163:286|164:289|164:289|163:286|164:289|164:289|163:286|164:289|164:289|164:290|164:290|165:289|164:290|164:290|162:293|164:290|164:290|162:293|164:290|164:290|162:293|164:290|164:290|163:291|164:290|164:290|162:292|162:292|164:289|162:292|162:292|164:289|162:292|162:292|163:291|162:292|162:292|160:295|162:292|162:292|160:294|162:292|162:292|161:293|161:293|163:290|161:293|161:293|163:290|161:293|161:293|162:291|161:293|161:293|159:296|161:293|161:293|160:295|160:295|162:292|160:295|160:295|162:292|160:295|160:295|162:292|160:295|160:295|158:298|160:295|160:295|158:297|160:295|160:295|158:297|158:297|160:294|158:297|158:297|160:294|158:297|158:297|156:300|158:297|158:297|156:300|158:297|158:297|157:298|157:298|155:301|157:298|157:298|155:301|157:298|157:298|155:301|157:298|157:298|155:301|157:298|157:298|155:300|155:300|157:297|155:300|155:300|157:297|155:300|155:300|156:298|155:300|155:300|153:303|155:300|155:300|153:302|155:300|155:300|154:301|154:301|156:298|154:301|154:301|156:298|154:301|154:301|155:299|154:301|154:301|152:303|154:301|154:301|153:303|153:303|155:300|153:303|153:303|155:300|153:303|153:303|155:300|153:303|153:303|151:306|153:303|153:303|152:305|153:303|153:303|151:305|151:305|150:302|151:305|151:305|150:303|151:305|151:305|152:308|151:305|151:305|152:308|151:305|151:305|152:308|151:305|151:305|152:308|151:305|151:305|152:308|151:305|151:305|152:308|152:308|151:305|152:308|152:308|151:305|152:308|152:308|151:305|152:308|152:308|151:305|152:308|152:308|153:311|152:308|152:308|153:310|152:308|152:308|153:310|153:310|150:308|153:310|153:310|150:308|153:310|153:310|150:308|153:310|153:310|150:308|153:310|153:310|151:308|153:310|153:310|151:308|151:308|154:310|151:308|151:308|154:310|151:308|151:308|148:306|151:308|151:308|149:306|151:308|151:308|150:307|150:307|153:309|150:307|150:307|153:309|150:307|150:307|153:309|150:307|150:307|147:305|150:307|150:307|148:305|150:307|150:307|147:305|147:305|150:307|147:305|147:305|150:307|147:305|147:305|144:303|147:305|147:305|144:303|147:305|147:305|145:303|147:305|147:305|146:304|146:304|149:306|146:304|146:304|148:306|146:304|146:304|144:302|146:304|146:304|145:303|145:303|146:306|145:303|145:303|146:306|145:303|145:303|146:306|145:303|145:303|146:306|145:303|145:303|146:306|145:303|145:303|146:306|146:306|145:303|146:306|146:306|145:303|146:306|146:306|145:303|146:306|146:306|147:309|146:306|146:306|147:309|146:306|146:306|147:308|147:308|145:311|147:308|147:308|145:311|147:308|147:308|145:311|147:308|147:308|145:311|147:308|147:308|145:311|147:308|147:308|145:310|147:308|147:308|145:311|145:311|147:308|145:311|145:311|147:309|145:311|145:311|143:314|145:311|145:311|143:314|145:311|145:311|143:313|145:311|145:311|144:312|144:312|142:315|144:312|144:312|142:315|144:312|144:312|142:315|144:312|144:312|142:315|144:312|144:312|142:314|144:312|144:312|142:315|142:315|144:312|142:315|142:315|144:313|142:315|142:315|140:318|142:315|142:315|140:318|142:315|142:315|141:317|142:315|142:315|141:316|141:316|139:319|141:316|141:316|139:319|141:316|141:316|139:319|141:316|141:316|139:319|141:316|141:316|140:318|141:316|141:316|139:319|139:319|141:316|139:319|139:319|141:316|139:319|139:319|137:322|139:319|139:319|137:322|139:319|139:319|138:321|139:319|139:319|138:320|138:320|140:317|138:320|138:320|140:317|138:320|138:320|136:323|138:320|138:320|137:322|137:322|139:319|137:322|137:322|139:319|137:322|137:322|139:319|137:322|137:322|138:320|137:322|137:322|136:323|136:323|134:326|136:323|136:323|134:326|136:323|136:323|134:326|136:323|136:323|134:326|136:323|136:323|134:326|134:326|136:323|134:326|134:326|136:323|134:326|134:326|132:329|134:326|134:326|133:328|134:326|134:326|134:326,1,1363.12499642372,2|0,0:0|0:0,0:1:0:0:
59,366,67071,5,2,1:3:0:0:
32,339,67194,1,2,0:3:0:0:
29,301,67317,1,2,0:3:0:0:
54,273,67440,1,2,0:3:0:0:
157,247,67563,6,2,B|199:218|209:168|209:168|215:135|198:106|198:106|201:111|198:106|198:106|196:103|198:106|198:106|195:101|195:101|190:95|190:95|192:97|190:95|190:95|186:91|190:95|190:95|185:90|185:90|179:85|176:83|176:83|179:85|176:83|176:83|172:80|176:83|176:83|173:81|173:81|168:85|168:85|167:87|168:85|168:85|170:81|168:85|168:85|173:76|173:76|175:75|173:76|173:76|170:78|173:76|173:76|168:79|168:79|170:80|168:79|168:79|165:78|168:79|168:79|163:77|163:77|159:76|163:77|163:77|160:76|160:76|157:75|160:76|160:76|156:75|156:75|152:74|156:75|156:75|150:74|150:74|152:71|150:74|150:74|148:77|150:74|150:74|147:79|147:79|147:81|147:79|147:79|147:77|147:79|147:79|147:77|147:77|147:79|147:77|147:77|147:74|147:74|147:78|147:74|147:74|147:71|147:71|147:74|147:71|147:71|147:69|147:69|148:66|147:69|147:69|146:72|147:69|147:69|145:74|145:74|137:75|145:74|145:74|138:75|138:75|143:74|138:75|138:75|127:77|138:75|138:75|131:76|125:79|125:79|125:69|125:79|125:79|125:83|125:79|125:79|125:81|125:81|125:79|125:81|125:81|125:82|125:82|125:79|125:82|125:82|125:83|125:83|125:81|125:83|125:83|125:84|125:84|126:87|125:84|125:84|121:77|125:84|125:84|120:75|120:75|120:67|120:75|120:75|120:80|120:75|120:75|120:76|120:76|120:78|120:76|120:76|120:77|120:77|120:79|120:77|120:77|120:78|120:78|120:81|120:78|120:78|120:79|120:79|120:81|120:79|120:79|120:80|120:80|120:82|120:80|120:80|120:81|120:81|110:87|120:81|120:81|117:83|120:81|120:81|114:84|111:87|111:87|119:79|111:87|111:87|116:82|111:87|111:87|106:92|111:87|111:87|109:89|107:92|107:92|112:87|107:92|107:92|105:95|107:92|107:92|105:95|107:92|107:92|105:95|107:92|107:92|106:93|106:93|108:90|106:93|106:93|104:96|106:93|106:93|104:95|106:93|106:93|105:94|105:94|107:97|105:94|105:94|107:97|105:94|105:94|107:97|105:94|105:94|107:97|105:94|105:94|106:96|106:96|104:93|106:96|106:96|104:93|106:96|106:96|105:94|106:96|106:96|108:99|106:96|106:96|107:98|107:98|105:95|107:98|107:98|105:95|107:98|107:98|105:95|107:98|107:98|109:101|107:98|107:98|108:99|108:99|105:97|108:99|108:99|105:97|108:99|108:99|105:97|108:99|108:99|106:98|108:99|108:99|106:98|106:98|109:100|106:98|106:98|109:100|106:98|106:98|108:100|106:98|106:98|105:97|105:97|102:95|105:97|105:97|102:95|105:97|105:97|102:95|105:97|105:97|103:95|105:97|105:97|103:96|103:96|106:98|103:96|103:96|106:98|103:96|103:96|106:98|103:96|103:96|101:95|103:96|103:96|102:95|102:95|99:93|102:95|102:95|99:93|102:95|102:95|99:93|102:95|102:95|100:94|102:95|102:95|100:94|100:94|103:96|100:94|100:94|103:96|100:94|100:94|103:96|100:94|100:94|99:93|99:93|101:96|99:93|99:93|101:96|99:93|99:93|101:96|99:93|99:93|101:96|99:93|99:93|100:95|100:95|98:92|100:95|100:95|98:92|100:95|100:95|98:92|100:95|100:95|102:98|100:95|100:95|101:97|101:97|99:94|101:97|101:97|99:94|101:97|101:97|99:94|101:97|101:97|102:98|102:98|100:101|102:98|102:98|100:101|102:98|102:98|100:101|102:98|102:98|101:101|102:98|102:98|101:100|101:100|103:97|101:100|101:100|103:97|101:100|101:100|103:97|101:100|101:100|103:97|101:100|101:100|102:98|101:100|101:100|100:102|100:102|102:99|100:102|100:102|102:99|100:102|100:102|102:99|100:102|100:102|102:99|100:102|100:102|99:104|99:104|98:107|99:104|99:104|98:107|99:104|99:104|98:107|99:104|99:104|98:107|99:104|99:104|98:107|99:104|99:104|98:106|99:104|99:104|98:107|98:107|99:104|98:107|98:107|99:104|98:107|98:107|99:104|98:107|98:107|99:105|98:107|98:107|97:110|98:107|98:107|97:110|98:107|98:107|97:109|97:109|96:112|97:109|97:109|96:112|97:109|97:109|96:112|97:109|97:109|96:112|97:109|97:109|96:112|97:109|97:109|96:111|96:111|97:108|96:111|96:111|97:108|96:111|96:111|97:108|96:111|96:111|96:112|96:112|97:109|96:112|96:112|95:116|96:112|96:112|95:116|96:112|96:112|95:115|96:112|96:112|95:115|95:115|96:111|95:115|95:115|96:112|95:115|95:115|94:119|95:115|95:115|95:117|95:115|95:115|95:116|95:116|98:118|95:116|95:116|98:118|95:116|95:116|98:118|95:116|95:116|97:117|97:117|94:115|97:117|97:117|94:115|97:117|97:117|94:115|97:117|97:117|100:119|97:117|97:117|99:118|99:118|96:116|99:118|99:118|96:116|99:118|99:118|96:116|99:118|99:118|97:117|99:118|99:118|100:119|100:119|96:119|100:119|100:119|96:119|100:119|100:119|96:119|100:119|100:119|98:119|100:119|100:119|97:119|97:119|101:119|97:119|97:119|101:119|97:119|97:119|93:119|97:119|97:119|93:119|97:119|97:119|93:119|97:119|97:119|94:119|97:119|97:119|93:118|93:118|89:118|93:118|93:118|89:118|93:118|93:118|89:118|93:118|93:118|89:118|93:118|93:118|89:118|93:118|93:118|89:118|93:118|93:118|90:118|90:118|87:116|90:118|90:118|88:117|90:118|90:118|93:120|90:118|90:118|93:120|90:118|90:118|93:120|90:118|90:118|92:119|92:119|89:117|92:119|92:119|89:117|92:119|92:119|89:117|92:119|92:119|95:121|92:119|92:119|95:121|92:119|92:119|95:121|95:121|95:117|95:121|95:121|95:117|95:121|95:121|95:125|95:121|95:121|95:125|95:121|95:121|95:125|95:121|95:121|95:124|95:121|95:121|95:124|95:124|95:120|95:124|95:124|95:121|95:124|95:124|95:128|95:124|95:124|95:128|95:124|95:124|95:126|95:126|95:122|95:126|95:126|95:122|95:126|95:126|95:130|95:126|95:126|95:130|95:126|95:126|95:129|95:129|95:125|95:129|95:129|95:125|95:129|95:129|95:133|95:129|95:129|95:133|95:129|95:129|95:131|95:131|95:127|95:131|95:131|95:135|95:131|95:131|95:135|95:131|95:131|95:133|95:131|95:131|95:133|95:133|95:129|95:133|95:133|95:129|95:133|95:133|95:129|95:133|95:133|95:131|95:133|95:133|95:135|95:133|95:133|96:136|96:136|95:132|96:136|96:136|95:132|96:136|96:136|95:132|96:136|96:136|96:137|96:137|96:135|96:137|96:137|97:141|96:137|96:137|97:141|96:137|96:137|97:141|96:137|96:137|97:140|97:140|96:136|97:140|97:140|96:136|97:140|97:140|98:144|97:140|97:140|97:141|97:141|101:141|97:141|97:141|100:141|97:141|97:141|98:141|98:141|96:141|98:141|98:141|102:141|98:141|98:141|99:141|99:141|97:141|99:141|99:141|103:141|99:141|99:141|100:141|100:141|98:141|100:141|100:141|104:141|100:141|100:141|101:141|101:141|99:141|101:141|101:141|105:141|101:141|101:141|103:141|101:141|101:141|102:141|102:141|106:141|102:141|102:141|104:141|102:141|102:141|103:141|103:141|99:143|103:141|103:141|99:143|103:141|103:141|99:142|103:141|103:141|100:142|100:142|104:140|100:142|100:142|104:140|100:142|100:142|104:141|100:142|100:142|97:143|100:142|100:142|98:143|98:143|94:145|98:143|98:143|94:145|98:143|98:143|94:145|98:143|98:143|94:144|98:143|98:143|95:144|95:144|99:142|95:144|95:144|99:142|95:144|95:144|98:143|95:144|95:144|91:145|95:144|95:144|93:145|93:145|97:145|93:145|93:145|97:145|93:145|93:145|95:145|93:145|93:145|94:145|94:145|98:145|94:145|94:145|97:145|94:145|94:145|95:145|95:145|99:145|95:145|95:145|97:145|95:145|95:145|96:145|96:145|94:145|96:145|96:145|100:145|96:145|96:145|97:145|97:145|95:145|97:145|97:145|101:145|97:145|97:145|98:145|98:145|96:145|98:145|98:145|102:145|98:145|98:145|99:145|99:145|98:143|99:145|99:145|101:149|99:145|99:145|101:149|99:145|99:145|101:148|99:145|99:145|101:148|101:148|99:144|101:148|101:148|99:145|101:148|101:148|103:152|101:148|101:148|103:152|101:148|101:148|102:150|102:150|100:146|102:150|102:150|100:147|102:150|102:150|104:154|102:150|102:150|103:152|102:150|102:150|103:152|103:152|101:148|103:152|103:152|101:148|103:152|103:152|105:156|103:152|103:152|105:155|103:152|103:152|105:155|105:155|103:151|105:155|105:155|103:151|105:155|105:155|107:159|105:155|105:155|107:159|105:155|105:155|106:157|106:157|104:153|106:157|106:157|105:153|106:157|106:157|108:161|106:157|106:157|107:161|106:157|106:157|106:158|106:158|107:160|107:160|104:157|107:160|107:160|105:158|107:160|107:160|110:163|107:160|107:160|110:163|107:160|107:160|108:162|107:160|107:160|109:162|109:162|105:162|109:162|109:162|113:162|109:162|109:162|113:162|109:162|109:162|110:162|110:162|114:162|110:162|110:162|112:162|110:162|110:162|111:162|111:162|115:162|111:162|111:162|113:162|111:162|111:162|112:162|112:162|108:165|112:162|112:162|108:165|112:162|112:162|110:164|112:162|112:162|109:164|109:164|113:161|109:164|109:164|113:161|109:164|109:164|105:167|109:164|109:164|108:165|108:165|112:164|108:165|108:165|112:164|108:165|108:165|112:164|108:165|108:165|110:164|108:165|108:165|111:164|111:164|107:165|111:164|111:164|109:165|111:164|111:164|114:163|111:164|111:164|111:164,1,1590.31249582768,2|0,0:0|0:0,0:1:0:0:
112,164,68055,6,0,P|228:189|370:245,1,262.499991989136,2|0,0:0|0:0,0:0:0:0:
356,46,69038,6,0,B|367:201|244:129|276:283,1,262.499991989136,2|0,0:0|0:0,0:0:0:0:
460,341,70022,5,2,1:2:0:0:
56,178,70268,1,2,0:0:0:0:
361,240,70514,5,2,1:2:0:0:
0,311,70760,1,2,0:0:0:0:
431,137,71005,5,2,1:2:0:0:
127,368,71251,1,2,0:0:0:0:
326,21,71497,5,2,1:2:0:0:
285,357,71743,1,2,0:0:0:0:
227,24,71989,6,0,L|182:12,1,37.4999988555909,6|0,1:2|0:0,0:0:0:0:
432,367,72358,6,0,L|477:355,1,37.4999988555909,2|0,1:2|0:0,0:0:0:0:
69,258,72727,6,0,B|76:254|69:258|69:258|98:244|98:244|92:247|98:244|98:244|104:241|98:244|98:244|113:237|113:237|109:239|113:237|113:237|118:234|113:237|113:237|124:232|124:232|121:233|124:232|124:232|129:230|124:232|124:232|133:228|133:228|131:229|133:228|133:228|138:226|133:228|133:228|142:224|142:224|140:225|142:224|142:224|147:222|142:224|142:224|149:221|149:221|155:219|149:221|149:221|156:218|156:218|154:219|156:218|156:218|161:216|156:218|156:218|163:215|163:215|161:216|163:215|163:215|167:213|163:215|163:215|168:213|168:213|176:210|168:213|168:213|180:208|180:208|174:210|180:208|180:208|185:206|180:208|180:208|185:206|185:206|191:204|185:206|185:206|190:204|190:204|196:202|190:204|190:204|195:202|195:202|206:198|195:202|195:202|208:197|208:197|201:200|208:197|208:197|219:193|208:197|208:197|211:196|208:197|208:197|224:191|224:191|213:195|224:191|224:191|232:188|224:191|224:191|232:188|232:188|227:190|232:188|232:188|243:184|232:188|232:188|236:187|232:188|232:188|246:183|246:183|235:187|246:183|246:183|257:179|246:183|246:183|254:180|246:183|246:183|263:177|263:177|252:181|263:177|263:177|257:179|263:177|263:177|267:176|263:177|263:177|266:176|266:176|273:174|266:176|266:176|269:175|269:175|267:176|269:175|269:175|274:173|269:175|269:175|272:174|272:174|270:175|272:174|272:174|277:172|272:174|272:174|275:173|275:173|273:174|275:173|275:173|280:171|275:173|275:173|278:172|278:172|276:173|278:172|278:172|283:170|278:172|278:172|281:171|281:171|292:167|281:171|281:171|287:169|281:171|281:171|291:168|291:168|280:172|291:168|291:168|286:170|291:168|291:168|301:165|291:168|291:168|300:165|300:165|289:169|300:165|300:165|294:167|300:165|300:165|302:164|300:165|300:165|303:164|303:164|300:165|303:164|303:164|314:160|303:164|303:164|305:163|303:164|303:164|310:162|310:162|299:165|310:162|310:162|306:163|310:162|310:162|317:160|310:162|310:162|316:160|316:160|307:163|316:160|316:160|325:157|316:160|316:160|320:159|316:160|316:160|322:158|322:158|313:161|322:158|322:158|319:159|322:158|322:158|329:156|322:158|322:158|326:157|326:157|320:159|326:157|326:157|334:155|326:157|326:157|333:155|326:157|326:157|332:155|332:155|325:157|332:155|332:155|339:153|332:155|332:155|333:155|333:155|340:153|333:155|333:155|338:154|333:155|333:155|337:154|337:154|330:156|337:154|337:154|330:156|337:154|337:154|341:153|337:154|337:154|341:153|341:153|335:155|341:153|341:153|335:155|341:153|341:153|338:154|341:153|341:153|347:151|341:153|341:153|343:152|341:153|341:153|346:151|346:151|340:153|346:151|346:151|344:152|346:151|346:151|351:150|346:151|346:151|350:150|346:151|346:151|348:151|348:151|343:152|348:151|348:151|343:152|348:151|348:151|351:150|348:151|348:151|351:150|351:150|346:151|351:150|351:150|346:151|351:150|351:150|346:151|351:150|351:150|354:149|351:150|351:150|354:149|354:149|349:150|354:149|354:149|358:148|354:149|354:149|358:148|354:149|354:149|358:148|354:149|354:149|357:148|357:148|353:149|357:148|357:148|353:149|357:148|357:148|361:147|357:148|357:148|360:147|357:148|357:148|359:148|359:148|355:149|359:148|359:148|355:149|359:148|359:148|357:149|359:148|359:148|363:147|359:148|359:148|361:147|359:148|359:148|362:147|362:147|358:148|362:147|362:147|358:148|362:147|362:147|366:146|362:147|362:147|366:146|362:147|362:147|364:146|364:146|361:147|364:146|364:146|361:147|364:146|364:146|367:145|364:146|364:146|366:145|364:146|364:146|365:146|365:146|366:143|365:146|365:146|366:143|365:146|365:146|365:145|365:145|364:148|365:145|365:145|364:148|365:145|365:145|364:148|365:145|365:145|364:148|365:145|365:145|364:148|365:145|365:145|366:142|366:142|365:145|366:142|366:142|365:145|366:142|366:142|365:145|366:142|366:142|365:145|366:142|366:142|366:141|366:141|367:144|366:141|366:141|367:144|366:141|366:141|367:144|366:141|366:141|367:144|366:141|366:141|367:143|367:143|366:140|367:143|367:143|366:140|367:143|367:143|366:141|367:143|367:143|368:146|367:143|367:143|367:144|367:144|368:147|367:144|367:144|368:147|367:144|367:144|368:147|367:144|367:144|368:147|367:144|367:144|368:146|368:146|367:144|368:146|368:146|367:144|368:146|368:146|367:144|368:146|368:146|369:148|368:146|368:146|369:148|368:146|368:146|369:148|368:146|368:146|368:147|368:147|369:149|368:147|368:147|369:149|368:147|368:147|369:149|368:147|368:147|369:149|368:147|368:147|369:149|368:147|368:147|369:149|368:147|368:147|369:149|369:149|368:147|369:149|369:149|368:147|369:149|369:149|370:151|369:149|369:149|370:151|369:149|369:149|370:151|369:149|369:149|370:151|369:149|369:149|369:150|369:150|369:148|369:150|369:150|369:148|369:150|369:150|369:148|369:150|369:150|369:148|369:150|369:150|369:149|369:149|369:151|369:149|369:149|369:151|369:149|369:149|369:151|369:149|369:149|369:151|369:149|369:149|369:151|369:149|369:149|369:151|369:149|369:149|369:151|369:149|369:149|369:147|369:149|369:149|369:147|369:149|369:149|369:147|369:149|369:149|370:146|370:146|370:148|370:146|370:146|370:148|370:146|370:146|370:144|370:146|370:146|370:144|370:146|370:146|370:144|370:146|370:146|370:144|370:146|370:146|370:144|370:146|370:146|370:144|370:146|370:146|370:144|370:146|370:146|370:144|370:146|370:146|370:145|370:145|372:144|370:145|370:145|372:144|370:145|370:145|372:144|370:145|370:145|372:144|370:145|370:145|371:145|371:145|369:146|371:145|371:145|369:146|371:145|371:145|369:146|371:145|371:145|369:146|371:145|371:145|369:146|371:145|371:145|372:144|372:144|370:145|372:144|372:144|370:145|372:144|372:144|370:145|372:144|372:144|370:145|372:144|372:144|374:143|372:144|372:144|373:144|373:144|375:143|373:144|373:144|375:143|373:144|373:144|375:143|373:144|373:144|375:143|373:144|373:144|375:143|373:144|373:144|374:144|374:144|372:145|374:144|374:144|372:145|374:144|374:144|372:145|374:144|374:144|372:145|374:144|374:144|376:143|374:144|374:144|375:143|375:143|373:144|375:143|375:143|373:144|375:143|375:143|373:144|375:143|375:143|377:142|375:143|375:143|377:142|375:143|375:143|377:142|375:143|375:143|376:143|376:143|376:141|376:143|376:143|376:141|376:143|376:143|376:141|376:143|376:143|376:141|376:143|376:143|376:141|376:143|376:143|376:142|376:142|376:144|376:142|376:142|376:144|376:142|376:142|376:144|376:142|376:142|376:144|376:142|376:142|376:144|376:142|376:142|376:140|376:142|376:142|376:140|376:142|376:142|376:140|376:142|376:142|376:140|376:142|376:142|376:140|376:142|376:142|376:140|376:142|376:142|376:140|376:142|376:142|377:139|377:139|377:141|377:139|377:139|377:137|377:139|377:139|377:137|377:139|377:139|377:137|377:139|377:139|377:137|377:139|377:139|377:137|377:139|377:139|377:137|377:139|377:139|377:137|377:139|377:139|377:137|377:139|377:139|377:137|377:139|377:139|377:137|377:139|377:139|377:137|377:139|377:139|377:137|377:139|377:139|377:138|377:138|377:140|377:138|377:138|377:140|377:138|377:138|377:140|377:138|377:138|377:140|377:138|377:138|377:140|377:138|377:138|377:140|377:138|377:138|377:139|377:139|377:137|377:139|377:139|377:137|377:139|377:139|377:137|377:139|377:139|377:137|377:139|377:139|377:141|377:139|377:139|377:141|377:139|377:139|377:141|377:139|377:139|377:141|377:139|377:139|377:141|377:139|377:139|377:141|377:139|377:139|377:141|377:139|377:139|377:141|377:139|377:139|377:141|377:139|377:139|377:141|377:139|377:139|378:142|378:142|378:140|378:142|378:142|378:140|378:142|378:142|378:144|378:142|378:142|378:144|378:142|378:142|378:144|378:142|378:142|378:144|378:142|378:142|378:144|378:142|378:142|378:144|378:142|378:142|378:144|378:142|378:142|378:144|378:142|378:142|378:144|378:142|378:142|378:144|378:142|378:142|378:144|378:142|378:142|378:144|378:142|378:142|378:144|378:142|378:142|378:143|378:143|378:145|378:143|378:143|378:145|378:143|378:143|378:145|378:143|378:143|378:145|378:143|378:143|378:145|378:143|378:143|378:145|378:143|378:143|378:145|378:143|378:143|378:144|378:144|378:142|378:144|378:144|378:142|378:144|378:144|378:142|378:144|378:144|378:142|378:144|378:144|378:146|378:144|378:144|378:146|378:144|378:144|378:146|378:144|378:144|378:146|378:144|378:144|378:146|378:144|378:144|378:146|378:144|378:144|378:146|378:144|378:144|378:146|378:144|378:144|378:146|378:144|378:144|378:146|378:144|378:144|378:146|378:144|378:144|378:146|378:144|378:144|379:147|379:147|379:145|379:147|379:147|379:149|379:147|379:147|379:149|379:147|379:147|379:149|379:147|379:147|379:149|379:147|379:147|379:149|379:147|379:147|379:149|379:147|379:147|379:149|379:147|379:147|379:149|379:147|379:147|379:149|379:147|379:147|379:149|379:147|379:147|379:149|379:147|379:147|379:149|379:147|379:147|379:149|379:147|379:147|379:149|379:147|379:147|379:149|379:147|379:147|379:149|379:147|379:147|379:148|379:148|379:146|379:148|379:148|379:146|379:148|379:148|379:146|379:148|379:148|379:146|379:148|379:148|379:146|379:148|379:148|379:146|379:148|379:148|379:146|379:148|379:148|379:146|379:148|379:148|379:146|379:148|379:148|379:147|379:147|379:149|379:147|379:147|379:149|379:147|379:147|379:145|379:147|379:147|379:145|379:147|379:147|379:145|379:147|379:147|379:145|379:147|379:147|379:145|379:147|379:147|379:145|379:147|379:147|379:146|379:146|379:148|379:146|379:146|379:148|379:146|379:146|379:148|379:146|379:146|379:148|379:146|379:146|379:144|379:146|379:146|379:144|379:146|379:146|379:144|379:146|379:146|379:144|379:146|379:146|379:144|379:146|379:146|379:144|379:146|379:146|379:144|379:146|379:146|379:144|379:146|379:146|379:144|379:146|379:146|379:144|379:146|379:146|379:144|379:146|379:146|380:144|380:144|380:142|380:144|380:144|380:142|380:144|380:144|380:142|380:144|380:144|380:142|380:144|380:144|380:142|380:144|380:144|380:142|380:144|380:144|380:142|380:144|380:144|380:142|380:144|380:144|380:142|380:144|380:144|380:142|380:144|380:144|380:142|380:144|380:144|380:142|380:144|380:144|380:142|380:144|380:144|380:142|380:144|380:144|380:142|380:144|380:144|380:142|380:144|380:144|380:143|380:143|380:145|380:143|380:143|380:141|380:143|380:143|380:141|380:143|380:143|380:141|380:143|380:143|380:141|380:143|380:143|380:141|380:143|380:143|380:141|380:143|380:143|380:141|380:143|380:143|380:141|380:143|380:143|380:141|380:143|380:143|380:142|380:142|382:142|380:142|380:142|382:142|380:142|380:142|382:142|380:142|380:142|382:142|380:142|380:142|382:142|380:142|380:142|382:142|380:142|380:142|382:142|380:142|380:142|382:142|380:142|380:142|382:142|380:142|380:142|382:142|380:142|380:142|382:142|380:142|380:142|381:142|381:142|379:142|381:142|381:142|379:142|381:142|381:142|383:142|381:142|381:142|383:142|381:142|381:142|383:142|381:142|381:142|383:142|381:142|381:142|383:142|381:142|381:142|383:142|381:142|381:142|383:142|381:142|381:142|383:142|381:142|381:142|383:142|381:142|381:142|383:142|381:142|381:142|383:142|381:142|381:142|383:142|381:142|381:142|383:142|381:142|381:142|383:142|381:142|381:142|383:142|381:142|381:142|383:142|381:142|381:142|383:141|383:141|381:141|383:141|383:141|385:141|383:141|383:141|385:141|383:141|383:141|385:141|383:141|383:141|385:141|383:141|383:141|385:141|383:141|383:141|385:141|383:141|383:141|385:141|383:141|383:141|385:141|383:141|383:141|385:141|383:141|383:141|385:141|383:141|383:141|385:141|383:141|383:141|385:141|383:141|383:141|385:141|383:141|383:141|385:141|383:141|383:141|385:141|383:141|383:141|385:141|383:141|383:141|385:141|383:141|383:141|385:141|383:141|383:141|385:141|383:141|383:141|384:141|384:141|382:141|384:141|384:141|382:141|384:141|384:141|386:141|384:141|384:141|386:141|384:141|384:141|386:141|384:141|384:141|386:141|384:141|384:141|386:141|384:141|384:141|386:141|384:141|384:141|386:141|384:141|384:141|386:141|384:141|384:141|386:141|384:141|384:141|386:141|384:141|384:141|386:141|384:141|384:141|385:141|385:141|385:139|385:141|385:141|385:139|385:141|385:141|385:139|385:141|385:141|385:139|385:141|385:141|385:139|385:141|385:141|385:139|385:141|385:141|385:139|385:141|385:141|385:139|385:141|385:141|385:139|385:141|385:141|385:139|385:141|385:141|385:139|385:141|385:141|385:139|385:141|385:141|385:139|385:141|385:141|385:139|385:141|385:141|385:140|385:140|385:142|385:140|385:140|385:138|385:140|385:140|385:138|385:140|385:140|385:138|385:140|385:140|385:138|385:140|385:140|385:138|385:140|385:140|385:138|385:140|385:140|385:138|385:140|385:140|385:138|385:140|385:140|385:138|385:140|385:140|385:138|385:140|385:140|385:138|385:140|385:140|385:138|385:140|385:140|385:138|385:140|385:140|385:139|385:139|385:137|385:139|385:139|385:137|385:139|385:139|385:137|385:139|385:139|385:137|385:139|385:139|385:137|385:139|385:139|385:137|385:139|385:139|385:137|385:139|385:139|385:137|385:139|385:139|385:137|385:139|385:139|385:137|385:139|385:139|385:137|385:139|385:139|385:137|385:139|385:139|385:137|385:139|385:139|385:137|385:139|385:139|385:137|385:139|385:139|385:137|385:139|385:139|385:137|385:139|385:139|385:137|385:139|385:139|385:137|385:139|385:139|385:137|385:139|385:139|385:137|385:139|385:139|385:137|385:139|385:139|385:137|385:139|385:139|385:137|385:139|385:139|385:137|385:139|385:139|386:137|386:137|386:139|386:137|386:137|386:135|386:137|386:137|386:135|386:137|386:137|386:135|386:137|386:137|386:135|386:137|386:137|386:135|386:137|386:137|386:135|386:137|386:137|386:135|386:137|386:137|386:135|386:137|386:137|386:135|386:137|386:137|386:135|386:137|386:137|386:135|386:137|386:137|386:135|386:137|386:137|386:135|386:137|386:137|386:135|386:137|386:137|386:135|386:137|386:137|386:135|386:137|386:137|386:135|386:137|386:137|386:135|386:137|386:137|386:135|386:137|386:137|386:135|386:137|386:137|386:135|386:137|386:137|386:135|386:137|386:137|386:135|386:137|386:137|386:135|386:137|386:137|386:135|386:137|386:137|386:135|386:137|386:137|386:136|386:136|386:134|386:136|386:136|386:134|386:136|386:136|386:134|386:136|386:136|386:134|386:136|386:136|386:134|386:136|386:136|386:134|386:136|386:136|386:134|386:136|386:136|386:134|386:136|386:136|386:134|386:136|386:136|386:134|386:136|386:136|386:134|386:136|386:136|386:134|386:136|386:136|386:134|386:136|386:136|386:134|386:136|386:136|386:134|386:136|386:136|386:134|386:136|386:136|386:134|386:136|386:136|386:134|386:136|386:136|386:135|386:135|387:137|386:135|386:135|387:137|386:135|386:135|387:137|386:135|386:135|387:137|386:135|386:135|387:137|386:135|386:135|387:137|386:135|386:135|387:137|386:135|386:135|387:137|386:135|386:135|387:137|386:135|386:135|387:137|386:135|386:135|387:137|386:135|386:135|387:137|386:135|386:135|387:137|386:135|386:135|387:137|386:135|386:135|387:137|386:135|386:135|387:137|386:135|386:135|387:137|386:135|386:135|387:137|386:135|386:135|386:136|386:136|385:134|386:136|386:136|387:138|386:136|386:136|387:138|386:136|386:136|387:138|386:136|386:136|387:138|386:136|386:136|387:138|386:136|386:136|387:138|386:136|386:136|387:138|386:136|386:136|387:138|386:136|386:136|387:138|386:136|386:136|387:138|386:136|386:136|387:138|386:136|386:136|387:138|386:136|386:136|387:138|386:136|386:136|387:138|386:136|386:136|387:138|386:136|386:136|387:138|386:136|386:136|387:138|386:136|386:136|387:138|386:136|386:136|387:138|386:136|386:136|387:138|386:136|386:136|387:138|386:136|386:136|387:138|386:136|386:136|387:138|386:136|386:136|387:138|386:136|386:136|387:138|386:136|386:136|387:138|386:136|386:136|387:138|386:136|386:136|387:138|386:136|386:136|387:138|386:136|386:136|387:138|386:136|386:136|387:138|386:136|386:136|387:138|387:138|388:140|387:138|387:138|388:140|387:138|387:138|388:140|387:138|387:138|388:140|387:138|387:138|388:140|387:138|387:138|388:140|387:138|387:138|388:140|387:138|387:138|388:140|387:138|387:138|388:140|387:138|387:138|388:140|387:138|387:138|388:140|387:138|387:138|388:140|387:138|387:138|388:140|387:138|387:138|388:140|387:138|387:138|388:140|387:138|387:138|388:140|387:138|387:138|388:140|387:138|387:138|388:140|387:138|387:138|388:140|387:138|387:138|388:140|387:138|387:138|388:140|387:138|387:138|388:140|387:138|387:138|388:140|387:138|387:138|388:140|387:138|387:138|388:140|387:138|387:138|388:140|387:138|387:138|388:140|387:138|387:138|388:140|387:138|387:138|388:140|387:138|387:138|388:140|387:138|387:138|388:140|387:138|387:138|388:140|387:138|387:138|388:140|387:138|387:138|388:140|387:138|387:138|388:140|387:138|387:138|388:140|387:138|387:138|387:139|387:139|386:137|387:139|387:139|388:141|387:139|387:139|388:141|387:139|387:139|388:141|387:139|387:139|388:141|387:139|387:139|388:141|387:139|387:139|388:141|387:139|387:139|388:141|387:139|387:139|388:141|387:139|387:139|388:141|387:139|387:139|388:141|387:139|387:139|388:141|387:139|387:139|388:141|387:139|387:139|388:141|387:139|387:139|388:141|387:139|387:139|388:141|387:139|387:139|388:141|387:139|387:139|388:141|387:139|387:139|388:141|387:139|387:139|388:141|387:139|387:139|388:141|387:139|387:139|388:141|387:139|387:139|388:141|387:139|387:139|388:141|387:139|387:139|388:141|387:139|387:139|388:141|387:139|387:139|388:141|387:139|387:139|388:141|387:139|387:139|388:141|387:139|387:139|388:141|387:139|387:139|388:141|387:139|387:139|388:141|387:139|387:139|388:141|387:139|387:139|388:141|387:139|387:139|388:141|387:139|387:139|388:141|387:139|387:139|388:141|387:139|387:139|388:141|387:139|387:139|388:141|387:139|387:139|388:141|387:139|387:139|388:141|387:139|387:139|388:141|387:139|387:139|388:141|387:139|387:139|388:141|388:141|389:143|388:141|388:141|389:143|388:141|388:141|389:143|388:141|388:141|389:143|388:141|388:141|389:143|388:141|388:141|389:143|388:141|388:141|389:143|388:141|388:141|389:143|388:141|388:141|389:143|388:141|388:141|389:143|388:141|388:141|389:143|388:141|388:141|389:143|388:141|388:141|389:143|388:141|388:141|389:143|388:141|388:141|389:143|388:141|388:141|389:143|388:141|388:141|389:143|388:141|388:141|389:143|388:141|388:141|389:143|388:141|388:141|389:143|388:141|388:141|389:143|388:141|388:141|389:143|388:141|388:141|389:143|388:141|388:141|389:143|388:141|388:141|389:143|388:141|388:141|389:143|388:141|388:141|389:143|388:141|388:141|389:143|388:141|388:141|389:143|388:141|388:141|389:143|388:141|388:141|389:143|388:141|388:141|389:143|388:141|388:141|389:143|388:141|388:141|389:143|388:141|388:141|389:143|388:141|388:141|389:143|388:141|388:141|389:143|388:141|388:141|389:143|388:141|388:141|389:143|388:141|388:141|389:143|388:141|388:141|389:143|388:141|388:141|389:143|388:141|388:141|389:143|388:141|388:141|389:143|388:141|388:141|389:143|388:141|388:141|389:143|388:141|388:141|389:143|388:141|388:141|389:143|388:141|388:141|389:143|388:141|388:141|389:143|388:141|388:141|389:143|388:141|388:141|388:142|388:142|387:140|388:142|388:142|389:144|388:142|388:142|389:144|388:142|388:142|389:144|388:142|388:142|389:144|388:142|388:142|389:144|388:142|388:142|389:144|388:142|388:142|389:144|388:142|388:142|389:144|388:142|388:142|389:144|388:142|388:142|389:144|388:142|388:142|389:144|388:142|388:142|389:144|388:142|388:142|389:144|388:142|388:142|389:144|388:142|388:142|389:144|388:142|388:142|389:144|388:142|388:142|389:144|388:142|388:142|389:144|388:142|388:142|389:144|388:142|388:142|389:144|388:142|388:142|389:144|388:142|388:142|389:144|388:142|388:142|389:144|388:142|388:142|389:144|388:142|388:142|389:144|388:142|388:142|389:144|388:142|388:142|389:144|388:142|388:142|389:144|388:142|388:142|389:144|388:142|388:142|389:144|388:142|388:142|389:144|388:142|388:142|389:144|388:142|388:142|389:144|388:142|388:142|389:144|388:142|388:142|389:144|388:142|388:142|389:144|388:142|388:142|389:144|388:142|388:142|389:144|388:142|388:142|389:144|388:142|388:142|389:144|388:142|388:142|389:144|388:142|388:142|389:144|388:142|388:142|389:144|388:142|388:142|389:144|388:142|388:142|389:144|388:142|388:142|389:144|388:142|388:142|389:144|388:142|388:142|389:144|388:142|388:142|389:144|388:142|388:142|389:144|388:142|388:142|389:144|388:142|388:142|389:144|388:142|388:142|389:144|388:142|388:142|389:144|388:142|388:142|389:144|388:142|388:142|389:144|388:142|388:142|389:144|388:142|388:142|389:144|388:142|388:142|389:144|388:142|388:142|389:144|388:142|388:142|389:144|388:142|388:142|389:144|388:142|388:142|389:144|388:142|388:142|389:144|388:142|388:142|389:144|389:144|390:146|389:144|389:144|390:146|389:144|389:144|390:146|389:144|389:144|390:146|389:144|389:144|390:146|389:144|389:144|390:146|389:144|389:144|390:146|389:144|389:144|390:146|389:144|389:144|390:146|389:144|389:144|390:146|389:144|389:144|390:146|389:144|389:144|390:146|389:144|389:144|390:146|389:144|389:144|390:146|389:144|389:144|390:146|389:144|389:144|390:146|389:144|389:144|390:146|389:144|389:144|390:146|389:144|389:144|390:146|389:144|389:144|390:146|389:144|389:144|390:146|389:144|389:144|390:146|389:144|389:144|390:146|389:144|389:144|390:146|389:144|389:144|390:146|389:144|389:144|390:146|389:144|389:144|390:146|389:144|389:144|390:146|389:144|389:144|390:146|389:144|389:144|390:146|389:144|389:144|390:146|389:144|389:144|390:146|389:144|389:144|390:146|389:144|389:144|390:146|389:144|389:144|390:146|389:144|389:144|390:146|389:144|389:144|390:146|389:144|389:144|390:146|389:144|389:144|390:146|389:144|389:144|390:146|389:144|389:144|390:146|389:144|389:144|390:146|389:144|389:144|390:146|389:144|389:144|390:146|389:144|389:144|390:146|389:144|389:144|390:146|389:144|389:144|390:146|389:144|389:144|390:146|389:144|389:144|390:146|389:144|389:144|390:146|389:144|389:144|390:146|389:144|389:144|390:146|389:144|389:144|390:146|389:144|389:144|390:146|389:144|389:144|390:146|389:144|389:144|390:146|389:144|389:144|390:146|389:144|389:144|390:146|389:144|389:144|390:146|389:144|389:144|390:146|389:144|389:144|390:146|389:144|389:144|390:146|389:144|389:144|390:146|389:144|389:144|390:146|389:144|389:144|390:146|389:144|389:144|390:146|389:144|389:144|390:146|389:144|389:144|390:146|389:144|389:144|390:146|389:144|389:144|390:146|389:144|389:144|390:146|389:144|389:144|390:146|389:144|389:144|390:146|389:144|389:144|390:146|389:144|389:144|390:146|389:144|389:144|390:146|389:144|389:144|390:146|389:144|389:144|390:146|389:144|389:144|390:146|389:144|389:144|390:146|389:144|389:144|390:146|389:144|389:144|390:146|389:144|389:144|390:146|389:144|389:144|390:146|389:144|389:144|390:146|389:144|389:144|390:146|389:144|389:144|390:146|389:144|389:144|390:146|389:144|389:144|389:145|389:145|389:143|389:145|389:145|389:143|389:145|389:145|389:143|389:145|389:145|389:143|389:145|389:145|389:143|389:145|389:145|389:143|389:145|389:145|389:143|389:145|389:145|389:143|389:145|389:145|389:143|389:145|389:145|389:143|389:145|389:145|389:143|389:145|389:145|389:143|389:145|389:145|389:143|389:145|389:145|389:143|389:145|389:145|389:143|389:145|389:145|389:143|389:145|389:145|389:143|389:145|389:145|389:143|389:145|389:145|389:143|389:145|389:145|389:143|389:145|389:145|389:143|389:145|389:145|389:143|389:145|389:145|389:143|389:145|389:145|389:143|389:145|389:145|389:143|389:145|389:145|389:143|389:145|389:145|389:143|389:145|389:145|389:143|389:145|389:145|389:143|389:145|389:145|389:143|389:145|389:145|389:143|389:145|389:145|389:143|389:145|389:145|389:143|389:145|389:145|389:143|389:145|389:145|389:143|389:145|389:145|389:143|389:145|389:145|389:143|389:145|389:145|389:143|389:145|389:145|389:143|389:145|389:145|389:143|389:145|389:145|389:143|389:145|389:145|389:143|389:145|389:145|389:143|389:145|389:145|389:143|389:145|389:145|389:143|389:145|389:145|389:143|389:145|389:145|389:143|389:145|389:145|389:143|389:145|389:145|389:143|389:145|389:145|389:143|389:145|389:145|389:143|389:145|389:145|389:143|389:145|389:145|389:143|389:145|389:145|389:143|389:145|389:145|389:143|389:145|389:145|389:143|389:145|389:145|389:143|389:145|389:145|389:143|389:145|389:145|389:144|389:144|389:146|389:144|389:144|389:142|389:144|389:144|389:142|389:144|389:144|389:142|389:144|389:144|389:142|389:144|389:144|389:142|389:144|389:144|389:142|389:144|389:144|389:142|389:144|389:144|389:142|389:144|389:144|389:142|389:144|389:144|389:142|389:144|389:144|389:142|389:144|389:144|389:142|389:144|389:144|389:142|389:144|389:144|389:142|389:144|389:144|389:142|389:144|389:144|389:142|389:144|389:144|389:142|389:144|389:144|389:142|389:144|389:144|389:142|389:144|389:144|389:142|389:144|389:144|389:142|389:144|389:144|389:142|389:144|389:144|389:142|389:144|389:144|389:142|389:144|389:144|389:142|389:144|389:144|389:142|389:144|389:144|389:142|389:144|389:144|389:142|389:144|389:144|389:142|389:144|389:144|389:142|389:144|389:144|389:142|389:144|389:144|389:142|389:144|389:144|389:142|389:144|389:144|389:142|389:144|389:144|389:142|389:144|389:144|389:142|389:144|389:144|389:142|389:144|389:144|389:142|389:144|389:144|389:142|389:144|389:144|389:142|389:144|389:144|389:142|389:144|389:144|389:142|389:144|389:144|389:142|389:144|389:144|389:142|389:144|389:144|389:142|389:144|389:144|389:142|389:144|389:144|389:142|389:144|389:144|389:142|389:144|389:144|389:142|389:144|389:144|389:142|389:144|389:144|389:142|389:144|389:144|389:142|389:144|389:144|389:142|389:144|389:144|389:142|389:144|389:144|389:142|389:144|389:144|389:142|389:144|389:144|389:142|389:144|389:144|389:142|389:144|389:144|389:142|389:144|389:144|389:142|389:144|389:144|389:142|389:144|389:144|389:142|389:144|389:144|389:142|389:144|389:144|389:142|389:144|389:144|389:142|389:144|389:144|389:142|389:144|389:144|389:142|389:144|389:144|389:142|389:144|389:144|389:142|389:144|389:144|389:142|389:144|389:144|389:142|389:144|389:144|389:142|389:144|389:144|389:142|389:144|389:144|389:142|389:144|389:144|389:142|389:144|389:144|389:142|389:144|389:144|389:142|389:144|389:144|389:142|389:144|389:144|389:142|389:144|389:144|389:142|389:144|389:144|389:142|389:144|389:144|389:142|389:144|389:144|389:142|389:144|389:144|389:142|389:144|389:144|389:142|389:144|389:144|390:141|390:141|390:139|390:141|390:141|390:139|390:141|390:141|390:139|390:141|390:141|390:139|390:141|390:141|390:139|390:141|390:141|390:139|390:141|390:141|390:139|390:141|390:141|390:139|390:141|390:141|390:139|390:141|390:141|390:139|390:141|390:141|390:139|390:141|390:141|390:139|390:141|390:141|390:139|390:141|390:141|390:139|390:141|390:141|390:139|390:141|390:141|390:139|390:141|390:141|390:139|390:141|390:141|390:139|390:141|390:141|390:139|390:141|390:141|390:139|390:141|390:141|390:139|390:141|390:141|390:139|390:141|390:141|390:139|390:141|390:141|390:139|390:141|390:141|390:139|390:141|390:141|390:139|390:141|390:141|390:139|390:141|390:141|390:139|390:141|390:141|390:139|390:141|390:141|390:139|390:141|390:141|390:139|390:141|390:141|390:139|390:141|390:141|390:139|390:141|390:141|390:139|390:141|390:141|390:139|390:141|390:141|390:139|390:141|390:141|390:139|390:141|390:141|390:139|390:141|390:141|390:139|390:141|390:141|390:139|390:141|390:141|390:139|390:141|390:141|390:139|390:141|390:141|390:139|390:141|390:141|390:139|390:141|390:141|390:139|390:141|390:141|390:139|390:141|390:141|390:139|390:141|390:141|390:139|390:141|390:141|390:139|390:141|390:141|390:139|390:141|390:141|390:139|390:141|390:141|390:139|390:141|390:141|390:139|390:141|390:141|390:139|390:141|390:141|390:139|390:141|390:141|390:139|390:141|390:141|390:139|390:141|390:141|390:139|390:141|390:141|390:139|390:141|390:141|390:139|390:141|390:141|390:139|390:141|390:141|390:139|390:141|390:141|390:139|390:141|390:141|390:139|390:141|390:141|390:139|390:141|390:141|390:139|390:141|390:141|390:139|390:141|390:141|390:139|390:141|390:141|390:139|390:141|390:141|390:139|390:141|390:141|390:139|390:141|390:141|390:139|390:141|390:141|390:139|390:141|390:141|390:139|390:141|390:141|390:139|390:141|390:141|390:139|390:141|390:141|390:139|390:141|390:141|390:139|390:141|390:141|390:139|390:141|390:141|390:139|390:141|390:141|390:139|390:141|390:141|390:139|390:141|390:141|390:139|390:141|390:141|390:139|390:141|390:141|390:139|390:141|390:141|390:140|390:140|392:139|390:140|390:140|392:139|390:140|390:140|392:139|390:140|390:140|392:139|390:140|390:140|392:139|390:140|390:140|392:139|390:140|390:140|392:139|390:140|390:140|392:139|390:140|390:140|392:139|390:140|390:140|392:139|390:140|390:140|392:139|390:140|390:140|392:139|390:140|390:140|392:139|390:140|390:140|392:139|390:140|390:140|392:139|390:140|390:140|392:139|390:140|390:140|392:139|390:140|390:140|392:139|390:140|390:140|392:139|390:140|390:140|392:139|390:140|390:140|392:139|390:140|390:140|392:139|390:140|390:140|392:139|390:140|390:140|392:139|390:140|390:140|392:139|390:140|390:140|392:139|390:140|390:140|392:139|390:140|390:140|392:139|390:140|390:140|392:139|390:140|390:140|392:139|390:140|390:140|392:139|390:140|390:140|392:139|390:140|390:140|392:139|390:140|390:140|392:139|390:140|390:140|392:139|390:140|390:140|392:139|390:140|390:140|392:139|390:140|390:140|392:139|390:140|390:140|392:139|390:140|390:140|392:139|390:140|390:140|392:139|390:140|390:140|392:139|390:140|390:140|392:139|390:140|390:140|392:139|390:140|390:140|392:139|390:140|390:140|392:139|390:140|390:140|392:139|390:140|390:140|392:139|390:140|390:140|392:139|390:140|390:140|392:139|390:140|390:140|392:139|390:140|390:140|392:139|390:140|390:140|392:139|390:140|390:140|392:139|390:140|390:140|392:139|390:140|390:140|392:139|390:140|390:140|392:139|390:140|390:140|392:139|390:140|390:140|392:139|390:140|390:140|392:139|392:139|394:138|392:139|392:139|394:138|392:139|392:139|394:138|392:139|392:139|394:138|392:139|392:139|394:138|392:139|392:139|394:138|392:139|392:139|394:138|392:139|392:139|394:138|392:139|392:139|394:138|392:139|392:139|394:138|392:139|392:139|394:138|392:139|392:139|394:138|392:139|392:139|394:138|392:139|392:139|394:138|392:139|392:139|394:138|392:139|392:139|394:138|392:139|392:139|394:138|392:139|392:139|394:138|392:139|392:139|394:138|392:139|392:139|394:138|392:139|392:139|394:138|392:139|392:139|394:138|392:139|392:139|394:138|392:139|392:139|394:138|392:139|392:139|394:138|392:139|392:139|394:138|392:139|392:139|394:138|392:139|392:139|394:138|392:139|392:139|394:138|392:139|392:139|394:138|392:139|392:139|394:138|392:139|392:139|394:138|392:139|392:139|394:138|392:139|392:139|394:138|392:139|392:139|394:138|392:139|392:139|394:138|392:139|392:139|394:138|392:139|392:139|394:138|392:139|392:139|394:138|392:139|392:139|394:138|392:139|392:139|394:138|392:139|392:139|394:138|392:139|392:139|394:138|392:139|392:139|394:138|392:139|392:139|394:138|392:139|392:139|394:138|392:139|392:139|394:138|392:139|392:139|394:138|392:139|392:139|394:138|392:139|392:139|394:138|392:139|392:139|394:138|392:139|392:139|394:138|392:139|392:139|394:138|392:139|392:139|394:138|392:139|392:139|394:138|392:139|392:139|394:138|392:139|392:139|394:138|392:139|392:139|393:139|393:139|395:138|393:139|393:139|395:138|393:139|393:139|395:138|393:139|393:139|395:138|393:139|393:139|395:138|393:139|393:139|395:138|393:139|393:139|395:138|393:139|393:139|395:138|393:139|393:139|395:138|393:139|393:139|395:138|393:139|393:139|395:138|393:139|393:139|395:138|393:139|393:139|395:138|393:139|393:139|395:138|393:139|393:139|395:138|393:139|393:139|395:138|393:139|393:139|395:138|393:139|393:139|395:138|393:139|393:139|395:138|393:139|393:139|395:138|393:139|393:139|395:138|393:139|393:139|395:138|393:139|393:139|395:138|393:139|393:139|395:138|393:139|393:139|395:138|393:139|393:139|395:138|393:139|393:139|395:138|393:139|393:139|395:138|393:139|393:139|395:138|393:139|393:139|395:138|393:139|393:139|395:138|393:139|393:139|395:138|393:139|393:139|395:138|393:139|393:139|395:138|393:139|393:139|395:138|393:139|393:139|395:138|393:139|393:139|395:138|393:139|393:139|395:138|393:139|393:139|395:138|393:139|393:139|395:138|393:139|393:139|395:138|393:139|393:139|395:138|393:139|393:139|395:138|393:139|393:139|395:138|393:139|393:139|395:138|393:139|393:139|395:138|393:139|393:139|395:138|393:139|393:139|395:138|393:139|393:139|395:138|393:139|393:139|395:138|393:139|393:139|395:138|393:139|393:139|395:138|393:139|393:139|395:138|393:139|393:139|395:138|393:139|393:139|395:138|393:139|393:139|395:138|393:139|393:139|395:138|393:139|393:139|395:138|395:138|397:137|395:138|395:138|397:137|395:138|395:138|397:137|395:138|395:138|397:137|395:138|395:138|397:137|395:138|395:138|397:137|395:138|395:138|397:137|395:138|395:138|397:137|395:138|395:138|397:137|395:138|395:138|397:137|395:138|395:138|397:137|395:138|395:138|397:137|395:138|395:138|397:137|395:138|395:138|397:137|395:138|395:138|397:137|395:138|395:138|397:137|395:138|395:138|397:137|395:138|395:138|397:137|395:138|395:138|397:137|395:138|395:138|397:137|395:138|395:138|397:137|395:138|395:138|397:137|395:138|395:138|397:137|395:138|395:138|397:137|395:138|395:138|397:137|395:138|395:138|397:137|395:138|395:138|397:137|395:138|395:138|397:137|395:138|395:138|397:137|395:138|395:138|397:137|395:138|395:138|397:137|395:138|395:138|397:137|395:138|395:138|397:137|395:138|395:138|397:137|395:138|395:138|397:137|395:138|395:138|397:137|395:138|395:138|397:137|395:138|395:138|397:137|395:138|395:138|397:137|395:138|395:138|397:137|395:138|395:138|397:137|395:138|395:138|397:137|395:138|395:138|397:137|395:138|395:138|397:137|395:138|395:138|397:137|395:138|395:138|397:137|395:138|395:138|397:137|395:138|395:138|397:137|395:138|395:138|397:137|395:138|395:138|397:137|395:138|395:138|397:137|395:138|395:138|397:137|395:138|395:138|397:137|395:138|395:138|397:137|395:138|395:138|397:137|395:138|395:138|397:137|395:138|395:138|397:137|395:138|395:138|396:138|396:138|396:136|396:138|396:138|396:136|396:138|396:138|396:136|396:138|396:138|396:136|396:138|396:138|396:136|396:138|396:138|396:136|396:138|396:138|396:136|396:138|396:138|396:136|396:138|396:138|396:136|396:138|396:138|396:136|396:138|396:138|396:136|396:138|396:138|396:136|396:138|396:138|396:136|396:138|396:138|396:136|396:138|396:138|396:136|396:138|396:138|396:136|396:138|396:138|396:136|396:138|396:138|396:136|396:138|396:138|396:136|396:138|396:138|396:136|396:138|396:138|396:136|396:138|396:138|396:136|396:138|396:138|396:136|396:138|396:138|396:136|396:138|396:138|396:136|396:138|396:138|396:136|396:138|396:138|396:136|396:138|396:138|396:136|396:138|396:138|396:136|396:138|396:138|396:136|396:138|396:138|396:136|396:138|396:138|396:136|396:138|396:138|396:136|396:138|396:138|396:136|396:138|396:138|396:136|396:138|396:138|396:136|396:138|396:138|396:136|396:138|396:138|396:136|396:138|396:138|396:137|396:137|396:135|396:137|396:137|396:135|396:137|396:137|396:135|396:137|396:137|396:135|396:137|396:137|396:135|396:137|396:137|396:135|396:137|396:137|396:135|396:137|396:137|396:135|396:137|396:137|396:135|396:137|396:137|396:135|396:137|396:137|396:135|396:137|396:137|396:135|396:137|396:137|396:135|396:137|396:137|396:135|396:137|396:137|396:135|396:137|396:137|396:135|396:137|396:137|396:135|396:137|396:137|396:135|396:137|396:137|396:135|396:137|396:137|396:135|396:137|396:137|396:135|396:137|396:137|396:135|396:137|396:137|396:135|396:137|396:137|396:135|396:137|396:137|396:135|396:137|396:137|396:135|396:137|396:137|396:135|396:137|396:137|396:135|396:137|396:137|396:135|396:137|396:137|396:135|396:137|396:137|396:135|396:137|396:137|396:135|396:137|396:137|396:135|396:137|396:137|396:135|396:137|396:137|396:135|396:137|396:137|396:135|396:137|396:137|396:135|396:137|396:137|396:135|396:137|396:137|396:135|396:137|396:137|396:135|396:137|396:137|396:135|396:137|396:137|396:135|396:137|396:137|396:135|396:137|396:137|396:135|396:137|396:137|396:135|396:137|396:137|396:135|396:137|396:137|396:135|396:137|396:137|396:135|396:137|396:137|396:135|396:137|396:137|396:135|396:137|396:137|396:135|396:137|396:137|396:135|396:137|396:137|396:135|396:137|396:137|396:135|396:137|396:137|396:135|396:137|396:137|396:135|396:137|396:137|396:135|396:137|396:137|396:135|396:137|396:137|396:135|396:137|396:137|396:135|396:137|396:137|396:135|396:137|396:137|396:135|396:137|396:137|396:135|396:137|396:137|396:135|396:137|396:137|396:135|396:137|396:137|396:135|396:137|396:137|396:135|396:137|396:137|396:135|396:137|396:137|396:135|396:137|396:137|396:135|396:137|396:137|396:135|396:137|396:137|396:135|396:137|396:137|396:135|396:137|396:137|396:135|396:137|396:137|396:135|396:137|396:137|396:135|396:137|396:137|396:135|396:137|396:137|396:135|396:137|396:137|396:135|396:137|396:137|396:135|396:137|396:137|396:135|396:137|396:137|397:134|397:134|397:132|397:134|397:134|397:132|397:134|397:134|397:132|397:134|397:134|397:132|397:134|397:134|397:132|397:134|397:134|397:132|397:134|397:134|397:132|397:134|397:134|397:132|397:134|397:134|397:132|397:134|397:134|397:132|397:134|397:134|397:132|397:134|397:134|397:132|397:134|397:134|397:132|397:134|397:134|397:132|397:134|397:134|397:132|397:134|397:134|397:132|397:134|397:134|397:132|397:134|397:134|397:132|397:134|397:134|397:132|397:134|397:134|397:132|397:134|397:134|397:132|397:134|397:134|397:132|397:134|397:134|397:132|397:134|397:134|397:132|397:134|397:134|397:132|397:134|397:134|397:132|397:134|397:134|397:132|397:134|397:134|397:132|397:134|397:134|397:132|397:134|397:134|397:132|397:134|397:134|397:132|397:134|397:134|397:132|397:134|397:134|397:132|397:134|397:134|397:132|397:134|397:134|397:132|397:134|397:134|397:132|397:134|397:134|397:132|397:134|397:134|397:132|397:134|397:134|397:132|397:134|397:134|397:132|397:134|397:134|397:132|397:134|397:134|397:132|397:134|397:134|397:132|397:134|397:134|397:132|397:134|397:134|397:132|397:134|397:134|397:132|397:134|397:134|397:132|397:134|397:134|397:132|397:134|397:134|397:132|397:134|397:134|397:132|397:134|397:134|397:132|397:134|397:134|397:132|397:134|397:134|397:132|397:134|397:134|397:132|397:134|397:134|397:132|397:134|397:134|397:132|397:134|397:134|397:132|397:134|397:134|397:132|397:134|397:134|397:132|397:134|397:134|397:132|397:134|397:134|397:132|397:134|397:134|397:132|397:134|397:134|397:132|397:134|397:134|397:132|397:134|397:134|397:132|397:134|397:134|397:132|397:134|397:134|397:132|397:134|397:134|397:132|397:134|397:134|397:132|397:134|397:134|397:132|397:134|397:134|397:132|397:134|397:134|397:132|397:134|397:134|397:132|397:134|397:134|397:132|397:134|397:134|397:132|397:134|397:134|397:132|397:134|397:134|397:132|397:134|397:134|397:132|397:134|397:134|397:132|397:134|397:134|397:132|397:134|397:134|397:133|397:133|396:131|397:133|397:133|398:135|397:133|397:133|398:135|397:133|397:133|398:135|397:133|397:133|398:135|397:133|397:133|398:135|397:133|397:133|398:135|397:133|397:133|398:135|397:133|397:133|398:135|397:133|397:133|398:135|397:133|397:133|398:135|397:133|397:133|398:135|397:133|397:133|398:135|397:133|397:133|398:135|397:133|397:133|398:135|397:133|397:133|398:135|397:133|397:133|398:135|397:133|397:133|398:135|397:133|397:133|398:135|397:133|397:133|398:135|397:133|397:133|398:135|397:133|397:133|398:135|397:133|397:133|398:135|397:133|397:133|398:135|397:133|397:133|398:135|397:133|397:133|398:135|397:133|397:133|398:135|397:133|397:133|398:135|397:133|397:133|398:135|397:133|397:133|398:135|397:133|397:133|398:135|397:133|397:133|398:135|397:133|397:133|398:135|397:133|397:133|398:135|397:133|397:133|397:134|397:134|398:136|397:134|397:134|398:136|397:134|397:134|398:136|397:134|397:134|398:136|397:134|397:134|398:136|397:134|397:134|398:136|397:134|397:134|398:136|397:134|397:134|398:136|397:134|397:134|398:136|397:134|397:134|398:136|397:134|397:134|398:136|397:134|397:134|398:136|397:134|397:134|398:136|397:134|397:134|398:136|397:134|397:134|398:136|397:134|397:134|398:136|397:134|397:134|398:136|397:134|397:134|398:136|397:134|397:134|398:136|397:134|397:134|398:136|397:134|397:134|398:136|397:134|397:134|398:136|397:134|397:134|398:136|397:134|397:134|398:136|397:134|397:134|398:136|397:134|397:134|398:136|397:134|397:134|398:136|397:134|397:134|398:136|397:134|397:134|398:136|397:134|397:134|398:136|397:134|397:134|398:136|397:134|397:134|398:136|397:134|397:134|398:136|397:134|397:134|398:136|397:134|397:134|398:136|397:134|397:134|398:136|397:134|397:134|398:136|397:134|397:134|398:136|397:134|397:134|398:135|398:135|399:137|398:135|398:135|399:137|398:135|398:135|399:137|398:135|398:135|399:137|398:135|398:135|399:137|398:135|398:135|399:137|398:135|398:135|399:137|398:135|398:135|399:137|398:135|398:135|399:137|398:135|398:135|399:137|398:135|398:135|399:137|398:135|398:135|399:137|398:135|398:135|399:137|398:135|398:135|399:137|398:135|398:135|399:137|398:135|398:135|399:137|398:135|398:135|399:137|398:135|398:135|399:137|398:135|398:135|399:137|398:135|398:135|399:137|398:135|398:135|399:137|398:135|398:135|399:137|398:135|398:135|399:137|398:135|398:135|399:137|398:135|398:135|399:137|398:135|398:135|399:137|398:135|398:135|399:137|398:135|398:135|399:137|398:135|398:135|399:137|398:135|398:135|399:137|398:135|398:135|399:137|398:135|398:135|399:137|398:135|398:135|399:137|398:135|398:135|399:137|398:135|398:135|399:137|398:135|398:135|399:137|398:135|398:135|399:137|398:135|398:135|398:136|398:136|399:138|398:136|398:136|399:138|398:136|398:136|399:138|398:136|398:136|399:138|398:136|398:136|399:138|398:136|398:136|399:138|398:136|398:136|399:138|398:136|398:136|399:138|398:136|398:136|399:138|398:136|398:136|399:138|398:136|398:136|399:138|398:136|398:136|399:138|398:136|398:136|399:138|398:136|398:136|399:138|398:136|398:136|399:138|398:136|398:136|399:138|398:136|398:136|399:138|398:136|398:136|399:138|398:136|398:136|399:138|398:136|398:136|399:138|398:136|398:136|399:138|398:136|398:136|399:138|398:136|398:136|399:138|398:136|398:136|399:138|398:136|398:136|399:138|398:136|398:136|399:138|398:136|398:136|399:138|398:136|398:136|399:138|398:136|398:136|399:138|398:136|398:136|399:138|398:136|398:136|399:138|398:136|398:136|399:138|398:136|398:136|398:137|398:137|399:139|398:137|398:137|399:139|398:137|398:137|399:139|398:137|398:137|399:139|398:137|398:137|399:139|398:137|398:137|399:139|398:137|398:137|399:139|398:137|398:137|399:139|398:137|398:137|399:139|398:137|398:137|399:139|398:137|398:137|399:139|398:137|398:137|399:139|398:137|398:137|399:139|398:137|398:137|399:139|398:137|398:137|399:139|398:137|398:137|399:139|398:137|398:137|399:139|398:137|398:137|399:139|398:137|398:137|399:139|398:137|398:137|399:139|398:137|398:137|399:139|398:137|398:137|399:139|398:137|398:137|399:139|398:137|398:137|399:139|398:137|398:137|399:139|398:137|398:137|399:139|398:137|398:137|399:139|398:137|398:137|399:139|398:137|398:137|399:139|398:137|398:137|399:139|398:137|398:137|399:139|398:137|398:137|399:139|398:137|398:137|399:139|398:137|398:137|399:139|398:137|398:137|399:139|398:137|398:137|399:139|398:137|398:137|399:139|398:137|398:137|399:139|398:137|398:137|399:138|399:138|400:140|399:138|399:138|400:140|399:138|399:138|400:140|399:138|399:138|400:140|399:138|399:138|400:140|399:138|399:138|400:140|399:138|399:138|400:140|399:138|399:138|400:140|399:138|399:138|400:140|399:138|399:138|400:140|399:138|399:138|400:140|399:138|399:138|400:140|399:138|399:138|400:140|399:138|399:138|400:140|399:138|399:138|400:140|399:138|399:138|400:140|399:138|399:138|400:140|399:138|399:138|400:140|399:138|399:138|400:140|399:138|399:138|400:140|399:138|399:138|400:140|399:138|399:138|400:140|399:138|399:138|400:140|399:138|399:138|400:140|399:138|399:138|400:140|399:138|399:138|400:140|399:138|399:138|400:140|399:138|399:138|400:140|399:138|399:138|400:140|399:138|399:138|400:140|399:138|399:138|400:140|399:138|399:138|400:140|399:138|399:138|400:140|399:138|399:138|400:140|399:138|399:138|400:140|399:138|399:138|400:140|399:138|399:138|400:140|399:138|399:138|399:139|399:139|400:141|399:139|399:139|400:141|399:139|399:139|400:141|399:139|399:139|400:141|399:139|399:139|400:141|399:139|399:139|400:141|399:139|399:139|400:141|399:139|399:139|400:141|399:139|399:139|400:141|399:139|399:139|400:141|399:139|399:139|400:141|399:139|399:139|400:141|399:139|399:139|400:141|399:139|399:139|400:141|399:139|399:139|400:141|399:139|399:139|400:141|399:139|399:139|400:141|399:139|399:139|400:141|399:139|399:139|400:141|399:139|399:139|400:141|399:139|399:139|400:141|399:139|399:139|400:141|399:139|399:139|400:141|399:139|399:139|400:141|399:139|399:139|400:141|399:139|399:139|400:141|399:139|399:139|400:141|399:139|399:139|400:141|399:139|399:139|400:141|399:139|399:139|400:141|399:139|399:139|400:141|399:139|399:139|400:141|399:139|399:139|399:140|399:140|400:142|399:140|399:140|400:142|399:140|399:140|400:142|399:140|399:140|400:142|399:140|399:140|400:142|399:140|399:140|400:142|399:140|399:140|400:142|399:140|399:140|400:142|399:140|399:140|400:142|399:140|399:140|400:142|399:140|399:140|400:142|399:140|399:140|400:142|399:140|399:140|400:142|399:140|399:140|400:142|399:140|399:140|400:142|399:140|399:140|400:142|399:140|399:140|400:142|399:140|399:140|400:142|399:140|399:140|400:142|399:140|399:140|400:142|399:140|399:140|400:142|399:140|399:140|400:142|399:140|399:140|400:142|399:140|399:140|400:142|399:140|399:140|400:142|399:140|399:140|400:142|399:140|399:140|400:142|399:140|399:140|400:142|399:140|399:140|400:142|399:140|399:140|400:142|399:140|399:140|400:142|399:140|399:140|400:142|399:140|399:140|400:142|399:140|399:140|400:142|399:140|399:140|400:142|399:140|399:140|400:142|399:140|399:140|400:142|399:140|399:140|400:141|400:141|401:143|400:141|400:141|401:143|400:141|400:141|401:143|400:141|400:141|401:143|400:141|400:141|401:143|400:141|400:141|401:143|400:141|400:141|401:143|400:141|400:141|401:143|400:141|400:141|401:143|400:141|400:141|401:143|400:141|400:141|401:143|400:141|400:141|401:143|400:141|400:141|401:143|400:141|400:141|401:143|400:141|400:141|401:143|400:141|400:141|401:143|400:141|400:141|401:143|400:141|400:141|401:143|400:141|400:141|401:143|400:141|400:141|401:143|400:141|400:141|401:143|400:141|400:141|401:143|400:141|400:141|401:143|400:141|400:141|401:143|400:141|400:141|401:143|400:141|400:141|401:143|400:141|400:141|401:143|400:141|400:141|401:143|400:141|400:141|401:143|400:141|400:141|401:143|400:141|400:141|401:143|400:141|400:141|401:143|400:141|400:141|401:143|400:141|400:141|401:143|400:141|400:141|401:143|400:141|400:141|401:143|400:141|400:141|400:142|400:142|400:140|400:142|400:142|400:140|400:142|400:142|400:140|400:142|400:142|400:140|400:142|400:142|400:140|400:142|400:142|400:140|400:142|400:142|400:140|400:142|400:142|400:140|400:142|400:142|400:140|400:142|400:142|400:140|400:142|400:142|400:140|400:142|400:142|400:140|400:142|400:142|400:140|400:142|400:142|400:140|400:142|400:142|400:140|400:142|400:142|400:140|400:142|400:142|400:140|400:142|400:142|400:140|400:142|400:142|400:140|400:142|400:142|400:140|400:142|400:142|400:140|400:142|400:142|400:140|400:142|400:142|400:140|400:142|400:142|400:140|400:142|400:142|400:140|400:142|400:142|400:140|400:142|400:142|400:140|400:142|400:142|400:140|400:142|400:142|400:140|400:142|400:142|400:140|400:142|400:142|400:140|400:142|400:142|400:140|400:142|400:142|400:140|400:142|400:142|400:140|400:142|400:142|400:140|400:142|400:142|400:140|400:142|400:142|400:141|400:141|400:139|400:141|400:141|400:139|400:141|400:141|400:139|400:141|400:141|400:139|400:141|400:141|400:139|400:141|400:141|400:139|400:141|400:141|400:139|400:141|400:141|400:139|400:141|400:141|400:139|400:141|400:141|400:139|400:141|400:141|400:139|400:141|400:141|400:139|400:141|400:141|400:139|400:141|400:141|400:139|400:141|400:141|400:139|400:141|400:141|400:139|400:141|400:141|400:139|400:141|400:141|400:139|400:141|400:141|400:139|400:141|400:141|400:139|400:141|400:141|400:139|400:141|400:141|400:139|400:141|400:141|400:139|400:141|400:141|400:139|400:141|400:141|400:139|400:141|400:141|400:139|400:141|400:141|400:139|400:141|400:141|400:139|400:141|400:141|400:139|400:141|400:141|400:139|400:141|400:141|400:139|400:141|400:141|400:139|400:141|400:141|400:139|400:141|400:141|400:139|400:141|400:141|400:139|400:141|400:141|400:139|400:141|400:141|400:139|400:141|400:141|400:139|400:141|400:141|400:139|400:141|400:141|400:139|400:141|400:141|400:139|400:141|400:141|400:139|400:141|400:141|400:139|400:141|400:141|400:139|400:141|400:141|400:139|400:141|400:141|400:139|400:141|400:141|400:139|400:141|400:141|400:139|400:141|400:141|400:139|400:141|400:141|400:139|400:141|400:141|400:139|400:141|400:141|400:139|400:141|400:141|400:139|400:141|400:141|400:139|400:141|400:141|400:139|400:141|400:141|400:139|400:141|400:141|400:139|400:141|400:141|400:139|400:141|400:141|400:139|400:141|400:141|400:139|400:141|400:141|400:139|400:141|400:141|400:139|400:141|400:141|400:139|400:141|400:141|400:139|400:141|400:141|400:139|400:141|400:141|400:139|400:141|400:141|400:139|400:141|400:141|400:139|400:141|400:141|400:139|400:141|400:141|400:139|400:141|400:141|400:139|400:141|400:141|400:139|400:141|400:141|400:139|400:141|400:141|400:139|400:141|400:141|400:139|400:141|400:141|401:138|401:138|401:136|401:138|401:138|401:136|401:138|401:138|401:136|401:138|401:138|401:136|401:138|401:138|401:136|401:138|401:138|401:136|401:138|401:138|401:136|401:138|401:138|401:136|401:138|401:138|401:136|401:138|401:138|401:136|401:138|401:138|401:136|401:138|401:138|401:136|401:138|401:138|401:136|401:138|401:138|401:136|401:138|401:138|401:136|401:138|401:138|401:136|401:138|401:138|401:136|401:138|401:138|401:136|401:138|401:138|401:136|401:138|401:138|401:136|401:138|401:138|401:136|401:138|401:138|401:136|401:138|401:138|401:136|401:138|401:138|401:136|401:138|401:138|401:136|401:138|401:138|401:136|401:138|401:138|401:136|401:138|401:138|401:136|401:138|401:138|401:136|401:138|401:138|401:136|401:138|401:138|401:136|401:138|401:138|401:136|401:138|401:138|401:136|401:138|401:138|401:136|401:138|401:138|401:136|401:138|401:138|401:136|401:138|401:138|401:136|401:138|401:138|401:136|401:138|401:138|401:136|401:138|401:138|401:136|401:138|401:138|401:136|401:138|401:138|401:136|401:138|401:138|401:136|401:138|401:138|401:136|401:138|401:138|401:136|401:138|401:138|401:136|401:138|401:138|401:136|401:138|401:138|401:136|401:138|401:138|401:136|401:138|401:138|401:136|401:138|401:138|401:136|401:138|401:138|401:136|401:138|401:138|401:136|401:138|401:138|401:136|401:138|401:138|401:136|401:138|401:138|401:136|401:138|401:138|401:136|401:138|401:138|401:136|401:138|401:138|401:136|401:138|401:138|401:136|401:138|401:138|401:136|401:138|401:138|401:136|401:138|401:138|401:136|401:138|401:138|401:136|401:138|401:138|401:136|401:138|401:138|401:136|401:138|401:138|401:136|401:138|401:138|401:136|401:138|401:138|401:136|401:138|401:138|401:136|401:138|401:138|401:136|401:138|401:138|401:136|401:138|401:138|401:136|401:138|401:138|401:136|401:138|401:138|401:137|401:137|399:138|401:137|401:137|403:136|401:137|401:137|403:136|401:137|401:137|403:136|401:137|401:137|403:136|401:137|401:137|403:136|401:137|401:137|403:136|401:137|401:137|403:136|401:137|401:137|403:136|401:137|401:137|403:136|401:137|401:137|403:136|401:137|401:137|403:136|401:137|401:137|403:136|401:137|401:137|403:136|401:137|401:137|403:136|401:137|401:137|403:136|401:137|401:137|403:136|401:137|401:137|403:136|401:137|401:137|403:136|401:137|401:137|403:136|401:137|401:137|403:136|401:137|401:137|403:136|401:137|401:137|403:136|401:137|401:137|403:136|401:137|401:137|403:136|401:137|401:137|403:136|401:137|401:137|403:136|401:137|401:137|403:136|401:137|401:137|403:136|401:137|401:137|403:136|401:137|401:137|403:136|401:137|401:137|402:137|402:137|400:138|402:137|402:137|404:136|402:137|402:137|404:136|402:137|402:137|404:136|402:137|402:137|404:136|402:137|402:137|404:136|402:137|402:137|404:136|402:137|402:137|404:136|402:137|402:137|404:136|402:137|402:137|404:136|402:137|402:137|404:136|402:137|402:137|404:136|402:137|402:137|404:136|402:137|402:137|404:136|402:137|402:137|404:136|402:137|402:137|404:136|402:137|402:137|404:136|402:137|402:137|404:136|402:137|402:137|404:136|402:137|402:137|404:136|402:137|402:137|404:136|402:137|402:137|404:136|402:137|402:137|404:136|402:137|402:137|404:136|402:137|402:137|404:136|402:137|402:137|404:136|402:137|402:137|404:136|402:137|402:137|404:136|402:137|402:137|404:136|402:137|402:137|404:136|402:137|402:137|404:136|402:137|402:137|404:136|402:137|402:137|404:136|402:137|402:137|404:136|402:137|402:137|404:136|402:137|402:137|404:136|402:137|402:137|404:136|402:137|402:137|404:136|402:137|402:137|404:136|402:137|402:137|404:136|402:137|402:137|404:136|402:137|402:137|404:136|402:137|402:137|404:136|402:137|402:137|404:136|402:137|402:137|404:136|402:137|402:137|404:136|402:137|402:137|404:136|402:137|402:137|404:136|402:137|402:137|404:136|402:137|402:137|404:136|402:137|402:137|404:136|402:137|402:137|403:136|404:136|404:136|406:136|404:136|404:136|406:136|404:136|404:136|406:136|404:136|404:136|406:136|404:136|404:136|406:136|404:136|404:136|406:136|404:136|404:136|406:136|404:136|404:136|406:136|404:136|404:136|406:136|404:136|404:136|406:136|404:136|404:136|406:136|404:136|404:136|406:136|404:136|404:136|406:136|404:136|404:136|406:136|404:136|404:136|406:136|404:136|404:136|406:136|404:136|404:136|406:136|404:136|404:136|406:136|404:136|404:136|406:136|404:136|404:136|406:136|404:136|404:136|406:136|404:136|404:136|406:136|404:136|404:136|406:136|404:136|404:136|406:136|404:136|404:136|406:136|404:136|404:136|406:136|404:136|404:136|406:136|404:136|404:136|406:136|404:136|404:136|406:136|404:136|404:136|406:136|404:136|404:136|406:136|404:136|404:136|406:136|404:136|404:136|406:136|404:136|404:136|406:136|404:136|404:136|406:136|404:136|404:136|406:136|404:136|404:136|406:136|404:136|404:136|406:136|404:136|404:136|406:136|404:136|404:136|406:136|404:136|404:136|406:136|404:136|404:136|406:136|404:136|404:136|406:136|404:136|404:136|406:136|404:136|404:136|406:136|404:136|404:136|406:136|404:136|404:136|406:136|404:136|404:136|406:136|404:136|404:136|406:136|404:136|404:136|406:136|404:136|404:136|406:136|404:136|404:136|406:136|404:136|404:136|406:136|404:136|404:136|406:136|404:136|404:136|406:136|404:136|404:136|405:136|405:136|403:136|405:136|405:136|407:136|405:136|405:136|407:136|405:136|405:136|407:136|405:136|405:136|407:136|405:136|405:136|407:136|405:136|405:136|407:136|405:136|405:136|407:136|405:136|405:136|407:136|405:136|405:136|407:136|405:136|405:136|407:136|405:136|405:136|407:136|405:136|405:136|407:136|405:136|405:136|407:136|405:136|405:136|407:136|405:136|405:136|407:136|405:136|405:136|407:136|405:136|405:136|407:136|405:136|405:136|407:136|405:136|405:136|407:136|405:136|405:136|407:136|405:136|405:136|407:136|405:136|405:136|407:136|405:136|405:136|407:136|405:136|405:136|407:136|405:136|405:136|407:136|405:136|405:136|407:136|405:136|405:136|407:136|405:136|405:136|407:136|405:136|405:136|407:136|405:136|405:136|407:136|405:136|405:136|407:136|405:136|405:136|407:136|405:136|405:136|407:136|405:136|405:136|407:136|405:136|405:136|406:136|406:136|406:138|406:136|406:136|406:134|406:136|406:136|406:134|406:136|406:136|406:134|406:136|406:136|406:134|406:136|406:136|406:134|406:136|406:136|406:134|406:136|406:136|406:134|406:136|406:136|406:134|406:136|406:136|406:134|406:136|406:136|406:134|406:136|406:136|406:134|406:136|406:136|406:134|406:136|406:136|406:134|406:136|406:136|406:134|406:136|406:136|406:134|406:136|406:136|406:134|406:136|406:136|406:134|406:136|406:136|406:134|406:136|406:136|406:134|406:136|406:136|406:134|406:136|406:136|406:134|406:136|406:136|406:134|406:136|406:136|406:134|406:136|406:136|406:134|406:136|406:136|406:134|406:136|406:136|406:134|406:136|406:136|406:134|406:136|406:136|406:134|406:136|406:136|406:134|406:136|406:136|406:134|406:136|406:136|406:134|406:136|406:136|406:134|406:136|406:136|406:134|406:136|406:136|406:134|406:136|406:136|406:135|406:135|406:133|406:135|406:135|406:133|406:135|406:135|406:133|406:135|406:135|406:133|406:135|406:135|406:133|406:135|406:135|406:133|406:135|406:135|406:133|406:135|406:135|406:133|406:135|406:135|406:133|406:135|406:135|406:133|406:135|406:135|406:133|406:135|406:135|406:133|406:135|406:135|406:133|406:135|406:135|406:133|406:135|406:135|406:133|406:135|406:135|406:133|406:135|406:135|406:133|406:135|406:135|406:133|406:135|406:135|406:133|406:135|406:135|406:133|406:135|406:135|406:133|406:135|406:135|406:133|406:135|406:135|406:133|406:135|406:135|406:133|406:135|406:135|406:133|406:135|406:135|406:133|406:135|406:135|406:133|406:135|406:135|406:133|406:135|406:135|406:133|406:135|406:135|406:133|406:135|406:135|406:133|406:135|406:135|406:133|406:135|406:135|406:133|406:135|406:135|406:133|406:135|406:135|406:133|406:135|406:135|406:134|406:134|406:132|406:134|406:134|406:132|406:134|406:134|406:132|406:134|406:134|406:132|406:134|406:134|406:132|406:134|406:134|406:132|406:134|406:134|406:132|406:134|406:134|406:132|406:134|406:134|406:132|406:134|406:134|406:132|406:134|406:134|406:132|406:134|406:134|406:132|406:134|406:134|406:132|406:134|406:134|406:132|406:134|406:134|406:132|406:134|406:134|406:132|406:134|406:134|406:132|406:134|406:134|406:132|406:134|406:134|406:132|406:134|406:134|406:132|406:134|406:134|406:132|406:134|406:134|406:132|406:134|406:134|406:132|406:134|406:134|406:132|406:134|406:134|406:132|406:134|406:134|406:132|406:134|406:134|406:132|406:134|406:134|406:132|406:134|406:134|406:132|406:134|406:134|406:132|406:134|406:134|406:132|406:134|406:134|406:132|406:134|406:134|406:132|406:134|406:134|406:132|406:134|406:134|406:132|406:134|406:134|406:132|406:134|406:134|406:132|406:134|406:134|406:132|406:134|406:134|406:132|406:134|406:134|406:132|406:134|406:134|406:132|406:134|406:134|406:132|406:134|406:134|406:132|406:134|406:134|406:132|406:134|406:134|406:132|406:134|406:134|406:132|406:134|406:134|406:132|406:134|406:134|406:132|406:134|406:134|406:132|406:134|406:134|406:132|406:134|406:134|406:132|406:134|406:134|406:132|406:134|406:134|406:132|406:134|406:134|406:132|406:134|406:134|407:132|407:132|407:130|407:132|407:132|407:130|407:132|407:132|407:130|407:132|407:132|407:130|407:132|407:132|407:130|407:132|407:132|407:130|407:132|407:132|407:130|407:132|407:132|407:130|407:132|407:132|407:130|407:132|407:132|407:130|407:132|407:132|407:130|407:132|407:132|407:130|407:132|407:132|407:130|407:132|407:132|407:130|407:132|407:132|407:130|407:132|407:132|407:130|407:132|407:132|407:130|407:132|407:132|407:130|407:132|407:132|407:130|407:132|407:132|407:130|407:132|407:132|407:130|407:132|407:132|407:130|407:132|407:132|407:130|407:132|407:132|407:130|407:132|407:132|407:130|407:132|407:132|407:130|407:132|407:132|407:130|407:132|407:132|407:130|407:132|407:132|407:130|407:132|407:132|407:130|407:132|407:132|407:130|407:132|407:132|407:130|407:132|407:132|407:130|407:132|407:132|407:130|407:132|407:132|407:130|407:132|407:132|407:130|407:132|407:132|407:130|407:132|407:132|407:130|407:132|407:132|407:130|407:132|407:132|407:130|407:132|407:132|407:130|407:132|407:132|407:130|407:132|407:132|407:130|407:132|407:132|407:130|407:132|407:132|407:130|407:132|407:132|407:130|407:132|407:132|407:130|407:132|407:132|407:130|407:132|407:132|407:130|407:132|407:132|407:130|407:132|407:132|407:130|407:132|407:132|407:130|407:132|407:132|407:130|407:132|407:132|407:130|407:132|407:132|407:131|407:131|407:129|407:131|407:131|407:129|407:131|407:131|407:129|407:131|407:131|407:129|407:131|407:131|407:129|407:131|407:131|407:129|407:131|407:131|407:129|407:131|407:131|407:129|407:131|407:131|407:129|407:131|407:131|407:129|407:131|407:131|407:129|407:131|407:131|407:129|407:131|407:131|407:129|407:131|407:131|407:129|407:131|407:131|407:129|407:131|407:131|407:129|407:131|407:131|407:129|407:131|407:131|407:129|407:131|407:131|407:129|407:131|407:131|407:129|407:131|407:131|407:129|407:131|407:131|407:129|407:131|407:131|407:129|407:131|407:131|407:129|407:131|407:131|407:129|407:131|407:131|407:129|407:131|407:131|407:129|407:131|407:131|407:129|407:131|407:131|407:129|407:131|407:131|407:129|407:131|407:131|407:129|407:131|407:131|407:129|407:131|407:131|407:129|407:131|407:131|407:130|407:130|407:128|407:130|407:130|407:132|407:130|407:130|407:132|407:130|407:130|407:132|407:130|407:130|407:132|407:130|407:130|407:132|407:130|407:130|407:132|407:130|407:130|407:132|407:130|407:130|407:132|407:130|407:130|407:132|407:130|407:130|407:132|407:130|407:130|407:132|407:130|407:130|407:132|407:130|407:130|407:132|407:130|407:130|407:132|407:130|407:130|407:132|407:130|407:130|407:132|407:130|407:130|407:132|407:130|407:130|407:132|407:130|407:130|407:132|407:130|407:130|407:132|407:130|407:130|407:132|407:130|407:130|407:132|407:130|407:130|407:132|407:130|407:130|407:132|407:130|407:130|407:132|407:130|407:130|407:132|407:130|407:130|407:132|407:130|407:130|407:132|407:130|407:130|407:132|407:130|407:130|407:132|407:130|407:130|407:132|407:130|407:130|407:132|407:130|407:130|407:132|407:130|407:130|407:131|407:131|407:133|407:131|407:131|407:133|407:131|407:131|407:133|407:131|407:131|407:133|407:131|407:131|407:133|407:131|407:131|407:133|407:131|407:131|407:133|407:131|407:131|407:133|407:131|407:131|407:133|407:131|407:131|407:133|407:131|407:131|407:133|407:131|407:131|407:133|407:131|407:131|407:133|407:131|407:131|407:133|407:131|407:131|407:133|407:131|407:131|407:133|407:131|407:131|407:133|407:131|407:131|407:133|407:131|407:131|407:133|407:131|407:131|407:133|407:131|407:131|407:133|407:131|407:131|407:133|407:131|407:131|407:133|407:131|407:131|407:133|407:131|407:131|407:133|407:131|407:131|407:133|407:131|407:131|407:133|407:131|407:131|407:133|407:131|407:131|407:133|407:131|407:131|407:133|407:131|407:131|407:133|407:131|407:131|407:133|407:131|407:131|407:133|407:131|407:131|407:133|407:131|407:131|407:133|407:131|407:131|407:133|407:131|407:131|407:133|407:131|407:131|407:133|407:131|407:131|407:133|407:131|407:131|407:133|407:131|407:131|407:133|407:131|407:131|407:133|407:131|407:131|407:133|407:131|407:131|407:133|407:131|407:131|407:133|407:131|407:131|407:133|407:131|407:131|407:133|407:131|407:131|407:133|407:131|407:131|407:133|407:131|407:131|407:133|407:131|407:131|407:133|407:131|407:131|407:133|407:131|407:131|407:133|407:131|407:131|407:133|407:131|407:131|407:133|407:131|407:131|407:133|407:131|407:131|407:133|407:131|407:131|407:133|407:131|407:131|407:133|407:131|407:131|407:133|407:131|407:131|407:133|407:131|407:131|407:133|407:131|407:131|407:133|407:131|407:131|407:133|407:131|407:131|407:133|407:131|407:131|407:133|407:131|407:131|407:133|407:131|407:131|407:133|407:131|407:131|407:133|407:131|407:131|408:134|408:134|408:136|408:134|408:134|408:136|408:134|408:134|408:136|408:134|408:134|408:136|408:134|408:134|408:136|408:134|408:134|408:136|408:134|408:134|408:136|408:134|408:134|408:136|408:134|408:134|408:136|408:134|408:134|408:136|408:134|408:134|408:136|408:134|408:134|408:136|408:134|408:134|408:136|408:134|408:134|408:136|408:134|408:134|408:136|408:134|408:134|408:136|408:134|408:134|408:136|408:134|408:134|408:136|408:134|408:134|408:136|408:134|408:134|408:136|408:134|408:134|408:136|408:134|408:134|408:136|408:134|408:134|408:136|408:134|408:134|408:136|408:134|408:134|408:136|408:134|408:134|408:136|408:134|408:134|408:136|408:134|408:134|408:136|408:134|408:134|408:136|408:134|408:134|408:136|408:134|408:134|408:136|408:134|408:134|408:136|408:134|408:134|408:136|408:134|408:134|408:136|408:134|408:134|408:136|408:134|408:134|408:136|408:134|408:134|408:136|408:134|408:134|408:136|408:134|408:134|408:136|408:134|408:134|408:136|408:134|408:134|408:136|408:134|408:134|408:136|408:134|408:134|408:136|408:134|408:134|408:136|408:134|408:134|408:136|408:134|408:134|408:136|408:134|408:134|408:136|408:134|408:134|408:136|408:134|408:134|408:136|408:134|408:134|408:136|408:134|408:134|408:136|408:134|408:134|408:136|408:134|408:134|408:136|408:134|408:134|408:136|408:134|408:134|408:136|408:134|408:134|408:136|408:134|408:134|408:136|408:134|408:134|408:136|408:134|408:134|408:136|408:134|408:134|408:136|408:134|408:134|408:136|408:134|408:134|408:136|408:134|408:134|408:136|408:134|408:134|408:136|408:134|408:134|408:136|408:134|408:134|408:136|408:134|408:134|408:136|408:134|408:134|408:136|408:134|408:134|408:136|408:134|408:134|408:136|408:134|408:134|408:135|408:135|408:137|408:135|408:135|408:137|408:135|408:135|408:137|408:135|408:135|408:137|408:135|408:135|408:137|408:135|408:135|408:137|408:135|408:135|408:137|408:135|408:135|408:137|408:135|408:135|408:137|408:135|408:135|408:137|408:135|408:135|408:137|408:135|408:135|408:137|408:135|408:135|408:137|408:135|408:135|408:137|408:135|408:135|408:137|408:135|408:135|408:137|408:135|408:135|408:137|408:135|408:135|408:137|408:135|408:135|408:137|408:135|408:135|408:137|408:135|408:135|408:137|408:135|408:135|408:137|408:135|408:135|408:137|408:135|408:135|408:137|408:135|408:135|408:137|408:135|408:135|408:137|408:135|408:135|408:137|408:135|408:135|408:137|408:135|408:135|408:137|408:135|408:135|408:137|408:135|408:135|408:137|408:135|408:135|408:137|408:135|408:135|408:136|408:136|408:134|408:136|408:136|408:138|408:136|408:136|408:138|408:136|408:136|408:138|408:136|408:136|408:138|408:136|408:136|408:138|408:136|408:136|408:138|408:136|408:136|408:138|408:136|408:136|408:138|408:136|408:136|408:138|408:136|408:136|408:138|408:136|408:136|408:138|408:136|408:136|408:138|408:136|408:136|408:138|408:136|408:136|408:138|408:136|408:136|408:138|408:136|408:136|408:138|408:136|408:136|408:138|408:136|408:136|408:138|408:136|408:136|408:138|408:136|408:136|408:138|408:136|408:136|408:138|408:136|408:136|408:138|408:136|408:136|408:138|408:136|408:136|408:138|408:136|408:136|408:138|408:136|408:136|408:138|408:136|408:136|408:138|408:136|408:136|408:138|408:136|408:136|408:138|408:136|408:136|408:138|408:136|408:136|408:138|408:136|408:136|408:138|408:136|408:136|408:138|408:136|408:136|408:138|408:136|408:136|408:138|408:136|408:136|408:138|408:136|408:136|408:138|408:136|408:136|408:138|408:136|408:136|408:138|408:136|408:136|408:138|408:136|408:136|408:138|408:136|408:136|408:138|408:136|408:136|408:138|408:136|408:136|408:138|408:136|408:136|408:138|408:136|408:136|408:138|408:136|408:136|408:138|408:136|408:136|408:138|408:136|408:136|408:138|408:136|408:136|408:138|408:136|408:136|408:138|408:136|408:136|408:138|408:136|408:136|408:138|408:136|408:136|408:138|408:136|408:136|408:138|408:136|408:136|408:138|408:136|408:136|408:138|408:136|408:136|408:138|408:136|408:136|408:138|408:136|408:136|408:138|408:136|408:136|408:138|408:136|408:136|408:138|408:136|408:136|408:138|408:136|408:136|408:138|408:136|408:136|408:138|408:136|408:136|408:138|408:136|408:136|408:138|408:136|408:136|409:139|409:139|409:141|409:139|409:139|409:141|409:139|409:139|409:141|409:139|409:139|409:141|409:139|409:139|409:141|409:139|409:139|409:141|409:139|409:139|409:141|409:139|409:139|409:141|409:139|409:139|409:141|409:139|409:139|409:141|409:139|409:139|409:141|409:139|409:139|409:141|409:139|409:139|409:141|409:139|409:139|409:141|409:139|409:139|409:141|409:139|409:139|409:141|409:139|409:139|409:141|409:139|409:139|409:141|409:139|409:139|409:141|409:139|409:139|409:141|409:139|409:139|409:141|409:139|409:139|409:141|409:139|409:139|409:141|409:139|409:139|409:141|409:139|409:139|409:141|409:139|409:139|409:141|409:139|409:139|409:141|409:139|409:139|409:141|409:139|409:139|409:141|409:139|409:139|409:141|409:139|409:139|409:141|409:139|409:139|409:141|409:139|409:139|409:141|409:139|409:139|409:141|409:139|409:139|409:141|409:139|409:139|409:141|409:139|409:139|409:141|409:139|409:139|409:141|409:139|409:139|409:141|409:139|409:139|409:141|409:139|409:139|409:141|409:139|409:139|409:141|409:139|409:139|409:141|409:139|409:139|409:141|409:139|409:139|409:141|409:139|409:139|409:141|409:139|409:139|409:141|409:139|409:139|409:141|409:139|409:139|409:141|409:139|409:139|409:141|409:139|409:139|409:141|409:139|409:139|409:141|409:139|409:139|409:141|409:139|409:139|409:141|409:139|409:139|409:141|409:139|409:139|409:141|409:139|409:139|409:141|409:139|409:139|409:141|409:139|409:139|409:141|409:139|409:139|409:141|409:139|409:139|409:141|409:139|409:139|409:141|409:139|409:139|409:141|409:139|409:139|409:141|409:139|409:139|409:141|409:139|409:139|409:141|409:139|409:139|409:141|409:139|409:139|409:141|409:139|409:139|409:140|409:140|410:138|409:140|409:140|410:138|409:140|409:140|410:138|409:140|409:140|410:138|409:140|409:140|410:138|409:140|409:140|410:138|409:140|409:140|410:138|409:140|409:140|410:138|409:140|409:140|410:138|409:140|409:140|410:138|409:140|409:140|410:138|409:140|409:140|410:138|409:140|409:140|410:138|409:140|409:140|410:138|409:140|409:140|410:138|409:140|409:140|410:138|409:140|409:140|410:138|409:140|409:140|410:138|409:140|409:140|410:138|409:140|409:140|410:138|409:140|409:140|410:138|409:140|409:140|410:138|409:140|409:140|410:138|409:140|409:140|410:138|409:140|409:140|410:138|409:140|409:140|410:138|409:140|409:140|410:138|409:140|409:140|410:138|409:140|409:140|410:138|409:140|409:140|410:138|409:140|409:140|410:138|409:140|409:140|410:138|409:140|409:140|410:138|409:140|409:140|410:138|409:140|409:140|410:138|409:140|409:140|410:138|409:140|409:140|410:138|409:140|409:140|410:138|409:140|409:140|410:138|409:140|409:140|410:138|409:140|409:140|410:138|409:140|409:140|410:138|409:140|409:140|410:138|409:140|409:140|410:138|409:140|409:140|410:138|409:140|409:140|410:138|409:140|409:140|410:138|410:138|411:136|410:138|410:138|411:136|410:138|410:138|411:136|410:138|410:138|411:136|410:138|410:138|411:136|410:138|410:138|411:136|410:138|410:138|411:136|410:138|410:138|411:136|410:138|410:138|411:136|410:138|410:138|411:136|410:138|410:138|411:136|410:138|410:138|411:136|410:138|410:138|411:136|410:138|410:138|411:136|410:138|410:138|411:136|410:138|410:138|411:136|410:138|410:138|411:136|410:138|410:138|411:136|410:138|410:138|411:136|410:138|410:138|411:136|410:138|410:138|411:136|410:138|410:138|411:136|410:138|410:138|411:136|410:138|410:138|411:136|410:138|410:138|411:136|410:138|410:138|411:136|410:138|410:138|411:136|410:138|410:138|411:136|410:138|410:138|411:136|410:138|410:138|411:136|410:138|410:138|411:136|410:138|410:138|411:136|410:138|410:138|411:136|410:138|410:138|411:136|410:138|410:138|411:136|410:138|410:138|411:136|410:138|410:138|411:136|410:138|410:138|411:136|410:138|410:138|411:136|410:138|410:138|411:136|410:138|410:138|411:136|410:138|410:138|411:136|410:138|410:138|411:136|410:138|410:138|411:136|410:138|410:138|411:136|410:138|410:138|411:136|410:138|410:138|410:137|410:137|411:135|410:137|410:137|411:135|410:137|410:137|411:135|410:137|410:137|411:135|410:137|410:137|411:135|410:137|410:137|411:135|410:137|410:137|411:135|410:137|410:137|411:135|410:137|410:137|411:135|410:137|410:137|411:135|410:137|410:137|411:135|410:137|410:137|411:135|410:137|410:137|411:135|410:137|410:137|411:135|410:137|410:137|411:135|410:137|410:137|411:135|410:137|410:137|411:135|410:137|410:137|411:135|410:137|410:137|411:135|410:137|410:137|411:135|410:137|410:137|411:135|410:137|410:137|411:135|410:137|410:137|411:135|410:137|410:137|411:135|410:137|410:137|411:135|410:137|410:137|411:135|410:137|410:137|411:135|410:137|410:137|411:135|410:137|410:137|411:135|410:137|410:137|411:135|410:137|410:137|411:135|410:137|410:137|411:135|410:137|410:137|411:135|410:137|410:137|411:135|410:137|410:137|411:135|410:137|410:137|411:135|410:137|410:137|411:135|410:137|410:137|411:135|410:137|410:137|411:135|410:137|410:137|411:135|410:137|410:137|411:135|410:137|410:137|411:135|410:137|410:137|411:135|410:137|410:137|411:135|410:137|410:137|411:135|410:137|410:137|411:135|410:137|410:137|411:135|411:135|413:134|411:135|411:135|413:134|411:135|411:135|413:134|411:135|411:135|413:134|411:135|411:135|413:134|411:135|411:135|413:134|411:135|411:135|413:134|411:135|411:135|413:134|411:135|411:135|413:134|411:135|411:135|413:134|411:135|411:135|413:134|411:135|411:135|413:134|411:135|411:135|413:134|411:135|411:135|413:134|411:135|411:135|413:134|411:135|411:135|413:134|411:135|411:135|413:134|411:135|411:135|413:134|411:135|411:135|413:134|411:135|411:135|413:134|411:135|411:135|413:134|411:135|411:135|413:134|411:135|411:135|413:134|411:135|411:135|413:134|411:135|411:135|413:134|411:135|411:135|413:134|411:135|411:135|413:134|411:135|411:135|413:134|411:135|411:135|413:134|411:135|411:135|413:134|411:135|411:135|413:134|411:135|411:135|413:134|411:135|411:135|413:134|411:135|411:135|413:134|411:135|411:135|413:134|411:135|411:135|413:134|411:135|411:135|413:134|411:135|411:135|413:134|411:135|411:135|413:134|411:135|411:135|413:134|411:135|411:135|413:134|411:135|411:135|413:134|411:135|411:135|413:134|411:135|411:135|413:134|411:135|411:135|413:134|411:135|411:135|412:135|412:135|414:134|412:135|412:135|414:134|412:135|412:135|414:134|412:135|412:135|414:134|412:135|412:135|414:134|412:135|412:135|414:134|412:135|412:135|414:134|412:135|412:135|414:134|412:135|412:135|414:134|412:135|412:135|414:134|412:135|412:135|414:134|412:135|412:135|414:134|412:135|412:135|414:134|412:135|412:135|414:134|412:135|412:135|414:134|412:135|412:135|414:134|412:135|412:135|414:134|412:135|412:135|414:134|412:135|412:135|414:134|412:135|412:135|414:134|412:135|412:135|414:134|412:135|412:135|414:134|412:135|412:135|414:134|412:135|412:135|414:134|412:135|412:135|414:134|412:135|412:135|414:134|412:135|412:135|414:134|412:135|412:135|414:134|412:135|412:135|414:134|412:135|412:135|414:134|412:135|412:135|414:134|412:135|412:135|414:134|412:135|412:135|414:134|412:135|412:135|414:134|412:135|412:135|414:134|412:135|412:135|414:134|412:135|412:135|414:134|412:135|412:135|414:134|412:135|412:135|414:134|412:135|412:135|414:134|412:135|412:135|414:134|412:135|412:135|414:134|412:135|412:135|414:134|412:135|412:135|414:134|412:135|412:135|414:134|412:135|412:135|414:134|414:134|416:133|414:134|414:134|416:133|414:134|414:134|416:133|414:134|414:134|416:133|414:134|414:134|416:133|414:134|414:134|416:133|414:134|414:134|416:133|414:134|414:134|416:133|414:134|414:134|416:133|414:134|414:134|416:133|414:134|414:134|416:133|414:134|414:134|416:133|414:134|414:134|416:133|414:134|414:134|416:133|414:134|414:134|416:133|414:134|414:134|416:133|414:134|414:134|416:133|414:134|414:134|416:133|414:134|414:134|416:133|414:134|414:134|416:133|414:134|414:134|416:133|414:134|414:134|416:133|414:134|414:134|416:133|414:134|414:134|416:133|414:134|414:134|416:133|414:134|414:134|416:133|414:134|414:134|416:133|414:134|414:134|416:133|414:134|414:134|416:133|414:134|414:134|416:133|414:134|414:134|416:133|414:134|414:134|416:133|414:134|414:134|416:133|414:134|414:134|416:133|414:134|414:134|416:133|414:134|414:134|416:133|414:134|414:134|416:133|414:134|414:134|416:133|414:134|414:134|416:133|414:134|414:134|416:133|414:134|414:134|416:133|414:134|414:134|416:133|414:134|414:134|416:133|414:134|414:134|416:133|414:134|414:134|415:134|415:134|413:135|415:134|415:134|417:133|415:134|415:134|417:133|415:134|415:134|417:133|415:134|415:134|417:133|415:134|415:134|417:133|415:134|415:134|417:133|415:134|415:134|417:133|415:134|415:134|417:133|415:134|415:134|417:133|415:134|415:134|417:133|415:134|415:134|417:133|415:134|415:134|417:133|415:134|415:134|417:133|415:134|415:134|417:133|415:134|415:134|417:133|415:134|415:134|417:133|415:134|415:134|417:133|415:134|415:134|417:133|415:134|415:134|417:133|415:134|415:134|417:133|415:134|415:134|417:133|415:134|415:134|417:133|415:134|415:134|417:133|415:134|415:134|417:133|415:134|415:134|417:133|415:134|415:134|417:133|415:134|415:134|417:133|415:134|415:134|417:133|415:134|415:134|417:133|415:134|415:134|417:133|415:134|415:134|417:133|415:134|415:134|417:133|415:134|415:134|417:133|415:134|415:134|417:133|415:134|415:134|417:133|415:134|415:134|417:133|415:134|415:134|417:133|415:134|415:134|417:133|415:134|415:134|417:133|415:134|415:134|417:133|415:134|415:134|417:133|415:134|415:134|417:133|415:134|415:134|417:133|415:134|415:134|417:133|417:133|419:132|417:133|417:133|419:132|417:133|417:133|419:132|417:133|417:133|419:132|417:133|417:133|419:132|417:133|417:133|419:132|417:133|417:133|419:132|417:133|417:133|419:132|417:133|417:133|419:132|417:133|417:133|419:132|417:133|417:133|419:132|417:133|417:133|419:132|417:133|417:133|419:132|417:133|417:133|419:132|417:133|417:133|419:132|417:133|417:133|419:132|417:133|417:133|419:132|417:133|417:133|419:132|417:133|417:133|419:132|417:133|417:133|419:132|417:133|417:133|419:132|417:133|417:133|419:132|417:133|417:133|419:132|417:133|417:133|419:132|417:133|417:133|419:132|417:133|417:133|419:132|417:133|417:133|419:132|417:133|417:133|419:132|417:133|417:133|419:132|417:133|417:133|419:132|417:133|417:133|419:132|417:133|417:133|419:132|417:133|417:133|419:132|417:133|417:133|419:132|417:133|417:133|419:132|417:133|417:133|419:132|417:133|417:133|419:132|417:133|417:133|419:132|417:133|417:133|419:132|417:133|417:133|419:132|417:133|417:133|419:132|417:133|417:133|419:132|417:133|417:133|419:132|417:133|417:133|419:132|417:133|417:133|418:133|418:133|420:132|418:133|418:133|420:132|418:133|418:133|420:132|418:133|418:133|420:132|418:133|418:133|420:132|418:133|418:133|420:132|418:133|418:133|420:132|418:133|418:133|420:132|418:133|418:133|420:132|418:133|418:133|420:132|418:133|418:133|420:132|418:133|418:133|420:132|418:133|418:133|420:132|418:133|418:133|420:132|418:133|418:133|420:132|418:133|418:133|420:132|418:133|418:133|420:132|418:133|418:133|420:132|418:133|418:133|420:132|418:133|418:133|420:132|418:133|418:133|420:132|418:133|418:133|420:132|418:133|418:133|420:132|418:133|418:133|420:132|418:133|418:133|420:132|418:133|418:133|420:132|418:133|418:133|420:132|418:133|418:133|419:133|419:133|421:132|419:133|419:133|421:132|419:133|419:133|421:132|419:133|419:133|421:132|419:133|419:133|421:132|419:133|419:133|421:132|419:133|419:133|421:132|419:133|419:133|421:132|419:133|419:133|421:132|419:133|419:133|421:132|419:133|419:133|421:132|419:133|419:133|421:132|419:133|419:133|421:132|419:133|419:133|421:132|419:133|419:133|421:132|419:133|419:133|421:132|419:133|419:133|421:132|419:133|419:133|421:132|419:133|419:133|421:132|419:133|419:133|421:132|419:133|419:133|421:132|419:133|419:133|421:132|419:133|419:133|421:132|419:133|419:133|421:132|419:133|419:133|421:132|419:133|419:133|421:132|419:133|419:133|421:132|419:133|419:133|421:132|419:133|419:133|421:132|419:133|419:133|421:132|419:133|419:133|421:132|419:133|419:133|421:132|419:133|419:133|421:132|419:133|419:133|421:132|419:133|419:133|421:132|419:133|419:133|421:132|419:133|419:133|421:132|419:133|419:133|421:132|419:133|419:133|421:132|419:133|419:133|421:132|419:133|419:133|421:132|419:133|419:133|421:132|419:133|419:133|421:132|419:133|419:133|421:132|421:132|423:131|421:132|421:132|423:131|421:132|421:132|423:131|421:132|421:132|423:131|421:132|421:132|423:131|421:132|421:132|423:131|421:132|421:132|423:131|421:132|421:132|423:131|421:132|421:132|423:131|421:132|421:132|423:131|421:132|421:132|423:131|421:132|421:132|423:131|421:132|421:132|423:131|421:132|421:132|423:131|421:132|421:132|423:131|421:132|421:132|423:131|421:132|421:132|423:131|421:132|421:132|423:131|421:132|421:132|423:131|421:132|421:132|423:131|421:132|421:132|423:131|421:132|421:132|423:131|421:132|421:132|423:131|421:132|421:132|423:131|421:132|421:132|423:131|421:132|421:132|423:131|421:132|421:132|423:131|421:132|421:132|423:131|421:132|421:132|423:131|421:132|421:132|423:131|421:132|421:132|423:131|421:132|421:132|423:131|421:132|421:132|423:131|421:132|421:132|423:131|421:132|421:132|423:131|421:132|421:132|423:131|421:132|421:132|423:131|421:132|421:132|423:131|421:132|421:132|423:131|421:132|421:132|423:131|421:132|421:132|423:131|421:132|421:132|423:131|421:132|421:132|423:131|421:132|421:132|422:132|422:132|420:133|422:132|422:132|424:131|422:132|422:132|424:131|422:132|422:132|424:131|422:132|422:132|424:131|422:132|422:132|424:131|422:132|422:132|424:131|422:132|422:132|424:131|422:132|422:132|424:131|422:132|422:132|424:131|422:132|422:132|424:131|422:132|422:132|424:131|422:132|422:132|424:131|422:132|422:132|424:131|422:132|422:132|424:131|422:132|422:132|424:131|422:132|422:132|424:131|422:132|422:132|424:131|422:132|422:132|424:131|422:132|422:132|424:131|422:132|422:132|424:131|422:132|422:132|424:131|422:132|422:132|424:131|422:132|422:132|424:131|422:132|422:132|424:131|422:132|422:132|424:131|422:132|422:132|424:131|422:132|422:132|424:131|422:132|422:132|424:131|422:132|422:132|424:131|422:132|422:132|424:131|422:132|422:132|424:131|422:132|422:132|424:131|422:132|422:132|424:131|422:132|422:132|424:131|422:132|422:132|424:131|422:132|422:132|424:131|422:132|422:132|424:131|422:132|422:132|424:131|422:132|422:132|424:131|422:132|422:132|424:131|422:132|422:132|424:131|422:132|422:132|424:131|422:132|422:132|424:131|424:131|426:130|424:131|424:131|426:130|424:131|424:131|426:130|424:131|424:131|426:130|424:131|424:131|426:130|424:131|424:131|426:130|424:131|424:131|426:130|424:131|424:131|426:130|424:131|424:131|426:130|424:131|424:131|426:130|424:131|424:131|426:130|424:131|424:131|426:130|424:131|424:131|426:130|424:131|424:131|426:130|424:131|424:131|426:130|424:131|424:131|426:130|424:131|424:131|426:130|424:131|424:131|426:130|424:131|424:131|426:130|424:131|424:131|426:130|424:131|424:131|426:130|424:131|424:131|426:130|424:131|424:131|426:130|424:131|424:131|426:130|424:131|424:131|426:130|424:131|424:131|426:130|424:131|424:131|426:130|424:131|424:131|426:130|424:131|424:131|426:130|424:131|424:131|426:130|424:131|424:131|426:130|424:131|424:131|426:130|424:131|424:131|426:130|424:131|424:131|426:130|424:131|424:131|426:130|424:131|424:131|426:130|424:131|424:131|426:130|424:131|424:131|426:130|424:131|424:131|426:130|424:131|424:131|426:130|424:131|424:131|426:130|424:131|424:131|426:130|424:131|424:131|425:131|425:131|427:130|425:131|425:131|427:130|425:131|425:131|427:130|425:131|425:131|427:130|425:131|425:131|427:130|425:131|425:131|427:130|425:131|425:131|427:130|425:131|425:131|427:130|425:131|425:131|427:130|425:131|425:131|427:130|425:131|425:131|427:130|425:131|425:131|427:130|425:131|425:131|427:130|425:131|425:131|427:130|425:131|425:131|427:130|425:131|425:131|427:130|425:131|425:131|427:130|425:131|425:131|427:130|425:131|425:131|427:130|425:131|425:131|427:130|425:131|425:131|427:130|425:131|425:131|427:130|425:131|425:131|427:130|425:131|425:131|427:130|425:131|425:131|427:130|425:131|425:131|427:130|425:131|425:131|426:131|426:131|424:132|426:131|426:131|428:130|426:131|426:131|428:130|426:131|426:131|428:130|426:131|426:131|428:130|426:131|426:131|428:130|426:131|426:131|428:130|426:131|426:131|428:130|426:131|426:131|428:130|426:131|426:131|428:130|426:131|426:131|428:130|426:131|426:131|428:130|426:131|426:131|428:130|426:131|426:131|428:130|426:131|426:131|428:130|426:131|426:131|428:130|426:131|426:131|428:130|426:131|426:131|428:130|426:131|426:131|428:130|426:131|426:131|428:130|426:131|426:131|428:130|426:131|426:131|428:130|426:131|426:131|428:130|426:131|426:131|428:130|426:131|426:131|428:130|426:131|426:131|428:130|426:131|426:131|428:130|426:131|426:131|428:130|426:131|426:131|428:130|426:131|426:131|428:130|426:131|426:131|428:130|426:131|426:131|428:130|426:131|426:131|428:130|426:131|426:131|428:130|426:131|426:131|428:130|426:131|426:131|428:130|426:131|426:131|428:130|426:131|426:131|428:130|426:131|426:131|428:130|426:131|426:131|428:130|426:131|426:131|428:130|426:131|426:131|428:130|426:131|426:131|428:130|428:130|430:130|428:130|428:130|430:130|428:130|428:130|430:130|428:130|428:130|430:130|428:130|428:130|430:130|428:130|428:130|430:130|428:130|428:130|430:130|428:130|428:130|430:130|428:130|428:130|430:130|428:130|428:130|430:130|428:130|428:130|430:130|428:130|428:130|430:130|428:130|428:130|430:130|428:130|428:130|430:130|428:130|428:130|430:130|428:130|428:130|430:130|428:130|428:130|430:130|428:130|428:130|430:130|428:130|428:130|430:130|428:130|428:130|430:130|428:130|428:130|430:130|428:130|428:130|430:130|428:130|428:130|430:130|428:130|428:130|430:130|428:130|428:130|430:130|428:130|428:130|430:130|428:130|428:130|430:130|428:130|428:130|430:130|428:130|428:130|430:130|428:130|428:130|430:130|428:130|428:130|430:130|428:130|428:130|430:130|428:130|428:130|430:130|428:130|428:130|430:130|428:130|428:130|430:130|428:130|428:130|430:130|428:130|428:130|430:130|428:130|428:130|430:130|428:130|428:130|430:130|428:130|428:130|430:130|428:130|428:130|430:130|428:130|428:130|430:130|428:130|428:130|430:130|428:130|428:130|430:130|428:130|428:130|430:130|428:130|428:130|430:130|428:130|428:130|430:130|428:130|428:130|429:130|429:130|427:130|429:130|429:130|431:130|429:130|429:130|431:130|429:130|429:130|431:130|429:130|429:130|431:130|429:130|429:130|431:130|429:130|429:130|431:130|429:130|429:130|431:130|429:130|429:130|431:130|429:130|429:130|431:130|429:130|429:130|431:130|429:130|429:130|431:130|429:130|429:130|431:130|429:130|429:130|431:130|429:130|429:130|429:130|429:130|427:130|429:130,1,8178.75002846149,2|6,1:2|0:0,0:0:0:0:
115,160,82808,6,0,P|150:96|250:98,1,174.999994659424,2|0,0:0|1:0,0:0:0:0:
243,93,83546,1,0,0:0:0:0:
363,64,83792,6,0,P|330:128|314:234,1,174.999994659424,2|0,0:0|1:0,0:0:0:0:
313,228,84530,1,0,0:0:0:0:
245,341,84776,6,0,L|430:308,1,174.999994659424,2|0,0:0|1:0,0:0:0:0:
417,310,85513,1,0,0:0:0:0:
440,150,85759,6,0,P|350:159|313:240,1,174.999994659424,2|0,0:0|1:0,0:0:0:0:
312,227,86497,1,0,0:0:0:0:
240,349,86743,6,0,P|223:285|208:246,1,87.499997329712,2|0,1:2|0:0,0:0:0:0:
118,235,87235,1,8,0:0:0:0:
118,235,87480,1,8,0:0:0:0:
200,36,87726,6,0,P|183:100|168:139,1,87.499997329712,0|0,0:0|1:0,0:0:0:0:
87,157,88218,2,0,P|146:136|215:197,1,153.124995326996,10|0,0:0|0:0,0:0:0:0:
215,265,88710,5,2,3:2:0:0:
215,265,90185,2,0,P|290:245|330:242,1,93.75,2|0,0:0|0:0,0:0:0:0:
312,249,90431,6,0,P|319:223|313:203,1,31.25,2|0,0:0|0:0,0:0:0:0:
385,149,90554,2,0,P|367:128|347:121,1,31.25,2|0,0:0|0:0,0:0:0:0:
187,131,90677,6,0,P|115:177|140:292,1,212.500004053116,6|8,1:2|0:0,0:0:0:0:
227,345,91046,1,2,0:0:0:0:
373,262,91169,6,0,L|299:252,1,53.125001013279,2|0,1:2|0:0,0:0:0:0:
185,189,91292,2,0,L|195:115,1,53.125001013279,8|0,0:0|0:0,0:0:0:0:
262,45,91415,1,2,0:0:0:0:
471,170,91538,6,0,P|358:200|212:278,1,265.625005066395,6|0,1:2|0:0,0:0:0:0:
226,267,91907,1,0,0:0:0:0:
420,371,92030,2,0,L|430:305,1,53.125001013279,8|0,0:0|0:0,0:0:0:0:
470,90,92153,6,0,P|428:75|372:126,1,106.250002026558,4|4,0:3|0:3,0:0:0:0:
229,270,92399,2,0,P|271:285|327:234,1,106.250002026558,4|0,0:3|0:0,0:0:0:0:
370,187,92644,5,6,1:2:0:0:
355,179,92767,1,2,0:0:0:0:
262,45,92890,5,10,0:0:0:0:
245,52,93013,1,2,0:0:0:0:
72,159,93136,5,2,1:2:0:0:
155,220,93259,1,8,0:0:0:0:
194,115,93382,1,2,0:0:0:0:
91,81,93505,6,0,P|111:142|125:316,1,212.500004053116,6|8,1:2|0:0,0:0:0:0:
297,175,93874,5,2,0:0:0:0:
270,179,93935,1,0,0:0:0:0:
243,183,93997,1,8,0:0:0:0:
328,312,94120,6,0,P|290:272|228:291,1,106.250002026558,4|4,0:3|0:3,0:0:0:0:
197,352,94366,1,4,0:3:0:0:
197,352,94489,1,0,0:0:0:0:
373,221,94612,6,0,B|471:213|429:290|523:277,1,159.375003039837,6|0,1:2|0:0,0:0:0:0:
512,278,94858,2,0,P|462:288|393:316,1,106.250002026558,10|0,0:0|0:0,0:0:0:0:
451,80,95103,2,0,P|501:121|484:176,1,106.250002026558,2|8,1:2|0:0,0:0:0:0:
365,224,95349,6,0,L|304:206,1,53.125001013279,2|0,0:0|0:0,0:0:0:0:
307,202,95472,6,0,B|259:175|213:231|229:231|204:292|127:267|150:199|212:211,1,212.500004053116,6|8,1:2|0:0,0:0:0:0:
342,31,95841,2,0,P|324:85|353:143,1,106.250002026558,2|8,0:0|0:0,0:0:0:0:
267,310,96087,5,4,0:3:0:0:
125,161,96210,1,4,0:3:0:0:
267,310,96333,6,0,L|245:235,1,53.125001013279,4|0,0:3|0:0,0:0:0:0:
217,127,96456,2,0,L|195:52,1,53.125001013279
18,255,96579,6,0,B|-6:201|56:175|56:175|210:207,1,250,6|10,1:2|0:0,0:0:0:0:
252,259,96948,1,0,1:0:0:0:
68,75,97071,6,0,B|26:146|92:193|103:173|131:236|106:302,1,237.499993658066,8|2,0:0|1:2,0:0:0:0:
36,326,97440,1,0,1:0:0:0:
200,205,97562,6,0,B|261:218|261:218|313:304|224:366,1,224.999993133545,8|2,0:0|3:3,0:0:0:0:
155,358,97931,1,10,0:0:0:0:
255,264,98054,6,0,P|320:276|383:294,1,106.250002026558,4|4,0:3|0:3,0:0:0:0:
489,256,98300,5,4,1:3:0:0:
348,201,98423,1,0,0:0:0:0:
403,349,98546,6,0,P|437:317|421:188,1,174.999994659424,6|0,1:2|3:0,0:0:0:0:
430,197,98915,1,2,0:0:0:0:
414,97,99038,6,0,P|464:102|502:76,2,87.499997329712,10|0|2,1:2|0:0|3:2,0:0:0:0:
398,7,99407,2,0,B|314:25|348:87|249:95,1,174.999994659424,2|0,0:0|0:0,0:0:0:0:
253,94,99776,6,0,P|237:50|143:55,1,131.249995994568,0|0,3:0|0:0,0:0:0:0:
123,108,100021,5,10,1:2:0:0:
202,269,100144,2,0,P|218:173|258:89,1,174.999994659424,2|0,0:0|0:0,0:0:0:0:
125,185,100513,6,0,P|75:176|15:168,1,87.499997329712,2|2,1:2|0:0,0:0:0:0:
266,327,100759,2,0,P|316:318|376:310,1,87.499997329712,2|0,3:2|0:0,0:0:0:0:
172,381,101005,5,10,1:2:0:0:
202,269,101128,1,2,0:0:0:0:
123,261,101251,1,2,3:2:0:0:
94,383,101374,6,0,P|224:343|289:328,1,174.999994659424,2|0,0:0|0:0,0:0:0:0:
34,251,101743,2,0,P|85:265|153:270,1,87.499997329712,2|0,3:2|0:0,0:0:0:0:
333,379,101989,6,0,P|375:342|345:261,1,131.249995994568,8|0,1:2|0:0,0:0:0:0:
350,275,102235,6,0,L|365:218,1,43.749998664856,4|4,0:3|0:3,0:0:0:0:
382,149,102358,2,0,L|397:92,1,43.749998664856,4|4,0:3|0:3,0:0:0:0:
235,59,102480,6,0,P|219:117|272:160,1,131.249995994568,4|0,1:3|0:0,0:0:0:0:
279,159,102726,6,0,B|187:156|229:233|101:222,2,174.999994659424,2|10|2,3:2|1:2|3:2,0:0:0:0:
279,159,103341,1,2,0:0:0:0:
285,327,103464,6,0,P|275:271|262:218,1,87.499997329712,2|0,1:2|0:0,0:0:0:0:
203,132,103710,2,0,P|147:142|94:155,1,87.499997329712,2|0,3:2|0:0,0:0:0:0:
47,191,103956,1,10,1:2:0:0:
28,18,104079,5,8,0:0:0:0:
117,148,104202,1,8,0:0:0:0:
28,18,104325,1,8,0:0:0:0:
84,70,104448,6,0,P|126:60|169:53,1,87.499997329712,0|0,1:0|0:0,0:0:0:0:
242,24,104632,1,0,0:0:0:0:
241,13,104694,1,8,0:0:0:0:
344,64,104817,1,2,3:3:0:0:
284,169,104940,6,0,P|261:139|275:83,1,87.499997329712,4|4,0:3|0:3,0:0:0:0:
408,18,105185,1,4,0:3:0:0:
460,82,105308,1,0,0:0:0:0:
374,136,105431,5,8,0:0:0:0:
507,194,105554,2,0,P|465:206|426:226,1,87.499997329712,8|0,0:0|0:0,0:0:0:0:
351,218,105800,1,8,0:0:0:0:
436,316,105923,6,0,P|449:275|408:214,1,87.499997329712,2|8,0:0|0:0,0:0:0:0:
289,273,106169,1,2,1:2:0:0:
289,273,106292,1,2,0:0:0:0:
213,237,106415,5,6,1:2:0:0:
213,237,107276,2,0,L|204:291,2,43.749998664856,2|0|0,0:0|0:0|0:0,0:0:0:0:
213,237,108382,6,0,L|130:219,1,53.125001013279,2|0,1:2|0:0,0:0:0:0:
72,204,108505,2,0,L|-11:186,1,53.125001013279,2|0,1:2|0:0,0:0:0:0:
20,192,109243,6,0,B|80:182|80:182|150:228|99:326,1,212.500004053116,6|8,1:2|0:0,0:0:0:0:
257,354,109612,5,2,0:0:0:0:
273,326,109673,1,0,0:0:0:0:
260,296,109735,1,8,0:0:0:0:
158,119,109858,6,0,P|162:192|157:263,1,106.250002026558,4|4,0:3|0:3,0:0:0:0:
107,320,110103,1,4,0:3:0:0:
107,320,110226,1,0,0:0:0:0:
253,212,110349,6,0,P|338:212|409:193,1,159.375003039837,6|0,1:2|0:0,0:0:0:0:
415,187,110595,2,0,P|393:245|441:287,1,106.250002026558,10|0,0:0|0:0,0:0:0:0:
490,68,110841,2,0,P|431:81|379:91,1,106.250002026558,2|8,1:2|0:0,0:0:0:0:
207,46,111087,6,0,P|222:71|209:108,1,53.125001013279,2|0,0:0|0:0,0:0:0:0:
211,104,111210,6,0,B|170:127|173:165|173:165|243:209|217:285,1,212.500004053116,6|8,1:2|0:0,0:0:0:0:
75,366,111579,2,0,P|46:316|91:267,1,106.250002026558,2|8,0:0|0:0,0:0:0:0:
297,310,111825,5,4,0:3:0:0:
139,245,111948,1,4,0:3:0:0:
297,310,112071,6,0,L|374:289,1,53.125001013279,4|0,0:3|0:0,0:0:0:0:
459,267,112194,2,0,L|536:246,1,53.125001013279
371,111,112317,6,0,B|317:110|317:110|290:151|328:191|336:185|376:220|351:292,1,250,6|10,1:2|0:0,0:0:0:0:
416,341,112685,1,0,1:0:0:0:
486,142,112808,6,0,B|357:139|420:32|277:38,1,237.499993658066,8|2,0:0|1:2,0:0:0:0:
237,101,113177,1,0,1:0:0:0:
24,244,113300,6,0,B|83:229|90:161|90:161|95:229|164:241,1,224.999993133545,8|2,0:0|3:3,0:0:0:0:
213,176,113669,1,10,0:0:0:0:
164,15,113792,6,0,P|157:81|154:129,1,106.250002026558,4|4,0:3|0:3,0:0:0:0:
235,261,114038,5,4,1:3:0:0:
90,161,114161,1,0,0:0:0:0:
131,358,114284,6,0,P|215:312|357:311,1,215.625004112721,6|0,1:2|0:0,0:0:0:0:
339,312,114530,2,0,P|386:270|359:197,1,143.750002741814,2|0,0:0|0:0,0:0:0:0:
264,8,114776,6,0,B|232:148|232:148|265:162|293:199,1,215.625004112721,10|0,1:2|0:0,0:0:0:0:
289,200,115021,2,0,P|367:174|369:104,1,143.750002741814,2|0,0:0|0:0,0:0:0:0:
165,73,115267,6,0,L|386:123,1,215.625004112721,8|0,1:2|0:0,0:0:0:0:
375,120,115513,2,0,B|377:64|335:46|335:46|321:77|280:88,1,143.750002741814,0|0,1:0|0:0,0:0:0:0:
134,205,115759,6,0,B|140:190|123:173|123:173|110:192|132:210,1,71.8750013709069,8|0,1:2|0:0,0:0:0:0:
131,217,115882,2,0,P|158:104|184:49,2,143.750002741814,0|0|0,0:0|1:0|0:0,0:0:0:0:
21,346,116251,6,0,P|72:273|194:281,1,215.625004112721,10|0,1:2|0:0,0:0:0:0:
192,284,116497,2,0,B|112:293|147:228|39:246,1,143.750002741814,2|0,0:0|0:0,0:0:0:0:
54,49,116743,6,0,B|102:102|176:119|176:119|139:129|68:125,1,215.625004112721,10|0,1:2|0:0,0:0:0:0:
99,134,116989,2,0,P|83:58|124:6,1,143.750002741814,2|0,0:0|0:0,0:0:0:0:
308,100,117235,6,0,P|212:145|116:234,1,215.625004112721,8|0,1:2|0:0,0:0:0:0:
129,225,117480,2,0,P|192:263|241:222,1,143.750002741814,0|0,1:0|0:0,0:0:0:0:
324,17,117726,6,0,B|301:76|363:127|376:112|422:148|389:232,1,215.625004112721,8|0,1:2|0:0,0:0:0:0:
389,211,117972,6,0,P|371:194|390:207,1,71.8750013709069,4|4,0:3|0:3,0:0:0:0:
401,101,118095,2,0,P|418:117|399:104,1,71.8750013709069,4|4,0:3|0:3,0:0:0:0:
512,34,118218,6,0,P|408:62|308:100,1,215.625004112721,4|0,1:3|0:0,0:0:0:0:
248,36,118464,6,0,B|297:24|297:24|447:142|447:142|493:136,2,287.500005483627,2|10|2,0:0|1:2|0:0,0:0:0:0:
23,229,119202,6,0,B|176:181|176:181|204:204|231:206,1,215.625004112721,10|0,1:2|0:0,0:0:0:0:
233,209,119448,2,0,P|241:139|180:102,1,143.750002741814,2|2,1:2|0:0,0:0:0:0:
88,53,119694,6,0,L|69:134,1,71.8750013709069,8|0,1:2|0:0,0:0:0:0:
105,124,119817,2,0,L|86:205,1,71.8750013709069,8|0,0:0|0:0,0:0:0:0:
17,232,119940,2,0,L|-2:313,1,71.8750013709069,8|0,0:0|0:0,0:0:0:0:
119,315,120062,2,0,L|100:396,1,71.8750013709069,8|0,0:0|0:0,0:0:0:0:
232,312,120185,6,0,L|185:99,1,215.625004112721,0|0,1:0|0:0,0:0:0:0:
248,36,120431,5,10,0:0:0:0:
176,100,120554,1,2,0:0:0:0:
309,199,120677,5,4,0:3:0:0:
177,260,120800,1,4,0:3:0:0:
318,199,120923,5,4,0:3:0:0:
176,100,121046,1,2,0:0:0:0:
257,32,121169,5,8,0:0:0:0:
264,33,121251,1,10,0:0:0:0:
271,34,121333,1,2,0:0:0:0:
278,35,121415,1,2,0:0:0:0:
167,100,121538,5,2,1:2:0:0:
326,199,121661,1,2,1:2:0:0:
228,317,121784,1,8,0:0:0:0:
381,293,121907,6,0,L|307:281,1,75,10|0,0:0|0:0,0:0:0:0:
296,287,123464,5,0,1:0:0:0:
292,265,123546,1,0,1:0:0:0:
305,243,123628,1,0,1:0:0:0:
443,170,123792,5,0,1:0:0:0:
363,49,123956,5,0,1:0:0:0:
439,21,124120,6,0,P|390:78|373:132,2,125,6|0|0,1:2|1:2|1:2,0:0:0:0:
479,197,125595,1,2,1:2:0:0:
479,197,125841,1,2,0:0:0:0:
479,197,126087,2,0,P|407:232|366:262,1,125,0|0,1:0|1:0,0:0:0:0:
374,353,126824,1,2,0:0:0:0:
374,353,127070,2,0,P|302:318|261:288,1,125,2|0,1:2|1:2,0:0:0:0:
271,214,127808,1,2,0:0:0:0:
90,342,128054,6,0,P|68:281|14:259,2,125,0|0|0,1:0|1:0|1:0,0:0:0:0:
154,201,129529,1,2,1:2:0:0:
154,201,129775,1,2,0:0:0:0:
154,201,130021,2,0,P|169:136|193:74,1,125,0|0,1:0|1:0,0:0:0:0:
46,10,131005,2,0,P|31:75|7:137,1,125,2|0,1:2|1:0,0:0:0:0:
204,291,131988,6,0,L|150:284,3,50,6|0|0|0,0:2|0:0|0:0|0:0,0:0:0:0:
293,225,133956,6,0,L|239:218,3,50,2|0|0|0,0:0|0:0|0:0|0:0,0:0:0:0:
382,159,135923,6,0,L|328:152,3,50,2|0|0|0,0:0|0:0|0:0|0:0,0:0:0:0:
256,192,137890,12,0,139857,0:0:0:0:
