osu file format v14

[General]
AudioFilename: audio.mp3
AudioLeadIn: 0
PreviewTime: 51369
Countdown: 0
SampleSet: Soft
StackLeniency: 0.7
Mode: 2
LetterboxInBreaks: 0
WidescreenStoryboard: 1

[Editor]
Bookmarks: 7580,11272,14965,18657,20503,22349
DistanceSpacing: 1.8
BeatDivisor: 4
GridSize: 4
TimelineZoom: 1.2

[Metadata]
Title:Cinderella (TV Size)
TitleUnicode:シンデレラ (TV Size)
Artist:CIDER GIRL
ArtistUnicode:サイダーガール
Creator:rew0825
Version:Platter
Source:古見さんは、コミュ症です。
Tags:zerokt [ Azu- ] -Hex- CIDERGIRL Komisan Komi-san wa, Comyushou desu. Komi Can't Communicate Anime OP Opening Japanese Pop J-pop Jpop male vocal vocals Yurin Tomo 知 Fujimura フジムラ
BeatmapID:3303821
BeatmapSetID:1597421

[Difficulty]
HPDrainRate:4
CircleSize:3.4
OverallDifficulty:7.8
ApproachRate:7.8
SliderMultiplier:2.12
SliderTickRate:2

[Events]
//Background and Video events
0,0,"BG.jpeg",0,0
Video,0,"VDO.mp4"
//Break Periods
//Storyboard Layer 0 (Background)
//Storyboard Layer 1 (Fail)
//Storyboard Layer 2 (Pass)
//Storyboard Layer 3 (Foreground)
//Storyboard Layer 4 (Overlay)
//Storyboard Sound Samples

[TimingPoints]
198,461.538461538462,4,2,1,60,1,0
3717,-100,4,2,1,30,0,0
3890,-100,4,2,1,60,0,0
5736,-100,4,2,1,65,0,0
6659,-100,4,2,1,70,0,0
7351,-100,4,2,10,75,0,0
10121,-100,4,2,11,75,0,0
11274,-100,4,2,10,75,0,0
11505,-100,4,2,11,75,0,0
11736,-100,4,2,10,75,0,0
14159,-100,4,2,1,75,0,0
14967,-100,4,2,10,75,0,0
17505,-100,4,2,11,75,0,0
18658,-100,4,2,10,75,0,0
18889,-100,4,2,11,75,0,0
19120,-100,4,2,10,75,0,0
20736,-100,4,2,10,70,0,0
21659,-100,4,2,1,75,0,0
22351,-100,4,2,1,60,0,0
37121,-100,4,2,1,65,0,0
44505,-100,4,2,1,70,0,0
50044,-100,4,2,1,75,0,0
51428,-100,4,2,10,75,0,0
51890,-100,4,2,10,75,0,1
52582,-100,4,2,11,75,0,1
52813,-100,4,2,10,75,0,1
53505,-100,4,2,11,75,0,1
53736,-100,4,2,10,75,0,1
53967,-100,4,2,12,75,0,1
54198,-100,4,2,10,75,0,1
55121,-100,4,2,11,75,0,1
55582,-100,4,2,10,75,0,1
56505,-100,4,2,12,75,0,1
56851,-100,4,2,10,75,0,1
57659,-100,4,2,12,75,0,1
57890,-100,4,2,10,75,0,1
58121,-100,4,2,12,75,0,1
58351,-100,4,2,10,75,0,1
59967,-100,4,2,11,75,0,1
60198,-100,4,2,10,75,0,1
60890,-100,4,2,11,75,0,1
61121,-100,4,2,10,75,0,1
61351,-100,4,2,12,75,0,1
61582,-100,4,2,10,75,0,1
61813,-100,4,2,12,75,0,1
62044,-100,4,2,10,75,0,1
62505,-100,4,2,11,75,0,1
62967,-100,4,2,10,75,0,1
63313,-100,4,2,11,75,0,1
63659,-100,4,2,10,75,0,1
64351,-100,4,2,11,75,0,1
64582,-100,4,2,10,75,0,1
64928,-100,4,2,1,75,0,1
66198,-100,4,2,11,75,0,1
66659,-100,4,2,10,75,0,1
67351,-100,4,2,11,75,0,1
67582,-100,4,2,10,75,0,1
68274,-100,4,2,11,75,0,1
68505,-100,4,2,10,75,0,1
68736,-100,4,2,12,75,0,1
68967,-100,4,2,10,75,0,1
69198,-100,4,2,12,75,0,1
69428,-100,4,2,10,75,0,1
69890,-100,4,2,11,75,0,1
70351,-100,4,2,10,75,0,1
71274,-100,4,2,12,75,0,1
71621,-100,4,2,10,75,0,1
72890,-100,4,2,12,75,0,1
73121,-100,4,2,10,75,0,1
74736,-100,4,2,11,75,0,1
74967,-100,4,2,10,75,0,1
75659,-100,4,2,11,75,0,1
75890,-100,4,2,10,75,0,1
76121,-100,4,2,12,75,0,1
76351,-100,4,2,10,75,0,1
76582,-100,4,2,12,75,0,1
76813,-100,4,2,10,75,0,1
77274,-100,4,2,11,75,0,1
77736,-100,4,2,10,75,0,1
78082,-100,4,2,11,75,0,1
78428,-100,4,2,10,75,0,1
78659,-100,4,2,12,75,0,1
78890,-100,4,2,10,75,0,1
79121,-100,4,2,10,75,0,1
79351,-100,4,2,1,75,0,1
79582,-100,4,2,10,75,0,1
79698,-100,4,2,1,75,0,1
81198,-100,4,2,10,75,0,1
81428,-100,4,2,10,75,0,0
83967,-100,4,2,11,75,0,0
85121,-100,4,2,10,75,0,0
85351,-100,4,2,11,75,0,0
85582,-100,4,2,10,75,0,0
87544,-100,4,2,10,55,0,0
87659,-100,4,2,10,75,0,0

[Colours]
Combo1 : 196,196,196
Combo2 : 183,53,225
Combo3 : 232,116,241
Combo4 : 89,103,227
Combo5 : 100,215,221

[HitObjects]
96,330,198,6,0,P|49:289|103:231,1,159,2|0,1:2|1:2,0:0:0:0:
261,230,890,1,2,1:2:0:0:
462,230,1121,2,0,P|445:166|361:136,1,159,2|0,0:0|3:2,0:0:0:0:
205,135,1813,1,10,2:3:0:0:
406,135,2044,5,2,1:2:0:0:
464,235,2274,1,2,0:0:0:0:
400,333,2505,1,2,0:0:0:0:
283,333,2736,1,2,1:2:0:0:
81,333,2967,2,0,P|18:282|97:213,1,212,2|2,0:0|0:0,0:0:0:0:
211,212,3659,1,2,0:0:0:0:
412,212,3890,6,0,L|235:212,2,159,0|2|2,1:2|1:2|1:2,0:0:0:0:
210,212,4813,1,2,0:0:0:0:
93,212,5044,1,2,0:0:0:0:
66,166,5159,1,0,3:2:0:0:
93,121,5274,1,2,0:0:0:0:
209,121,5505,1,8,2:3:0:0:
410,121,5736,6,0,L|413:226,1,106,2|2,1:2|0:0,0:0:0:0:
354,226,6082,1,2,0:0:0:0:
290,226,6198,2,0,L|288:343,1,106,2|2,0:0|0:0,0:0:0:0:
346,331,6544,1,2,0:0:0:0:
462,331,6659,5,0,1:2:0:0:
475,274,6774,1,4,2:3:0:0:
445,223,6890,1,0,1:2:0:0:
388,208,7005,1,4,2:3:0:0:
270,208,7121,2,0,L|148:207,1,106,4|2,1:1|2:3,0:0:0:0:
461,207,7582,6,0,L|463:101,1,106,6|2,1:2|2:1,0:0:0:0:
260,101,8044,2,0,L|258:211,1,106,2|2,3:2|2:1,0:0:0:0:
316,206,8390,1,2,2:3:0:0:
374,206,8505,2,0,L|376:318,1,106,2|2,1:2|2:1,0:0:0:0:
183,311,8967,2,0,L|181:206,1,106,2|2,3:2|2:1,0:0:0:0:
372,205,9428,6,0,L|376:97,1,106,2|2,1:2|2:1,0:0:0:0:
317,99,9774,1,2,2:3:0:0:
288,150,9890,1,2,3:1:0:0:
321,99,10005,1,2,2:3:0:0:
379,99,10121,1,2,2:3:0:0:
174,99,10351,5,2,1:3:0:0:
145,150,10467,1,2,2:1:0:0:
174,199,10582,1,2,2:0:0:0:
290,199,10813,2,0,L|399:198,1,106,2|2,3:1|2:3,0:0:0:0:
98,198,11274,6,0,L|97:317,1,106,2|2,1:3|2:3,0:0:0:0:
214,303,11736,1,2,3:3:0:0:
97,303,11967,1,2,2:1:0:0:
288,304,12198,2,0,L|400:303,1,106,2|2,1:2|2:1,0:0:0:0:
203,303,12659,2,0,L|96:301,1,106,2|2,3:3|2:1,0:0:0:0:
300,300,13121,6,0,P|375:280|372:163,1,212,2|0,1:2|3:0,0:0:0:0:
255,163,13813,1,2,2:3:0:0:
446,163,14044,2,0,L|449:108,1,53,2|0,1:1|3:0,0:0:0:0:
259,110,14390,2,0,L|255:47,1,53,2|0,3:2|1:2,0:0:0:0:
372,57,14736,1,2,3:2:0:0:
74,57,14967,6,0,L|71:166,1,106,6|2,1:2|2:1,0:0:0:0:
272,162,15428,2,0,L|274:282,1,106,2|2,3:2|2:1,0:0:0:0:
215,267,15774,1,2,2:3:0:0:
156,267,15890,2,0,L|265:267,1,106,2|2,1:2|2:1,0:0:0:0:
452,267,16351,2,0,L|455:160,1,106,2|2,3:2|2:1,0:0:0:0:
263,161,16813,5,2,1:2:0:0:
146,161,17044,1,2,2:1:0:0:
204,161,17159,1,2,2:3:0:0:
233,110,17274,1,2,3:1:0:0:
202,59,17390,1,2,2:3:0:0:
144,58,17505,1,2,2:3:0:0:
345,58,17736,5,2,1:3:0:0:
375,107,17851,1,2,2:1:0:0:
342,155,17967,1,2,2:0:0:0:
225,155,18198,2,0,L|105:153,1,106,2|2,3:1|2:3,0:0:0:0:
426,153,18659,6,0,L|428:271,1,106,2|2,1:3|2:3,0:0:0:0:
310,258,19121,1,2,3:3:0:0:
426,258,19351,1,2,2:1:0:0:
235,258,19582,2,0,L|115:258,1,106,2|2,1:2|2:1,0:0:0:0:
320,258,20044,2,0,L|437:258,1,106,2|2,3:3|2:1,0:0:0:0:
118,258,20505,5,2,1:3:0:0:
234,258,20736,1,2,1:3:0:0:
294,158,20967,1,2,1:3:0:0:
234,258,21198,1,2,1:3:0:0:
44,258,21428,2,0,P|39:206|121:156,1,159,2|0,1:3|1:2,0:0:0:0:
233,156,21890,2,0,L|341:157,1,106,0|2,3:2|0:0,0:0:0:0:
31,156,22351,6,0,L|28:266,1,106,6|2,1:2|0:0,0:0:0:0:
145,261,22813,2,0,P|243:247|323:168,2,212,2|2|0,1:2|1:2|1:2,0:0:0:0:
28,261,23967,1,2,0:0:0:0:
229,261,24198,5,0,1:2:0:0:
304,172,24428,1,2,0:0:0:0:
243,72,24659,1,2,1:2:0:0:
127,55,24890,1,0,0:0:0:0:
243,72,25121,2,0,L|472:72,1,212,2|2,1:2|1:2,0:0:0:0:
338,72,25813,1,0,0:0:0:0:
136,72,26044,6,0,L|132:182,1,106,2|2,1:2|0:0,0:0:0:0:
248,177,26505,2,0,L|35:148,2,212,2|2|0,1:2|1:2|1:2,0:0:0:0:
364,177,27659,1,2,0:0:0:0:
162,177,27890,6,0,P|86:194|57:314,1,212,2|0,1:2|1:2,0:0:0:0:
172,312,28582,1,2,0:0:0:0:
371,311,28813,2,0,P|377:235|269:178,1,212,2|0,1:2|1:2,0:0:0:0:
152,177,29505,1,2,0:0:0:0:
353,177,29736,6,0,P|428:153|386:53,1,212,2|0,1:2|1:2,0:0:0:0:
269,54,30428,1,2,0:0:0:0:
152,54,30659,2,0,P|185:149|284:171,1,212,2|0,1:2|1:2,0:0:0:0:
401,171,31351,1,2,0:0:0:0:
199,171,31582,6,0,P|125:176|93:294,1,212,2|0,1:2|1:2,0:0:0:0:
209,293,32274,1,2,0:0:0:0:
410,293,32505,2,0,P|472:243|394:172,1,212,2|0,1:2|1:2,0:0:0:0:
288,175,33198,1,2,0:0:0:0:
87,175,33428,6,0,P|19:123|93:57,1,212,2|0,1:2|1:2,0:0:0:0:
210,57,34121,1,2,0:0:0:0:
326,57,34351,2,0,P|320:124|198:179,1,212,2|0,1:2|1:2,0:0:0:0:
83,182,35044,1,2,0:0:0:0:
378,182,35274,6,0,L|429:280,1,106,4|4,3:3|3:3,0:0:0:0:
309,276,35736,2,0,P|225:271|188:162,1,212,2|2,0:0|0:0,0:0:0:0:
293,162,36428,1,0,1:2:0:0:
494,162,36659,2,0,L|388:163,1,106,2|2,3:2|0:0,0:0:0:0:
66,152,37121,6,0,P|32:214|125:290,1,212,6|2,1:2|3:2,0:0:0:0:
395,290,37928,1,2,0:0:0:0:
454,289,38044,2,0,L|455:180,1,106,10|2,2:1|1:2,0:0:0:0:
338,183,38505,1,2,3:2:0:0:
454,183,38736,1,2,0:0:0:0:
252,183,38967,5,2,1:2:0:0:
158,253,39198,1,2,0:0:0:0:
200,361,39428,1,2,3:2:0:0:
316,354,39659,1,2,0:0:0:0:
114,354,39890,2,0,L|110:245,1,106,10|2,2:1|1:2,0:0:0:0:
226,248,40351,1,2,3:2:0:0:
109,248,40582,1,2,0:0:0:0:
310,248,40813,6,0,P|404:216|384:122,1,212,2|2,1:2|3:2,0:0:0:0:
113,120,41621,1,2,0:0:0:0:
55,121,41736,2,0,L|51:233,1,106,10|2,2:1|1:2,0:0:0:0:
168,226,42198,1,2,3:2:0:0:
51,226,42428,1,2,0:0:0:0:
252,226,42659,5,2,1:2:0:0:
344,155,42890,1,2,0:0:0:0:
312,42,43121,1,2,3:2:0:0:
196,32,43351,1,2,0:0:0:0:
397,32,43582,2,0,L|400:142,1,106,10|0,2:1|1:2,0:0:0:0:
282,137,44044,1,2,3:2:0:0:
340,137,44159,1,0,1:2:0:0:
398,137,44274,1,2,3:2:0:0:
90,137,44505,6,0,P|87:217|196:273,1,212,6|2,1:2|3:2,0:0:0:0:
309,273,45198,1,8,2:1:0:0:
108,273,45428,2,0,L|106:166,1,106,2|8,1:2|2:1,0:0:0:0:
223,167,45890,1,2,3:2:0:0:
106,167,46121,1,8,2:1:0:0:
164,167,46236,1,8,2:1:0:0:
280,167,46351,6,0,P|345:214|271:286,1,212,2|0,1:2|3:2,0:0:0:0:
152,285,47044,1,10,2:1:0:0:
342,285,47274,2,0,L|347:146,1,106,2|8,1:2|2:1,0:0:0:0:
153,179,47736,2,0,L|39:177,1,106,2|4,3:2|2:1,0:0:0:0:
356,177,48198,5,2,1:2:0:0:
470,155,48428,1,0,1:2:0:0:
449,40,48659,1,0,1:2:0:0:
332,33,48890,1,0,1:2:0:0:
459,40,49121,1,0,1:2:0:0:
342,33,49351,1,0,1:2:0:0:
140,33,49582,1,2,1:2:0:0:
23,33,49813,1,2,0:0:0:0:
320,33,50044,5,2,3:2:0:0:
425,33,50274,1,2,3:2:0:0:
234,33,50505,1,2,3:2:0:0:
117,33,50736,1,2,3:2:0:0:
414,36,50967,2,0,P|435:76|412:134,1,106,2|8,3:2|2:1,0:0:0:0:
224,130,51428,2,0,L|99:130,1,106,10|2,2:2|0:1,0:0:0:0:
437,127,51890,6,0,L|441:248,1,106,6|8,1:3|2:1,0:0:0:0:
323,232,52351,1,0,3:2:0:0:
439,232,52582,1,10,2:1:0:0:
237,232,52813,2,0,L|232:116,1,106,2|8,1:3|2:1,0:0:0:0:
349,126,53274,2,0,L|461:121,1,106,0|10,3:2|2:3,0:0:0:0:
157,121,53736,5,2,1:1:0:0:
59,192,53967,1,10,2:2:0:0:
92,309,54198,1,2,3:1:0:0:
208,307,54428,1,8,2:1:0:0:
409,307,54659,2,0,L|410:202,1,106,2|8,1:3|2:1,0:0:0:0:
292,201,55121,1,2,3:1:0:0:
408,201,55351,1,10,1:3:0:0:
110,201,55582,6,0,P|66:154|118:91,1,159,2|2,1:3|0:1,0:0:0:0:
291,91,56274,1,10,2:2:0:0:
89,91,56505,2,0,L|261:91,2,159,2|2|10,1:2|0:1|2:2,0:0:0:0:
386,91,57428,6,0,L|389:197,1,106,2|10,1:2|2:1,0:0:0:0:
271,196,57890,1,2,3:2:0:0:
387,196,58121,1,10,2:1:0:0:
186,196,58351,2,0,L|183:311,1,106,2|8,1:2|2:1,0:0:0:0:
385,301,58813,2,0,L|499:297,1,106,2|8,3:1|1:1,0:0:0:0:
183,297,59274,5,6,1:3:0:0:
112,212,59505,1,8,2:1:0:0:
172,116,59736,1,0,3:2:0:0:
291,110,59967,1,10,2:1:0:0:
232,110,60082,1,2,2:3:0:0:
110,110,60198,2,0,L|106:233,1,106,2|8,1:3|2:1,0:0:0:0:
223,215,60659,1,0,3:2:0:0:
106,215,60890,1,14,2:1:0:0:
403,215,61121,6,0,L|407:102,1,106,2|10,1:1|2:2,0:0:0:0:
290,109,61582,2,0,L|285:224,1,106,2|10,3:1|2:2,0:0:0:0:
61,214,62044,2,0,L|57:329,1,106,2|8,1:3|2:1,0:0:0:0:
174,319,62505,1,2,3:1:0:0:
57,319,62736,1,10,1:3:0:0:
354,319,62967,6,0,P|397:265|341:211,1,159,2|2,1:3|0:1,0:0:0:0:
168,211,63659,1,10,2:2:0:0:
369,211,63890,1,2,1:1:0:0:
469,150,64121,1,10,2:3:0:0:
455,36,64351,1,2,3:3:0:0:
338,32,64582,1,10,2:3:0:0:
40,32,64813,5,2,1:3:0:0:
33,89,64928,1,2,0:0:0:0:
54,143,65044,1,10,2:1:0:0:
107,165,65159,1,2,0:0:0:0:
165,165,65274,1,2,3:2:0:0:
281,165,65505,5,10,2:1:0:0:
284,223,65621,1,10,2:1:0:0:
167,223,65736,1,2,3:2:0:0:
108,223,65851,2,2,L|227:224,1,106,2|2,3:2|3:2,0:0:0:0:
332,223,66198,2,0,L|458:224,1,106,2|2,1:1|3:3,0:0:0:0:
142,223,66659,5,6,1:3:0:0:
35,223,66890,1,8,2:1:0:0:
142,223,67121,1,0,3:2:0:0:
263,223,67351,1,10,2:1:0:0:
266,164,67467,1,10,2:3:0:0:
144,164,67582,1,2,1:3:0:0:
31,196,67813,1,8,2:1:0:0:
51,312,68044,1,0,3:2:0:0:
167,315,68274,1,14,2:1:0:0:
464,315,68505,6,0,L|468:205,1,106,2|10,1:1|2:2,0:0:0:0:
350,209,68967,1,2,3:1:0:0:
466,209,69198,1,10,2:2:0:0:
265,209,69428,2,0,L|260:100,1,106,2|8,1:3|2:1,0:0:0:0:
377,103,69890,2,0,L|497:100,1,106,2|10,3:1|1:3,0:0:0:0:
185,100,70351,6,0,L|25:99,2,159,2|2|10,1:3|0:1|2:2,0:0:0:0:
386,100,71274,2,0,L|202:98,2,159,2|2|10,1:2|0:1|2:2,0:0:0:0:
87,100,72198,6,0,L|85:215,1,106,2|8,1:2|2:1,0:0:0:0:
201,205,72659,1,2,3:2:0:0:
84,205,72890,1,10,2:1:0:0:
274,205,73121,2,0,L|407:205,1,106,2|8,1:2|2:1,0:0:0:0:
189,205,73582,2,0,L|74:205,1,106,2|8,3:1|1:1,0:0:0:0:
381,205,74044,6,0,L|385:98,1,106,6|8,1:3|2:1,0:0:0:0:
268,99,74505,1,0,3:2:0:0:
384,99,74736,1,10,2:1:0:0:
182,99,74967,1,2,1:3:0:0:
70,133,75198,1,8,2:1:0:0:
31,242,75428,1,0,3:2:0:0:
102,334,75659,1,14,2:1:0:0:
399,334,75890,6,0,L|402:220,1,106,2|10,1:1|2:2,0:0:0:0:
285,228,76351,1,2,3:1:0:0:
401,228,76582,1,10,2:2:0:0:
189,228,76813,2,0,L|187:118,1,106,2|8,1:3|2:1,0:0:0:0:
303,122,77274,1,2,3:1:0:0:
186,122,77505,1,10,1:3:0:0:
483,122,77736,6,0,L|308:122,2,159,2|2|10,1:3|0:1|2:2,0:0:0:0:
292,122,78659,2,0,L|160:123,1,106,2|10,1:1|2:2,0:0:0:0:
377,122,79121,2,0,L|485:122,1,106,2|12,3:1|2:1,0:0:0:0:
185,122,79582,5,2,1:3:0:0:
136,227,79813,1,10,1:1:0:0:
205,321,80044,1,2,1:2:0:0:
321,317,80274,1,10,1:1:0:0:
130,317,80505,2,0,L|128:206,1,106,2|8,1:2|2:1,0:0:0:0:
319,211,80967,2,0,L|467:208,1,106,2|2,3:2|2:3,0:0:0:0:
127,208,81428,6,0,L|123:95,1,106,6|2,1:2|2:1,0:0:0:0:
325,102,81890,2,0,L|327:215,1,106,2|2,3:2|2:1,0:0:0:0:
268,207,82236,1,2,2:3:0:0:
209,207,82351,2,0,L|206:319,1,106,2|2,1:2|2:1,0:0:0:0:
408,312,82813,2,0,L|410:197,1,106,2|2,3:2|2:1,0:0:0:0:
218,206,83274,5,2,1:2:0:0:
334,206,83505,1,2,2:1:0:0:
391,195,83621,1,2,2:3:0:0:
413,141,83736,1,2,3:1:0:0:
385,89,83851,1,2,2:3:0:0:
327,80,83967,1,2,2:3:0:0:
125,80,84198,5,2,1:3:0:0:
100,132,84313,1,2,2:1:0:0:
125,80,84428,1,2,2:0:0:0:
241,80,84659,1,2,3:1:0:0:
125,80,84890,1,2,2:3:0:0:
422,80,85121,6,0,L|425:193,1,106,2|2,1:3|2:3,0:0:0:0:
308,185,85582,1,2,3:3:0:0:
424,185,85813,1,2,2:1:0:0:
233,185,86044,2,0,L|105:185,1,106,2|2,1:2|2:1,0:0:0:0:
317,185,86505,2,0,L|446:184,1,106,2|2,3:3|2:1,0:0:0:0:
103,185,86967,5,2,1:3:0:0:
219,185,87198,1,0,1:2:0:0:
276,83,87428,1,0,1:2:0:0:
212,180,87659,1,0,1:2:0:0:
84,180,87890,1,2,3:3:0:0:
381,180,88121,5,2,3:3:0:0:
