osu file format v14

[General]
AudioFilename: audio.mp3
AudioLeadIn: 0
PreviewTime: 51369
Countdown: 0
SampleSet: Soft
StackLeniency: 0.7
Mode: 2
LetterboxInBreaks: 0
WidescreenStoryboard: 1

[Editor]
Bookmarks: 39196,40119
DistanceSpacing: 1.2
BeatDivisor: 8
GridSize: 4
TimelineZoom: 1.7

[Metadata]
Title:Cinderella (TV Size)
TitleUnicode:シンデレラ (TV Size)
Artist:CIDER GIRL
ArtistUnicode:サイダーガール
Creator:rew0825
Version:Hex's Rain
Source:古見さんは、コミュ症です。
Tags:zerokt [ Azu- ] -Hex- CIDERGIRL Komisan Komi-san wa, Comyushou desu. Komi Can't Communicate Anime OP Opening Japanese Pop J-pop Jpop male vocal vocals Yurin Tomo 知 Fujimura フジムラ
BeatmapID:3297870
BeatmapSetID:1597421

[Difficulty]
HPDrainRate:5
CircleSize:3.8
OverallDifficulty:8.8
ApproachRate:8.8
SliderMultiplier:2.40000000000001
SliderTickRate:2

[Events]
//Background and Video events
0,0,"BG.jpeg",0,0
Video,0,"VDO.mp4"
//Break Periods
//Storyboard Layer 0 (Background)
//Storyboard Layer 1 (Fail)
//Storyboard Layer 2 (Pass)
//Storyboard Layer 3 (Foreground)
//Storyboard Layer 4 (Overlay)
//Storyboard Sound Samples

[TimingPoints]
198,461.538461538462,4,2,1,60,1,0
3717,-100,4,2,1,30,0,0
3890,-100,4,2,1,60,0,0
5736,-100,4,2,1,65,0,0
6659,-100,4,2,1,70,0,0
7351,-100,4,2,10,75,0,0
10121,-100,4,2,11,75,0,0
11274,-100,4,2,10,75,0,0
11505,-100,4,2,11,75,0,0
11736,-100,4,2,10,75,0,0
14159,-100,4,2,1,75,0,0
14967,-100,4,2,10,75,0,0
17505,-100,4,2,11,75,0,0
18658,-100,4,2,10,75,0,0
18889,-100,4,2,11,75,0,0
19120,-100,4,2,10,75,0,0
20736,-100,4,2,10,70,0,0
21659,-100,4,2,1,75,0,0
22351,-100,4,2,1,60,0,0
37121,-100,4,2,1,65,0,0
44505,-100,4,2,1,70,0,0
50044,-100,4,2,1,75,0,0
51428,-100,4,2,10,75,0,0
51890,-90.9090909090909,4,2,10,75,0,1
52582,-90.9090909090909,4,2,11,75,0,1
52813,-90.9090909090909,4,2,10,75,0,1
53505,-90.9090909090909,4,2,11,75,0,1
53736,-90.9090909090909,4,2,10,75,0,1
53967,-90.9090909090909,4,2,12,75,0,1
54198,-90.9090909090909,4,2,10,75,0,1
55121,-90.9090909090909,4,2,11,75,0,1
55582,-90.9090909090909,4,2,10,75,0,1
56505,-90.9090909090909,4,2,12,75,0,1
56851,-90.9090909090909,4,2,10,75,0,1
57659,-90.9090909090909,4,2,12,75,0,1
57890,-90.9090909090909,4,2,10,75,0,1
58121,-90.9090909090909,4,2,12,75,0,1
58351,-90.9090909090909,4,2,10,75,0,1
59967,-90.9090909090909,4,2,11,75,0,1
60198,-90.9090909090909,4,2,10,75,0,1
60890,-90.9090909090909,4,2,11,75,0,1
61121,-90.9090909090909,4,2,10,75,0,1
61351,-90.9090909090909,4,2,12,75,0,1
61582,-90.9090909090909,4,2,10,75,0,1
61813,-90.9090909090909,4,2,12,75,0,1
62044,-90.9090909090909,4,2,10,75,0,1
62505,-90.9090909090909,4,2,11,75,0,1
62967,-90.9090909090909,4,2,10,75,0,1
63313,-90.9090909090909,4,2,11,75,0,1
63659,-90.9090909090909,4,2,10,75,0,1
64351,-90.9090909090909,4,2,11,75,0,1
64582,-90.9090909090909,4,2,10,75,0,1
64928,-90.9090909090909,4,2,1,75,0,1
66198,-90.9090909090909,4,2,11,75,0,1
66659,-90.9090909090909,4,2,10,75,0,1
67351,-90.9090909090909,4,2,11,75,0,1
67582,-90.9090909090909,4,2,10,75,0,1
68274,-90.9090909090909,4,2,11,75,0,1
68505,-90.9090909090909,4,2,10,75,0,1
68736,-90.9090909090909,4,2,12,75,0,1
68967,-90.9090909090909,4,2,10,75,0,1
69198,-90.9090909090909,4,2,12,75,0,1
69428,-90.9090909090909,4,2,10,75,0,1
69890,-90.9090909090909,4,2,11,75,0,1
70351,-90.9090909090909,4,2,10,75,0,1
71274,-90.9090909090909,4,2,12,75,0,1
71621,-90.9090909090909,4,2,10,75,0,1
72890,-90.9090909090909,4,2,12,75,0,1
73121,-90.9090909090909,4,2,10,75,0,1
74736,-90.9090909090909,4,2,11,75,0,1
74967,-90.9090909090909,4,2,10,75,0,1
75659,-90.9090909090909,4,2,11,75,0,1
75890,-90.9090909090909,4,2,10,75,0,1
76121,-90.9090909090909,4,2,12,75,0,1
76351,-90.9090909090909,4,2,10,75,0,1
76582,-90.9090909090909,4,2,12,75,0,1
76813,-90.9090909090909,4,2,10,75,0,1
77274,-90.9090909090909,4,2,11,75,0,1
77736,-90.9090909090909,4,2,10,75,0,1
78082,-90.9090909090909,4,2,11,75,0,1
78428,-90.9090909090909,4,2,10,75,0,1
78659,-90.9090909090909,4,2,12,75,0,1
78890,-90.9090909090909,4,2,10,75,0,1
79121,-90.9090909090909,4,2,10,75,0,1
79351,-90.9090909090909,4,2,1,75,0,1
79582,-90.9090909090909,4,2,10,75,0,1
79698,-90.9090909090909,4,2,1,75,0,1
81198,-90.9090909090909,4,2,10,75,0,1
81428,-100,4,2,10,75,0,0
83967,-100,4,2,11,75,0,0
85121,-100,4,2,10,75,0,0
85351,-100,4,2,11,75,0,0
85582,-100,4,2,10,75,0,0
87544,-100,4,2,10,55,0,0
87659,-100,4,2,10,75,0,0

[Colours]
Combo1 : 196,196,196
Combo2 : 183,53,225
Combo3 : 232,116,241
Combo4 : 89,103,227
Combo5 : 100,215,221

[HitObjects]
209,281,198,6,0,L|31:206,2,180,2|0|2,1:2|1:2|1:2,0:0:0:0:
415,285,1121,2,0,P|469:244|403:177,1,180.000000000001,2|0,0:0|3:2,0:0:0:0:
229,153,1813,2,0,L|224:76,1,60.0000000000003,10|6,2:3|2:3,0:0:0:0:
358,33,2044,6,0,L|481:33,1,120.000000000001,2|2,1:2|0:0,0:0:0:0:
417,91,2390,1,0,1:2:0:0:
285,113,2505,2,0,L|146:109,1,120.000000000001,2|2,0:0|1:2,0:0:0:0:
370,281,2967,2,0,P|398:223|349:192,1,120.000000000001,2|0,0:0|0:0,0:0:0:0:
295,190,3313,1,0,3:2:0:0:
228,189,3428,1,2,0:0:0:0:
431,26,3659,1,2,0:0:0:0:
227,322,3890,6,0,L|21:307,1,180.000000000001,0|2,1:2|1:2,0:0:0:0:
129,244,4351,1,0,0:0:0:0:
336,104,4582,1,2,1:2:0:0:
131,212,4813,2,0,L|120:81,1,120.000000000001,2|2,0:0|0:0,0:0:0:0:
187,79,5159,1,0,3:2:0:0:
333,14,5274,2,0,L|190:17,1,120.000000000001,2|8,0:0|2:3,0:0:0:0:
291,77,5621,1,4,2:3:0:0:
483,78,5736,5,2,1:2:0:0:
485,137,5851,1,2,0:0:0:0:
458,189,5967,1,2,0:0:0:0:
392,190,6082,1,2,0:0:0:0:
259,192,6198,1,2,0:0:0:0:
254,250,6313,1,2,0:0:0:0:
282,303,6428,1,2,0:0:0:0:
347,305,6544,1,2,0:0:0:0:
155,319,6659,5,0,1:2:0:0:
115,292,6736,1,4,2:3:0:0:
101,247,6813,1,4,2:3:0:0:
121,204,6890,1,0,1:2:0:0:
200,183,7005,1,4,2:3:0:0:
391,177,7121,2,0,L|390:317,1,120.000000000001,4|2,1:1|2:3,0:0:0:0:
324,301,7467,1,2,2:1:0:0:
97,340,7582,6,0,P|64:283|122:247,1,120.000000000001,6|2,1:2|2:1,0:0:0:0:
157,246,7928,1,2,2:3:0:0:
351,233,8044,2,0,L|211:233,1,120.000000000001,2|2,3:2|2:1,0:0:0:0:
164,234,8390,1,2,2:3:0:0:
355,151,8505,6,0,L|362:23,1,120.000000000001,2|2,1:2|2:1,0:0:0:0:
301,27,8851,1,2,2:3:0:0:
167,24,8967,2,0,L|37:24,1,120.000000000001,2|2,3:2|2:1,0:0:0:0:
109,85,9313,1,2,2:3:0:0:
301,126,9428,6,0,L|440:128,1,120.000000000001,2|2,1:2|2:1,0:0:0:0:
359,198,9774,1,2,2:3:0:0:
226,219,9890,2,0,L|217:310,1,60.0000000000003,2|2,3:1|2:3,0:0:0:0:
300,276,10121,2,0,L|305:351,1,60.0000000000003,2|2,2:3|2:1,0:0:0:0:
112,337,10351,5,2,1:3:0:0:
39,336,10467,1,2,2:1:0:0:
112,337,10582,1,2,2:0:0:0:
315,145,10813,1,2,3:1:0:0:
248,148,10928,1,0,0:0:0:0:
181,150,11044,1,2,2:3:0:0:
493,14,11274,6,0,L|494:147,1,120.000000000001,2|2,1:3|2:3,0:0:0:0:
433,130,11621,1,0,0:0:0:0:
300,264,11736,2,0,L|430:264,1,120.000000000001,2|2,3:3|2:1,0:0:0:0:
480,263,12082,1,0,0:0:0:0:
287,177,12198,6,0,L|136:179,1,120.000000000001,2|2,1:2|2:1,0:0:0:0:
371,66,12659,2,0,L|378:214,1,120.000000000001,2|2,3:3|2:1,0:0:0:0:
64,342,13121,6,0,L|184:341,2,120.000000000001,2|0|0,1:2|0:0|3:0,0:0:0:0:
264,235,13813,2,0,L|266:164,1,60.0000000000003,2|0,2:3|0:0,0:0:0:0:
72,67,14044,5,2,1:1:0:0:
5,15,14159,2,0,L|157:16,1,120.000000000001,0|2,3:0|3:2,0:0:0:0:
318,154,14505,1,0,1:2:0:0:
396,155,14621,1,2,0:0:0:0:
318,154,14736,1,2,3:2:0:0:
240,151,14851,1,2,3:2:0:0:
470,339,14967,6,0,L|475:215,1,120.000000000001,6|2,1:2|2:1,0:0:0:0:
415,211,15313,1,2,2:3:0:0:
222,71,15428,2,0,L|363:70,1,120.000000000001,2|2,3:2|2:1,0:0:0:0:
405,66,15774,1,2,2:3:0:0:
212,201,15890,6,0,L|57:200,1,120.000000000001,2|2,1:2|2:1,0:0:0:0:
152,129,16236,1,2,2:3:0:0:
286,126,16351,2,0,L|290:-6,1,120.000000000001,2|2,3:2|2:1,0:0:0:0:
215,7,16698,1,2,2:3:0:0:
414,15,16813,6,0,P|454:70|413:110,1,120.000000000001,2|2,1:2|2:1,0:0:0:0:
368,104,17159,1,2,2:3:0:0:
236,293,17274,2,0,L|308:292,1,60.0000000000003,2|2,3:1|2:3,0:0:0:0:
368,214,17505,2,0,L|295:214,1,60.0000000000003,2|2,2:3|2:1,0:0:0:0:
121,210,17736,5,2,1:3:0:0:
48,207,17851,1,2,2:1:0:0:
121,210,17967,1,2,2:0:0:0:
327,85,18198,1,2,3:1:0:0:
400,82,18313,1,0,0:0:0:0:
327,85,18428,1,2,2:3:0:0:
27,28,18659,6,0,L|24:152,1,120.000000000001,2|2,1:3|2:3,0:0:0:0:
91,146,19005,1,0,0:0:0:0:
224,139,19121,2,0,L|376:138,1,120.000000000001,2|2,3:3|2:1,0:0:0:0:
418,138,19467,1,0,0:0:0:0:
220,340,19582,6,0,L|211:210,1,120.000000000001,2|2,1:2|2:1,0:0:0:0:
393,139,20044,1,2,3:3:0:0:
202,139,20274,1,2,2:1:0:0:
501,236,20505,5,2,1:3:0:0:
309,233,20736,1,2,1:3:0:0:
501,236,20967,1,2,1:3:0:0:
309,233,21198,1,2,1:3:0:0:
19,255,21428,6,0,L|18:116,1,120.000000000001,2|0,1:3|0:0,0:0:0:0:
85,128,21774,1,0,1:2:0:0:
277,135,21890,1,0,3:2:0:0:
157,199,22121,2,0,L|151:281,1,60.0000000000003,2|2,0:0|0:0,0:0:0:0:
343,326,22351,6,0,L|345:193,1,120.000000000001,6|2,1:2|0:0,0:0:0:0:
151,237,22813,2,0,L|147:107,1,120.000000000001,2|0,1:2|0:0,0:0:0:0:
352,224,23274,2,0,L|361:74,1,120.000000000001,2|0,1:2|0:0,0:0:0:0:
164,39,23736,2,0,L|291:37,1,120.000000000001,0|2,1:2|0:0,0:0:0:0:
91,283,24198,5,0,1:2:0:0:
286,281,24428,2,0,L|427:277,2,120.000000000001,2|2|0,0:0|1:2|0:0,0:0:0:0:
81,283,25121,2,0,P|96:212|262:145,1,240.000000000001,2|2,1:2|1:2,0:0:0:0:
356,27,25813,1,0,0:0:0:0:
283,29,25928,1,2,0:0:0:0:
151,26,26044,6,0,L|14:29,1,120.000000000001,2|2,1:2|0:0,0:0:0:0:
234,119,26505,2,0,L|241:255,1,120.000000000001,2|0,1:2|0:0,0:0:0:0:
36,344,26967,2,0,L|35:210,1,120.000000000001,2|0,1:2|0:0,0:0:0:0:
102,206,27313,1,2,0:0:0:0:
233,204,27428,2,0,L|242:71,1,120.000000000001,0|2,1:2|0:0,0:0:0:0:
35,25,27890,6,0,L|295:24,1,240.000000000001,2|0,1:2|1:2,0:0:0:0:
395,25,28582,1,2,0:0:0:0:
193,87,28813,2,0,P|107:139|198:198,1,240.000000000001,2|0,1:2|1:2,0:0:0:0:
394,201,29505,1,2,0:0:0:0:
189,346,29736,6,0,L|45:332,2,120.000000000001,2|2|0,1:2|0:0|1:2,0:0:0:0:
392,348,30428,1,2,0:0:0:0:
186,282,30659,2,0,P|250:212|427:182,1,240.000000000001,2|0,1:2|1:2,0:0:0:0:
184,89,31351,1,2,0:0:0:0:
386,15,31582,6,0,L|96:10,1,240.000000000001,2|0,1:2|1:2,0:0:0:0:
348,94,32274,1,2,0:0:0:0:
145,92,32505,2,0,P|56:144|160:195,1,240.000000000001,2|0,1:2|1:2,0:0:0:0:
254,207,33198,1,2,0:0:0:0:
458,211,33428,6,0,L|465:334,1,120.000000000001,2|0,1:2|0:0,0:0:0:0:
356,324,33890,1,0,1:2:0:0:
466,325,34121,1,2,0:0:0:0:
262,218,34351,2,0,L|109:213,1,120.000000000001,2|0,1:2|0:0,0:0:0:0:
345,81,34813,2,0,L|483:78,1,120.000000000001,0|2,1:2|0:0,0:0:0:0:
151,27,35274,5,4,3:3:0:0:
464,24,35505,1,4,3:3:0:0:
321,0,35736,1,2,0:0:0:0:
230,24,35851,1,2,0:0:0:0:
163,88,35967,1,2,0:0:0:0:
135,178,36082,1,2,0:0:0:0:
155,269,36198,1,2,0:0:0:0:
216,340,36313,1,2,0:0:0:0:
349,336,36428,1,0,1:2:0:0:
37,231,36659,1,2,3:2:0:0:
35,171,36774,1,0,1:2:0:0:
34,111,36890,1,2,0:0:0:0:
384,339,37121,6,0,P|365:270|256:215,1,180.000000000001,6|0,1:2|0:0,0:0:0:0:
143,210,37582,2,0,P|192:154|291:123,1,180.000000000001,2|2,3:2|0:0,0:0:0:0:
357,119,38044,1,10,2:1:0:0:
155,49,38274,2,0,L|10:49,1,120.000000000001,2|2,1:2|3:2,0:0:0:0:
110,115,38621,1,0,1:2:0:0:
38,111,38736,1,2,0:0:0:0:
349,250,38967,5,2,1:2:0:0:
180,337,39198,2,0,L|175:295,1,30.0000000000001,2|0,0:0|0:0,0:0:0:0:
268,243,39428,2,0,L|274:191,1,30.0000000000001,2|0,3:2|0:0,0:0:0:0:
181,164,39659,2,0,L|175:113,1,30.0000000000001,2|0,0:0|0:0,0:0:0:0:
341,23,39890,6,0,L|386:23,1,30.0000000000001,10|0,2:1|0:0,0:0:0:0:
279,95,40121,2,0,L|271:148,1,30.0000000000001,2|0,1:2|0:0,0:0:0:0:
437,235,40351,1,2,3:2:0:0:
510,235,40467,1,0,1:2:0:0:
437,235,40582,1,2,0:0:0:0:
123,336,40813,6,0,P|152:287|261:227,1,180.000000000001,2|0,1:2|0:0,0:0:0:0:
389,222,41274,2,0,P|358:138|254:104,1,180.000000000001,2|2,3:2|0:0,0:0:0:0:
207,104,41736,1,10,2:1:0:0:
413,308,41967,2,0,L|292:306,1,120.000000000001,2|2,1:2|3:2,0:0:0:0:
365,232,42313,1,0,1:2:0:0:
436,231,42428,1,2,0:0:0:0:
125,148,42659,6,0,L|-13:147,1,120.000000000001,2|2,1:2|0:0,0:0:0:0:
78,216,43005,1,0,0:0:0:0:
211,344,43121,2,0,L|79:343,1,120.000000000001,2|2,3:2|0:0,0:0:0:0:
296,263,43582,5,10,2:1:0:0:
374,264,43698,2,0,P|405:215|361:168,1,120.000000000001,0|0,0:0|0:0,0:0:0:0:
178,154,44044,2,0,L|172:92,1,60.0000000000003,2|0,3:2|1:2,0:0:0:0:
262,84,44274,2,0,L|269:16,1,60.0000000000003,2|0,3:2|3:2,0:0:0:0:
38,25,44505,6,0,L|31:162,1,120.000000000001,6|0,1:2|0:0,0:0:0:0:
232,275,44967,2,0,L|103:267,1,120.000000000001,2|8,3:2|2:1,0:0:0:0:
180,200,45313,1,8,2:1:0:0:
371,200,45428,2,0,L|379:76,1,120.000000000001,2|8,1:2|2:1,0:0:0:0:
175,23,45890,2,0,L|301:22,1,120.000000000001,2|8,3:2|2:1,0:0:0:0:
361,18,46236,1,8,2:1:0:0:
168,215,46351,6,0,L|28:203,2,120.000000000001,2|8|0,1:2|2:1|3:2,0:0:0:0:
372,213,47044,2,0,L|378:308,1,60.0000000000003,10|8,2:1|2:1,0:0:0:0:
186,350,47274,2,0,L|65:346,1,120.000000000001,2|8,1:2|2:1,0:0:0:0:
393,276,47736,2,0,L|524:274,1,120.000000000001,2|4,3:2|2:1,0:0:0:0:
198,114,48198,5,2,1:2:0:0:
64,114,48428,1,0,1:2:0:0:
198,114,48659,1,0,1:2:0:0:
402,313,48890,1,0,1:2:0:0:
197,201,49121,1,0,1:2:0:0:
330,194,49351,1,0,1:2:0:0:
197,201,49582,1,2,1:2:0:0:
402,29,49813,1,2,0:0:0:0:
53,328,50044,5,2,3:2:0:0:
244,328,50274,1,2,3:2:0:0:
437,330,50505,1,2,3:2:0:0:
124,183,50736,1,2,3:2:0:0:
437,194,50967,6,0,P|474:151|400:71,1,160.000000000001,2|8,3:2|2:1,0:0:0:0:
356,73,51351,1,12,2:1:0:0:
285,73,51428,1,10,2:2:0:0:
475,254,51659,1,2,0:1:0:0:
132,335,51890,6,0,P|96:279|151:241,1,132.000004028321,6|8,1:3|2:1,0:0:0:0:
206,236,52236,1,0,0:0:0:0:
275,236,52351,1,0,3:2:0:0:
71,37,52582,1,10,2:1:0:0:
144,38,52698,1,8,2:3:0:0:
341,32,52813,6,0,P|383:78|339:113,1,132.000004028321,2|8,1:3|2:1,0:0:0:0:
135,141,53274,1,0,3:2:0:0:
62,142,53390,1,0,0:0:0:0:
135,141,53505,1,10,2:3:0:0:
452,132,53736,6,0,L|452:273,1,132.000004028321,2|10,1:1|2:2,0:0:0:0:
382,263,54082,1,0,0:0:0:0:
249,265,54198,2,0,L|250:118,1,132.000004028321,2|8,3:1|2:1,0:0:0:0:
320,127,54544,1,8,2:1:0:0:
125,118,54659,6,0,L|-9:73,1,132.000004028321,2|8,1:3|2:1,0:0:0:0:
65,48,55005,1,0,0:0:0:0:
198,47,55121,1,2,3:1:0:0:
78,225,55351,1,10,1:3:0:0:
150,226,55467,1,0,0:0:0:0:
347,227,55582,6,0,L|491:227,1,132.000004028321,2|8,1:3|2:1,0:0:0:0:
346,330,55928,2,0,P|306:276|362:236,1,132.000004028321,2|0,0:1|0:0,0:0:0:0:
423,234,56274,1,10,2:2:0:0:
106,185,56505,2,0,P|73:128|131:94,1,132.000004028321,2|8,1:2|2:1,0:0:0:0:
248,103,56851,2,0,P|288:54|241:8,1,132.000004028321,2|0,0:1|0:0,0:0:0:0:
170,10,57198,1,10,2:2:0:0:
488,32,57428,6,0,L|489:183,1,132.000004028321,2|10,1:2|2:1,0:0:0:0:
422,163,57774,1,0,0:0:0:0:
289,166,57890,2,0,L|149:163,1,132.000004028321,2|10,3:2|2:1,0:0:0:0:
230,232,58236,1,8,2:1:0:0:
430,16,58351,6,0,P|471:78|430:109,1,132.000004028321,2|8,1:2|2:1,0:0:0:0:
371,106,58698,1,0,0:0:0:0:
173,204,58813,1,2,3:1:0:0:
325,201,59044,1,8,1:1:0:0:
13,345,59274,6,0,L|182:343,1,132.000004028321,6|8,1:3|2:1,0:0:0:0:
218,338,59621,1,0,0:0:0:0:
146,336,59736,1,0,3:2:0:0:
351,209,59967,2,0,L|357:115,1,66.0000020141605,10|2,2:1|2:3,0:0:0:0:
158,125,60198,6,0,L|11:122,1,132.000004028321,2|8,1:3|2:1,0:0:0:0:
96,57,60544,1,0,0:0:0:0:
165,54,60659,1,0,3:2:0:0:
370,18,60890,1,14,2:1:0:0:
297,20,61005,1,10,2:1:0:0:
97,134,61121,6,0,P|51:186|100:227,1,132.000004028321,2|10,1:1|2:2,0:0:0:0:
150,226,61467,1,0,0:0:0:0:
282,222,61582,2,0,L|454:222,1,132.000004028321,2|10,3:1|2:2,0:0:0:0:
347,292,61928,1,8,2:1:0:0:
147,294,62044,6,0,L|-4:290,1,132.000004028321,2|8,1:3|2:1,0:0:0:0:
82,217,62390,1,0,0:0:0:0:
213,213,62505,1,2,3:1:0:0:
94,35,62736,2,0,L|92:106,1,66.0000020141605,10|0,1:3|0:0,0:0:0:0:
291,84,62967,6,0,L|441:82,1,132.000004028321,2|8,1:3|2:1,0:0:0:0:
290,172,63313,2,0,L|109:171,1,132.000004028321,2|0,0:1|0:0,0:0:0:0:
85,171,63659,1,10,2:2:0:0:
401,333,63890,2,0,L|233:330,2,132.000004028321,2|10|2,1:1|2:3|3:3,0:0:0:0:
196,197,64582,1,10,2:3:0:0:
505,199,64813,5,2,1:3:0:0:
489,135,64928,1,2,0:0:0:0:
443,89,65044,1,10,2:1:0:0:
380,73,65159,1,2,0:0:0:0:
184,78,65274,1,2,3:2:0:0:
120,88,65390,1,2,0:0:0:0:
82,140,65505,1,10,2:1:0:0:
89,204,65621,1,10,2:1:0:0:
289,203,65736,5,2,3:2:0:0:
381,125,65851,2,0,L|222:126,1,132.000004028321,2|2,3:2|3:2,0:0:0:0:
48,334,66198,2,0,L|211:332,1,132.000004028321,2|2,1:1|3:3,0:0:0:0:
253,331,66544,1,0,3:2:0:0:
36,238,66659,6,0,P|9:169|59:132,1,132.000004028321,6|8,1:3|2:1,0:0:0:0:
114,131,67005,1,0,0:0:0:0:
183,134,67121,1,0,3:2:0:0:
387,27,67351,1,10,2:1:0:0:
317,30,67467,1,10,2:3:0:0:
125,42,67582,6,0,P|96:99|120:158,1,132.000004028321,2|8,1:3|2:1,0:0:0:0:
326,155,68044,1,0,3:2:0:0:
400,156,68159,1,0,0:0:0:0:
326,155,68274,1,14,2:1:0:0:
8,327,68505,6,0,L|161:326,1,132.000004028321,2|10,1:1|2:2,0:0:0:0:
206,326,68851,1,0,0:0:0:0:
339,193,68967,2,0,L|192:192,1,132.000004028321,2|10,3:1|2:2,0:0:0:0:
139,189,69313,1,8,2:1:0:0:
337,1,69428,6,0,P|379:53|338:91,1,132.000004028321,2|8,1:3|2:1,0:0:0:0:
275,91,69774,1,0,0:0:0:0:
142,92,69890,1,2,3:1:0:0:
261,184,70121,1,10,1:3:0:0:
334,184,70236,1,0,0:0:0:0:
138,321,70351,6,0,L|0:319,1,132.000004028321,2|8,1:3|2:1,0:0:0:0:
139,247,70698,2,0,P|181:203|123:158,1,132.000004028321,2|0,0:1|0:0,0:0:0:0:
70,156,71044,1,10,2:2:0:0:
399,34,71274,2,0,P|435:96|397:131,1,132.000004028321,2|8,1:2|2:1,0:0:0:0:
265,214,71621,2,0,L|404:214,1,132.000004028321,2|0,0:1|0:0,0:0:0:0:
463,211,71967,1,10,2:2:0:0:
133,341,72198,6,0,P|64:309|53:245,1,132.000004028321,2|8,1:2|2:1,0:0:0:0:
117,230,72544,1,0,0:0:0:0:
247,218,72659,2,0,P|308:203|382:194,1,132.000004028321,2|10,3:2|2:1,0:0:0:0:
311,135,73005,1,8,2:1:0:0:
112,0,73121,6,0,P|46:54|55:99,1,132.000004028321,2|8,1:2|2:1,0:0:0:0:
118,94,73467,1,0,0:0:0:0:
319,247,73582,1,2,3:1:0:0:
167,250,73813,1,8,1:1:0:0:
484,251,74044,6,0,L|491:82,1,132.000004028321,6|8,1:3|2:1,0:0:0:0:
420,107,74390,1,0,0:0:0:0:
488,102,74505,1,0,3:2:0:0:
283,209,74736,1,10,2:1:0:0:
214,213,74851,1,8,2:3:0:0:
414,200,74967,6,0,P|448:147|392:99,1,132.000004028321,2|8,1:3|2:1,0:0:0:0:
340,105,75313,1,0,0:0:0:0:
272,105,75428,1,0,3:2:0:0:
67,47,75659,2,0,L|62:118,1,66.0000020141605,14|2,2:1|2:3,0:0:0:0:
270,292,75890,6,0,L|418:291,1,132.000004028321,2|10,1:1|2:2,0:0:0:0:
330,215,76236,1,0,0:0:0:0:
198,54,76351,2,0,L|360:54,1,132.000004028321,2|10,3:1|2:2,0:0:0:0:
397,53,76698,1,8,2:1:0:0:
199,102,76813,6,0,P|152:148|196:193,1,132.000004028321,2|8,1:3|2:1,0:0:0:0:
258,188,77159,1,0,0:0:0:0:
457,106,77274,2,0,L|315:105,1,132.000004028321,2|10,3:1|1:3,0:0:0:0:
19,259,77736,6,0,L|153:259,1,132.000004028321,2|8,1:3|2:1,0:0:0:0:
17,188,78082,2,0,L|12:54,1,132.000004028321,2|0,0:1|0:0,0:0:0:0:
88,42,78428,1,10,2:2:0:0:
418,191,78659,2,0,L|238:189,1,132.000004028321,2|10,1:1|2:2,0:0:0:0:
218,187,79005,1,0,0:0:0:0:
351,309,79121,2,0,L|510:307,1,132.000004028321,2|12,3:1|2:1,0:0:0:0:
403,238,79467,1,0,0:0:0:0:
164,99,79582,5,2,1:3:0:0:
98,99,79698,1,2,0:0:0:0:
164,99,79813,1,10,1:1:0:0:
98,99,79928,1,2,0:0:0:0:
296,217,80044,1,2,1:2:0:0:
369,214,80159,1,0,0:0:0:0:
296,217,80274,1,10,1:1:0:0:
222,218,80390,1,10,2:1:0:0:
422,319,80505,6,0,P|454:249|408:217,1,132.000004028321,2|8,1:2|2:1,0:0:0:0:
342,223,80851,1,2,1:2:0:0:
142,51,80967,1,2,3:2:0:0:
50,110,81082,2,0,L|209:108,1,132.000004028321,0|2,1:2|2:1,0:0:0:0:
412,112,81428,6,0,P|443:177|400:211,1,120.000000000001,6|2,1:2|2:1,0:0:0:0:
351,204,81774,1,2,2:3:0:0:
157,333,81890,2,0,L|300:331,1,120.000000000001,2|2,3:2|2:1,0:0:0:0:
344,328,82236,1,2,2:3:0:0:
150,243,82351,6,0,P|115:193|161:157,1,120.000000000001,2|2,1:2|2:1,0:0:0:0:
216,153,82698,1,2,2:3:0:0:
347,31,82813,2,0,L|186:32,1,120.000000000001,2|2,3:2|2:1,0:0:0:0:
161,31,83159,1,2,2:3:0:0:
353,30,83274,6,0,P|407:80|401:132,1,120.000000000001,2|2,1:2|2:1,0:0:0:0:
338,117,83621,1,2,2:3:0:0:
206,293,83736,2,0,L|206:224,1,60.0000000000003,2|2,3:1|2:3,0:0:0:0:
284,164,83967,2,0,L|199:165,1,60.0000000000003,2|2,2:3|2:1,0:0:0:0:
416,212,84198,5,2,1:3:0:0:
491,213,84313,1,2,2:1:0:0:
416,212,84428,1,2,2:0:0:0:
212,40,84659,1,2,3:1:0:0:
283,41,84774,1,0,0:0:0:0:
354,42,84890,1,2,2:3:0:0:
19,162,85121,6,0,L|16:295,1,120.000000000001,2|2,1:3|2:3,0:0:0:0:
83,280,85467,1,0,0:0:0:0:
215,338,85582,2,0,L|56:340,1,120.000000000001,2|2,3:3|2:1,0:0:0:0:
163,267,85928,1,0,0:0:0:0:
356,258,86044,6,0,L|363:122,1,120.000000000001,2|2,1:2|2:1,0:0:0:0:
177,89,86505,1,2,3:3:0:0:
362,90,86736,1,2,2:1:0:0:
14,189,86967,5,2,1:3:0:0:
206,188,87198,1,0,1:2:0:0:
14,189,87428,1,0,1:2:0:0:
206,188,87659,1,0,1:2:0:0:
496,193,87890,5,2,3:3:0:0:
147,328,88121,1,2,3:3:0:0:
