osu file format v14

[General]
AudioFilename: audio.mp3
AudioLeadIn: 0
PreviewTime: 51369
Countdown: 0
SampleSet: Soft
StackLeniency: 0.7
Mode: 2
LetterboxInBreaks: 0
WidescreenStoryboard: 1

[Editor]
DistanceSpacing: 1.1
BeatDivisor: 2
GridSize: 4
TimelineZoom: 0.9000001

[Metadata]
Title:Cinderella (TV Size)
TitleUnicode:シンデレラ (TV Size)
Artist:CIDER GIRL
ArtistUnicode:サイダーガール
Creator:rew0825
Version:Azu's Salad
Source:古見さんは、コミュ症です。
Tags:zerokt [ Azu- ] -Hex- CIDERGIRL Komisan Komi-san wa, Comyushou desu. Komi Can't Communicate Anime OP Opening Japanese Pop J-pop Jpop male vocal vocals Yurin Tomo 知 Fujimura フジムラ
BeatmapID:3264759
BeatmapSetID:1597421

[Difficulty]
HPDrainRate:3
CircleSize:3
OverallDifficulty:6.8
ApproachRate:6.8
SliderMultiplier:1.65
SliderTickRate:2

[Events]
//Background and Video events
0,0,"BG.jpeg",0,0
Video,0,"VDO.mp4"
//Break Periods
//Storyboard Layer 0 (Background)
//Storyboard Layer 1 (Fail)
//Storyboard Layer 2 (Pass)
//Storyboard Layer 3 (Foreground)
//Storyboard Layer 4 (Overlay)
//Storyboard Sound Samples

[TimingPoints]
198,461.538461538462,4,2,1,60,1,0
3717,-100,4,2,1,30,0,0
3890,-100,4,2,1,60,0,0
5736,-100,4,2,1,65,0,0
6659,-100,4,2,1,70,0,0
7351,-100,4,2,10,75,0,0
10121,-100,4,2,11,75,0,0
11274,-100,4,2,10,75,0,0
11505,-100,4,2,11,75,0,0
11736,-100,4,2,10,75,0,0
14159,-100,4,2,1,75,0,0
14967,-100,4,2,10,75,0,0
17505,-100,4,2,11,75,0,0
18658,-100,4,2,10,75,0,0
18889,-100,4,2,11,75,0,0
19120,-100,4,2,10,75,0,0
20736,-100,4,2,10,70,0,0
21659,-100,4,2,1,75,0,0
22351,-100,4,2,1,60,0,0
37121,-100,4,2,1,65,0,0
44505,-100,4,2,1,70,0,0
50044,-100,4,2,1,75,0,0
51428,-100,4,2,10,75,0,0
51890,-100,4,2,10,75,0,1
52582,-100,4,2,11,75,0,1
52813,-100,4,2,10,75,0,1
53505,-100,4,2,11,75,0,1
53736,-100,4,2,10,75,0,1
53967,-100,4,2,12,75,0,1
54198,-100,4,2,10,75,0,1
55121,-100,4,2,11,75,0,1
55582,-100,4,2,10,75,0,1
56505,-100,4,2,12,75,0,1
56851,-100,4,2,10,75,0,1
57659,-100,4,2,12,75,0,1
57890,-100,4,2,10,75,0,1
58121,-100,4,2,12,75,0,1
58351,-100,4,2,10,75,0,1
59967,-100,4,2,11,75,0,1
60198,-100,4,2,10,75,0,1
60890,-100,4,2,11,75,0,1
61121,-100,4,2,10,75,0,1
61351,-100,4,2,12,75,0,1
61582,-100,4,2,10,75,0,1
61813,-100,4,2,12,75,0,1
62044,-100,4,2,10,75,0,1
62505,-100,4,2,11,75,0,1
62967,-100,4,2,10,75,0,1
63313,-100,4,2,11,75,0,1
63659,-100,4,2,10,75,0,1
64351,-100,4,2,11,75,0,1
64582,-100,4,2,10,75,0,1
64928,-100,4,2,1,75,0,1
66198,-100,4,2,11,75,0,1
66659,-100,4,2,10,75,0,1
67351,-100,4,2,11,75,0,1
67582,-100,4,2,10,75,0,1
68274,-100,4,2,11,75,0,1
68505,-100,4,2,10,75,0,1
68736,-100,4,2,12,75,0,1
68967,-100,4,2,10,75,0,1
69198,-100,4,2,12,75,0,1
69428,-100,4,2,10,75,0,1
69890,-100,4,2,11,75,0,1
70351,-100,4,2,10,75,0,1
71274,-100,4,2,12,75,0,1
71621,-100,4,2,10,75,0,1
72890,-100,4,2,12,75,0,1
73121,-100,4,2,10,75,0,1
74736,-100,4,2,11,75,0,1
74967,-100,4,2,10,75,0,1
75659,-100,4,2,11,75,0,1
75890,-100,4,2,10,75,0,1
76121,-100,4,2,12,75,0,1
76351,-100,4,2,10,75,0,1
76582,-100,4,2,12,75,0,1
76813,-100,4,2,10,75,0,1
77274,-100,4,2,11,75,0,1
77736,-100,4,2,10,75,0,1
78082,-100,4,2,11,75,0,1
78428,-100,4,2,10,75,0,1
78659,-100,4,2,12,75,0,1
78890,-100,4,2,10,75,0,1
79121,-100,4,2,10,75,0,1
79351,-100,4,2,1,75,0,1
79582,-100,4,2,10,75,0,1
79698,-100,4,2,1,75,0,1
81198,-100,4,2,10,75,0,1
81428,-100,4,2,10,75,0,0
83967,-100,4,2,11,75,0,0
85121,-100,4,2,10,75,0,0
85351,-100,4,2,11,75,0,0
85582,-100,4,2,10,75,0,0
87544,-100,4,2,10,55,0,0
87659,-100,4,2,10,75,0,0

[Colours]
Combo1 : 196,196,196
Combo2 : 183,53,225
Combo3 : 232,116,241
Combo4 : 89,103,227
Combo5 : 100,215,221

[HitObjects]
315,345,198,6,0,P|381:325|409:253,2,123.75,2|0|2,1:2|1:2|1:2,0:0:0:0:
203,334,1121,2,0,L|204:189,1,123.75,2|0,0:0|3:2,0:0:0:0:
346,171,1813,1,10,2:3:0:0:
263,141,2044,6,0,L|89:142,1,165,2|2,1:2|0:0,0:0:0:0:
99,141,2736,1,2,1:2:0:0:
210,142,2967,1,2,0:0:0:0:
383,143,3428,2,0,L|383:251,1,82.5,2|2,0:0|0:0,0:0:0:0:
271,287,3890,6,0,P|228:295|178:375,2,123.75,0|2|2,1:2|1:2|1:2,0:0:0:0:
383,307,4813,2,0,L|489:309,2,82.5,2|2|2,0:0|0:0|0:0,0:0:0:0:
53,307,5736,6,0,P|27:231|80:176,1,165,2|2,1:2|0:0,0:0:0:0:
188,175,6428,1,2,0:0:0:0:
242,105,6659,1,0,1:2:0:0:
187,35,6890,1,0,1:2:0:0:
80,27,7121,1,4,1:1:0:0:
414,310,7582,6,0,L|414:222,1,82.5,6|2,1:2|2:1,0:0:0:0:
302,194,8044,2,0,P|254:125|310:84,1,165,2|2,3:2|1:2,0:0:0:0:
416,86,8736,1,2,2:1:0:0:
333,85,8967,1,2,3:2:0:0:
250,85,9198,1,2,2:1:0:0:
36,174,9428,6,0,L|37:281,1,82.5,2|2,1:2|2:1,0:0:0:0:
149,268,9890,1,2,3:1:0:0:
238,235,10121,1,2,2:3:0:0:
281,149,10351,1,2,1:3:0:0:
230,61,10582,1,2,2:0:0:0:
147,251,10813,2,0,L|150:157,1,82.5,2|2,3:1|2:3,0:0:0:0:
364,162,11274,5,2,1:3:0:0:
467,211,11505,1,2,2:3:0:0:
467,211,11736,1,2,3:3:0:0:
364,162,11967,1,2,2:1:0:0:
252,161,12198,2,0,L|253:76,1,82.5,2|2,1:2|2:1,0:0:0:0:
365,150,12659,2,0,L|366:58,1,82.5,2|2,3:3|2:1,0:0:0:0:
150,68,13121,6,0,P|102:73|45:187,2,165,2|0|2,1:2|3:0|1:1,0:0:0:0:
261,128,14274,1,2,0:0:0:0:
149,208,14505,2,0,L|152:300,1,82.5,0|2,1:2|3:2,0:0:0:0:
367,326,14967,6,0,L|458:326,1,82.5,6|2,1:2|2:1,0:0:0:0:
338,323,15428,2,0,P|289:252|337:231,1,165,2|2,3:2|1:2,0:0:0:0:
449,228,16121,2,0,L|449:123,1,82.5,2|2,2:1|3:2,0:0:0:0:
337,145,16582,1,2,2:1:0:0:
109,88,16813,6,0,L|108:191,1,82.5,2|2,1:2|2:1,0:0:0:0:
205,200,17274,1,2,3:1:0:0:
270,278,17505,1,2,2:3:0:0:
199,200,17736,1,2,1:3:0:0:
88,168,17967,1,2,2:0:0:0:
199,200,18198,2,0,L|298:201,1,82.5,2|2,3:1|2:3,0:0:0:0:
67,243,18659,6,0,L|67:345,1,82.5,2|2,1:3|2:3,0:0:0:0:
179,338,19121,1,2,3:3:0:0:
68,335,19351,1,2,2:1:0:0:
173,285,19582,1,2,1:2:0:0:
234,173,19813,1,2,2:1:0:0:
168,71,20044,1,2,3:3:0:0:
271,65,20274,1,2,2:1:0:0:
469,66,20505,5,2,1:3:0:0:
469,66,20736,1,2,1:3:0:0:
357,179,20967,1,2,1:3:0:0:
245,123,21198,1,2,1:3:0:0:
245,123,21428,1,2,1:3:0:0:
467,70,21890,2,0,L|468:164,1,82.5,0|2,3:2|0:0,0:0:0:0:
253,253,22351,6,0,L|71:253,1,165,6|2,1:2|1:2,0:0:0:0:
288,320,23274,2,0,P|307:261|274:157,1,165,2|0,1:2|1:2,0:0:0:0:
82,173,24198,6,0,P|65:142|89:9,1,165,0|2,1:2|1:2,0:0:0:0:
272,91,25121,2,0,L|442:91,1,165,2|2,1:2|1:2,0:0:0:0:
437,91,25813,1,0,0:0:0:0:
222,147,26044,6,0,P|186:204|225:313,1,165,2|2,1:2|1:2,0:0:0:0:
396,316,26967,2,0,L|197:317,1,165,2|0,1:2|1:2,0:0:0:0:
421,297,27890,6,0,P|438:233|416:132,1,165,2|0,1:2|1:2,0:0:0:0:
230,137,28813,2,0,L|58:138,1,165,2|0,1:2|1:2,0:0:0:0:
66,137,29505,1,2,0:0:0:0:
284,82,29736,6,0,P|332:126|275:226,1,165,2|0,1:2|1:2,0:0:0:0:
195,208,30428,1,2,0:0:0:0:
83,204,30659,2,0,P|48:240|117:335,1,165,2|0,1:2|1:2,0:0:0:0:
202,331,31351,1,2,0:0:0:0:
431,87,31582,6,0,P|479:131|422:231,1,165,2|0,1:2|1:2,0:0:0:0:
342,213,32274,1,2,0:0:0:0:
230,209,32505,2,0,L|412:209,1,165,2|0,1:2|1:2,0:0:0:0:
395,209,33198,1,2,0:0:0:0:
181,331,33428,6,0,P|131:297|191:205,1,165,2|0,1:2|1:2,0:0:0:0:
273,205,34121,1,2,0:0:0:0:
384,199,34351,2,0,L|213:201,1,165,2|0,1:2|1:2,0:0:0:0:
219,203,35044,1,2,0:0:0:0:
448,175,35274,5,4,3:3:0:0:
448,175,35505,1,4,3:3:0:0:
222,229,36428,1,0,1:2:0:0:
334,213,36659,2,0,L|332:122,1,82.5,2|2,3:2|0:0,0:0:0:0:
102,122,37121,6,0,P|73:152|116:262,1,165,6|2,1:2|3:2,0:0:0:0:
329,250,38044,2,0,L|330:151,1,82.5,10|2,2:1|1:2,0:0:0:0:
218,211,38505,2,0,L|217:123,1,82.5,2|2,3:2|0:0,0:0:0:0:
433,122,38967,6,0,P|465:191|431:277,1,165,2|2,1:2|3:2,0:0:0:0:
325,276,39659,1,2,0:0:0:0:
213,269,39890,2,0,L|384:268,1,165,10|2,2:1|3:2,0:0:0:0:
336,252,40582,1,2,0:0:0:0:
121,330,40813,6,0,P|73:309|132:234,1,165,2|2,1:2|3:2,0:0:0:0:
338,217,41736,2,0,L|251:217,1,82.5,10|2,2:1|1:2,0:0:0:0:
143,219,42198,2,0,L|143:124,1,82.5,2|2,3:2|0:0,0:0:0:0:
358,135,42659,6,0,L|455:135,2,82.5,2|2|2,1:2|0:0|3:2,0:0:0:0:
171,109,43582,2,0,P|115:126|83:212,2,123.75,10|0|2,2:1|0:0|3:2,0:0:0:0:
386,142,44505,5,6,1:2:0:0:
271,246,44967,2,0,P|221:247|154:354,2,165,2|2|2,3:2|1:2|3:2,0:0:0:0:
383,252,46121,1,8,2:1:0:0:
169,253,46351,6,0,P|129:168|202:120,1,165,2|0,1:2|3:2,0:0:0:0:
282,116,47044,1,10,2:1:0:0:
393,174,47274,2,0,P|459:129|428:38,1,165,2|2,1:2|3:2,0:0:0:0:
336,81,47967,1,4,2:1:0:0:
121,85,48198,5,2,1:2:0:0:
121,85,48428,1,0,1:2:0:0:
233,150,48659,1,0,1:2:0:0:
233,150,48890,1,0,1:2:0:0:
121,85,49121,1,0,1:2:0:0:
233,150,49351,1,0,1:2:0:0:
121,85,49582,1,2,1:2:0:0:
437,98,50044,5,2,3:2:0:0:
437,98,50274,1,2,3:2:0:0:
325,163,50505,1,2,3:2:0:0:
437,98,50736,1,2,3:2:0:0:
222,73,50967,1,2,3:2:0:0:
330,140,51428,2,0,L|330:245,1,82.5,10|2,2:2|0:1,0:0:0:0:
106,308,51890,6,0,P|68:294|113:193,1,165,6|0,1:3|3:2,0:0:0:0:
201,182,52582,1,10,2:1:0:0:
313,172,52813,2,0,L|224:175,1,82.5,2|8,1:3|2:1,0:0:0:0:
119,110,53274,2,0,L|119:225,1,82.5,0|10,3:2|2:3,0:0:0:0:
343,199,53736,6,0,L|343:304,1,82.5,2|10,1:1|2:2,0:0:0:0:
231,315,54198,2,0,L|231:230,1,82.5,2|8,3:1|2:1,0:0:0:0:
343,228,54659,2,0,P|424:208|446:132,1,165,2|2,1:3|3:1,0:0:0:0:
347,145,55351,1,10,1:3:0:0:
124,95,55582,6,0,P|96:102|44:186,2,123.75,2|2|10,1:3|0:1|2:2,0:0:0:0:
236,115,56505,1,2,1:2:0:0:
57,186,56851,2,0,L|59:322,1,123.75,2|10,0:1|2:2,0:0:0:0:
282,309,57428,6,0,L|281:213,1,82.5,2|10,1:2|2:1,0:0:0:0:
168,222,57890,2,0,L|167:128,1,82.5,2|10,3:2|2:1,0:0:0:0:
279,120,58351,1,2,1:2:0:0:
167,131,58582,1,8,2:1:0:0:
55,127,58813,1,2,3:1:0:0:
389,209,59274,6,0,P|437:265|375:337,1,165,6|0,1:3|3:2,0:0:0:0:
282,340,59967,1,10,2:1:0:0:
170,338,60198,2,0,L|171:247,1,82.5,2|8,1:3|2:1,0:0:0:0:
282,241,60659,2,0,L|281:144,1,82.5,0|14,3:2|2:1,0:0:0:0:
57,149,61121,6,0,L|56:239,1,82.5,2|10,1:1|2:2,0:0:0:0:
168,235,61582,2,0,L|275:235,1,82.5,2|10,3:1|2:2,0:0:0:0:
138,336,62044,2,0,P|74:320|59:229,1,165,2|2,1:3|3:1,0:0:0:0:
66,227,62736,1,10,1:3:0:0:
281,324,62967,6,0,P|361:283|374:223,2,123.75,2|2|10,1:3|0:1|2:2,0:0:0:0:
169,325,63890,2,0,L|165:227,1,82.5,2|10,1:1|2:3,0:0:0:0:
278,246,64351,2,0,L|279:156,1,82.5,2|10,3:3|2:3,0:0:0:0:
55,115,64813,6,0,L|54:203,1,82.5,2|10,1:3|2:1,0:0:0:0:
160,200,65274,1,2,3:2:0:0:
235,263,65505,1,10,2:1:0:0:
222,363,65736,2,0,L|52:366,1,165,2|2,3:2|1:1,0:0:0:0:
165,351,66428,1,2,3:3:0:0:
380,308,66659,6,0,P|418:294|373:193,1,165,6|0,1:3|3:2,0:0:0:0:
285,182,67351,1,10,2:1:0:0:
173,172,67582,2,0,L|262:175,1,82.5,2|8,1:3|2:1,0:0:0:0:
367,110,68044,2,0,L|367:225,1,82.5,0|14,3:2|2:1,0:0:0:0:
144,199,68505,6,0,L|144:304,1,82.5,2|10,1:1|2:2,0:0:0:0:
256,315,68967,2,0,L|255:213,1,82.5,2|10,3:1|2:2,0:0:0:0:
367,193,69428,2,0,L|183:193,1,165,2|2,1:3|3:1,0:0:0:0:
202,193,70121,1,10,1:3:0:0:
391,93,70351,6,0,P|419:100|471:184,2,123.75,2|2|10,1:3|0:1|2:2,0:0:0:0:
279,113,71274,1,2,1:2:0:0:
458,184,71621,2,0,L|456:320,1,123.75,2|10,0:1|2:2,0:0:0:0:
233,307,72198,6,0,L|234:211,1,82.5,2|8,1:2|2:1,0:0:0:0:
347,220,72659,2,0,L|348:126,1,82.5,2|10,3:2|2:1,0:0:0:0:
236,118,73121,1,2,1:2:0:0:
348,129,73351,1,8,2:1:0:0:
460,125,73582,1,2,3:1:0:0:
125,207,74044,6,0,P|77:263|139:335,1,165,6|0,1:3|3:2,0:0:0:0:
232,338,74736,1,10,2:1:0:0:
344,336,74967,2,0,L|343:245,1,82.5,2|8,1:3|2:1,0:0:0:0:
232,239,75428,2,0,L|233:142,1,82.5,0|14,3:2|2:1,0:0:0:0:
457,147,75890,6,0,L|458:237,1,82.5,2|10,1:1|2:2,0:0:0:0:
346,233,76351,2,0,L|257:233,1,82.5,2|10,3:1|2:2,0:0:0:0:
376,324,76813,2,0,P|442:298|465:198,1,165,2|2,1:3|3:1,0:0:0:0:
448,219,77505,1,10,1:3:0:0:
233,322,77736,6,0,P|153:281|140:221,2,123.75,2|2|10,1:3|0:1|2:2,0:0:0:0:
345,323,78659,2,0,L|349:225,1,82.5,2|10,1:1|2:2,0:0:0:0:
236,244,79121,2,0,L|235:154,1,82.5,2|12,3:1|2:1,0:0:0:0:
458,192,79582,6,0,L|456:88,1,82.5,2|10,1:3|1:1,0:0:0:0:
349,100,80044,1,2,1:2:0:0:
258,148,80274,1,10,1:1:0:0:
236,268,80505,1,2,1:2:0:0:
397,133,80967,1,2,3:2:0:0:
285,102,81198,1,2,2:3:0:0:
63,308,81428,6,0,L|63:220,1,82.5,6|2,1:2|2:1,0:0:0:0:
175,192,81890,2,0,P|237:124|211:60,1,165,2|2,3:2|1:2,0:0:0:0:
103,84,82582,1,2,2:1:0:0:
186,83,82813,1,2,3:2:0:0:
269,83,83044,1,2,2:1:0:0:
483,171,83274,6,0,L|482:278,1,82.5,2|2,1:2|2:1,0:0:0:0:
370,265,83736,1,2,3:1:0:0:
281,232,83967,1,2,2:3:0:0:
238,146,84198,1,2,1:3:0:0:
289,58,84428,1,2,2:0:0:0:
372,248,84659,2,0,L|369:154,1,82.5,2|2,3:1|2:3,0:0:0:0:
153,144,85121,6,0,L|70:144,1,82.5,2|2,1:3|2:3,0:0:0:0:
182,193,85582,2,0,L|286:191,1,82.5,2|2,3:3|2:1,0:0:0:0:
160,240,86044,1,2,1:2:0:0:
111,349,86274,1,2,2:1:0:0:
160,240,86505,1,2,3:3:0:0:
268,189,86736,1,2,2:1:0:0:
483,187,86967,5,2,1:3:0:0:
483,187,87198,1,0,1:2:0:0:
372,171,87428,1,0,1:2:0:0:
483,187,87659,1,0,1:2:0:0:
372,171,87890,1,2,3:3:0:0:
146,167,88121,5,2,3:3:0:0:
