osu file format v14

[General]
AudioFilename: audio.mp3
AudioLeadIn: 0
PreviewTime: 51615
Countdown: 0
SampleSet: Soft
StackLeniency: 0.5
Mode: 0
LetterboxInBreaks: 0
WidescreenStoryboard: 1

[Editor]
Bookmarks: 615,7999,22768,37538,44922,67076,81845
DistanceSpacing: 1.1
BeatDivisor: 4
GridSize: 8
TimelineZoom: 2.2

[Metadata]
Title:Cinderella (TV Size)
TitleUnicode:シンデレラ (TV Size)
Artist:CIDER GIRL
ArtistUnicode:サイダーガール
Creator:bossandy
Version:lu^3's Easy
Source:古見さんは、コミュ症です。
Tags:Komi Can't Communicate Komi-san wa, Communication Shougai desu. 古見硝子 Komi Shouko Komyu Komisan cant Japanese Anime Opening op J-pop Jpop pop フジムラ 知 Yurin 江口亮 CIDERGIRL Silent Rock Net0 Hey lululu lu^3
BeatmapID:3258000
BeatmapSetID:1591808

[Difficulty]
HPDrainRate:3
CircleSize:3.5
OverallDifficulty:3.5
ApproachRate:3.5
SliderMultiplier:0.9
SliderTickRate:1

[Events]
//Background and Video events
0,0,"BG.jpg",0,0
Video,430,"video.mp4"
//Break Periods
//Storyboard Layer 0 (Background)
//Storyboard Layer 1 (Fail)
//Storyboard Layer 2 (Pass)
//Storyboard Layer 3 (Foreground)
//Storyboard Layer 4 (Overlay)
//Storyboard Sound Samples

[TimingPoints]
615,461.538461538462,4,2,1,50,1,0
1076,-100,4,2,1,5,0,0
1307,-100,4,2,1,50,0,0
7076,-100,4,2,3,50,0,0
7538,-100,4,2,1,50,0,0
7999,-100,4,2,1,70,0,1
13999,-100,4,2,2,70,0,1
14230,-100,4,2,1,70,0,1
21384,-100,4,2,3,70,0,1
21845,-100,4,2,1,70,0,1
22538,-100,4,2,1,50,0,1
22768,-100,4,2,1,50,0,0
34307,-100,4,2,3,50,0,0
34538,-100,4,2,1,50,0,0
34768,-100,4,2,3,50,0,0
35230,-100,4,2,1,50,0,0
37538,-100,4,2,1,60,0,0
47230,-100,4,2,2,60,0,0
47461,-100,4,2,1,60,0,0
49076,-100,4,2,3,60,0,0
49999,-100,4,2,1,60,0,0
52307,-100,4,2,1,80,0,1
56461,-100,4,2,2,80,0,1
56691,-100,4,2,1,80,0,1
57384,-100,4,2,2,80,0,1
57614,-100,4,2,1,80,0,1
63845,-100,4,2,2,80,0,1
64075,-100,4,2,1,80,0,1
71230,-100,4,2,2,80,0,1
71460,-100,4,2,1,80,0,1
72153,-100,4,2,2,80,0,1
72383,-100,4,2,1,80,0,1
78615,-100,4,2,2,80,0,1
78845,-100,4,2,1,80,0,1
80461,-100,4,2,3,80,0,1
81384,-100,4,2,1,50,0,0
81845,-100,4,2,1,70,0,1
82307,-100,4,2,1,70,0,1
82768,-100,4,2,1,70,0,1
88538,-100,4,2,1,50,0,0

[Colours]
Combo1 : 161,134,127
Combo2 : 128,103,186
Combo3 : 114,42,66
Combo4 : 122,73,43

[HitObjects]
0,109,615,6,0,P|71:117|98:173,1,135,2|2,3:2|3:2,0:0:0:0:
84,211,1538,1,10,0:0:0:0:
241,299,2461,2,0,B|290:285|333:326|312:330|338:376|417:355,1,180,2|2,3:2|0:0,0:0:0:0:
388,269,3845,1,2,0:0:0:0:
472,238,4307,6,0,L|493:150,1,90,2|0,3:2|0:0,0:0:0:0:
456,68,5230,2,0,B|433:77|417:92|417:92|397:80|361:74,1,90,2|2,0:0|0:0,0:0:0:0:
286,91,6153,2,0,B|227:119|148:84|148:84|168:165|114:213,1,270,4|10,3:0|1:0,0:0:0:0:
41,239,7999,5,6,3:2:0:0:
86,317,8461,2,0,P|129:302|191:295,1,90,10|2,0:0|3:2,0:0:0:0:
216,304,9153,2,0,P|193:243|217:180,1,135,2|2,0:0|3:2,0:0:0:0:
295,136,10307,1,10,0:0:0:0:
237,67,10768,2,0,L|148:83,1,90,2|10,3:2|0:0,0:0:0:0:
89,151,11691,5,2,3:2:0:0:
30,219,12153,1,10,0:0:0:0:
99,276,12615,1,2,3:2:0:0:
158,208,13076,1,10,0:0:0:0:
239,169,13538,2,0,B|293:171|321:203|321:203|338:193|367:193,1,135,2|2,3:2|0:0,0:0:0:0:
381,234,14461,2,0,P|393:285|345:335,1,90,10|10,0:0|0:0,0:0:0:0:
288,334,15384,5,6,3:2:0:0:
202,305,15845,2,0,P|187:266|176:212,1,90,10|2,0:0|3:2,0:0:0:0:
153,180,16538,2,0,L|293:214,1,135,2|2,0:0|3:2,0:0:0:0:
347,274,17691,1,10,0:0:0:0:
393,196,18153,2,0,P|412:151|395:110,1,90,2|10,3:2|0:0,0:0:0:0:
324,63,19076,5,2,3:2:0:0:
300,150,19538,1,10,0:0:0:0:
210,154,19999,1,2,3:2:0:0:
186,67,20461,1,10,0:0:0:0:
98,88,20922,2,0,B|48:132|48:132|37:187|98:242,1,180,2|2,3:2|3:2,0:0:0:0:
175,207,22307,1,8,0:0:0:0:
264,218,22768,6,0,P|311:254|359:248,2,90,6|2|2,0:0|3:2|3:2,0:0:0:0:
336,164,24153,1,0,3:0:0:0:
411,115,24615,2,0,L|510:138,1,90,2|2,3:2|3:2,0:0:0:0:
507,224,25538,1,2,3:2:0:0:
444,288,25999,1,2,3:2:0:0:
355,303,26461,6,0,P|321:276|270:270,1,90,2|2,3:2|3:2,0:0:0:0:
206,326,27384,2,0,P|172:353|121:359,1,90,2|0,3:2|3:0,0:0:0:0:
68,290,28307,1,2,3:2:0:0:
107,209,28768,1,2,3:2:0:0:
31,159,29230,2,0,P|18:116|44:68,1,90,2|2,3:0|3:2,0:0:0:0:
124,64,30153,6,0,L|223:88,1,90,2|2,3:2|3:2,0:0:0:0:
283,139,31076,1,2,3:2:0:0:
454,82,31999,2,0,P|441:123|438:169,1,90,2|2,3:2|3:2,0:0:0:0:
471,253,32922,1,2,3:2:0:0:
308,330,33845,6,0,P|261:291|186:301,2,135,2|2|2,3:2|0:0|3:2,0:0:0:0:
370,265,35691,2,0,L|383:200,1,45,4|4,3:0|3:0,0:0:0:0:
319,50,36845,2,0,L|250:25,1,45,0|10,3:0|0:0,0:0:0:0:
216,101,37538,6,0,P|184:126|135:123,1,90,6|10,3:2|0:0,0:0:0:0:
45,104,38461,2,0,L|24:212,1,90,2|10,0:0|1:2,0:0:0:0:
70,271,39384,1,2,3:2:0:0:
153,238,39845,1,10,0:0:0:0:
205,311,40307,1,2,0:0:0:0:
288,278,40768,1,10,1:2:0:0:
357,335,41230,6,0,P|414:315|450:307,1,90,2|8,3:2|0:0,0:0:0:0:
504,243,42153,1,2,0:0:0:0:
454,167,42615,1,10,1:2:0:0:
500,89,43076,2,0,P|456:79|408:57,1,90,2|10,3:2|0:0,0:0:0:0:
339,11,43999,2,0,P|295:21|247:43,1,90,2|10,1:2|0:0,0:0:0:0:
199,110,44922,6,0,P|188:153|169:199,2,90,6|10|2,3:2|0:0|3:2,0:0:0:0:
149,34,46307,1,10,0:0:0:0:
233,2,46768,2,0,P|299:32|369:32,1,135,2|2,3:2|1:2,0:0:0:0:
402,50,47691,2,0,L|427:143,1,90,2|10,3:2|0:0,0:0:0:0:
491,198,48615,6,0,B|460:259|376:243|376:243|316:316|235:261,1,270,2|2,3:2|3:2,0:0:0:0:
224,188,50461,2,0,P|183:213|109:214,2,90,6|6|6,3:0|3:0|3:0,0:0:0:0:
237,99,51845,1,2,1:2:0:0:
324,78,52307,6,0,L|443:104,1,90,6|8,3:2|0:0,0:0:0:0:
402,186,53230,2,0,L|314:166,1,90,2|8,3:2|0:0,0:0:0:0:
252,232,54153,1,2,3:2:0:0:
287,314,54615,1,10,0:0:0:0:
207,356,55076,2,0,P|140:373|102:390,1,90,2|10,3:2|0:0,0:0:0:0:
62,312,55999,6,0,B|35:267|35:267|77:178,1,135,2|2,3:0|0:0,0:0:0:0:
92,153,56922,2,0,P|140:197|229:153,1,135,2|2,3:2|0:0,0:0:0:0:
247,173,57845,2,0,L|345:199,1,90,2|10,3:2|0:0,0:0:0:0:
407,248,58768,1,2,3:2:0:0:
486,206,59230,1,10,0:0:0:0:
458,120,59691,6,0,P|413:115|349:89,1,90,6|8,3:2|0:0,0:0:0:0:
308,35,60615,2,0,P|263:40|199:66,1,90,2|8,3:2|0:0,0:0:0:0:
164,124,61538,1,2,3:2:0:0:
230,184,61999,1,10,0:0:0:0:
161,242,62461,2,0,P|154:295|144:335,1,90,2|10,3:2|0:0,0:0:0:0:
228,364,63384,6,0,P|271:333|368:344,1,135,2|2,3:0|0:0,0:0:0:0:
393,320,64307,2,0,L|370:231,1,90,2|10,3:2|0:0,0:0:0:0:
412,153,65230,2,0,P|460:164|510:141,1,90,2|10,3:2|0:0,0:0:0:0:
452,73,66153,1,10,0:0:0:0:
365,49,66615,1,10,0:0:0:0:
305,116,67076,6,0,L|203:164,1,90,6|8,3:2|0:0,0:0:0:0:
237,245,67999,2,0,L|318:206,1,90,2|8,3:2|0:0,0:0:0:0:
398,248,68922,2,0,P|448:247|478:279,2,90,2|10|2,3:2|0:0|3:2,0:0:0:0:
371,334,70307,1,10,0:0:0:0:
293,287,70768,6,0,B|250:276|250:276|210:284|210:284|141:268,1,135,2|2,3:0|0:0,0:0:0:0:
117,281,71691,2,0,P|79:251|95:169,1,135,2|2,3:2|0:0,0:0:0:0:
123,140,72615,2,0,L|91:39,1,90,2|10,3:2|0:0,0:0:0:0:
173,8,73538,1,2,3:2:0:0:
240,67,73999,1,10,0:0:0:0:
328,51,74461,6,0,P|372:45|425:32,1,90,6|8,3:2|0:0,0:0:0:0:
434,123,75384,2,0,P|389:128|337:142,1,90,2|8,3:2|0:0,0:0:0:0:
276,196,76307,1,2,3:2:0:0:
220,266,76768,1,10,0:0:0:0:
268,342,77230,2,0,L|362:380,1,90,2|10,3:2|0:0,0:0:0:0:
436,346,78153,6,0,B|455:306|455:306|421:200,1,135,2|2,3:0|0:0,0:0:0:0:
384,204,79076,2,0,L|400:102,1,90,2|10,3:2|0:0,0:0:0:0:
327,58,79999,2,0,B|252:19|216:128|237:116|213:218|88:179,1,270,2|10,3:2|0:0,0:0:0:0:
48,135,81845,5,6,3:2:0:0:
32,223,82307,2,0,L|12:317,1,90,10|2,0:0|3:2,0:0:0:0:
48,339,82999,2,0,B|95:324|95:324|140:335|140:335|205:320,1,135,2|2,0:0|3:2,0:0:0:0:
268,326,84153,1,10,0:0:0:0:
342,275,84615,1,2,3:2:0:0:
262,233,85076,1,10,0:0:0:0:
303,152,85538,6,0,B|293:118|293:118|317:55,1,90,2|10,3:2|0:0,0:0:0:0:
240,12,86461,2,0,L|128:46,1,90,2|10,3:2|0:0,0:0:0:0:
116,119,87384,1,2,3:2:0:0:
190,169,87845,1,2,3:2:0:0:
162,254,88307,2,0,L|105:270,1,45,10|10,3:2|3:2,0:0:0:0:
