osu file format v14

[General]
AudioFilename: audio.mp3
AudioLeadIn: 0
PreviewTime: 51730
Countdown: 0
SampleSet: Soft
StackLeniency: 0.4
Mode: 0
LetterboxInBreaks: 0
WidescreenStoryboard: 1

[Editor]
DistanceSpacing: 1.4
BeatDivisor: 4
GridSize: 32
TimelineZoom: 2.3

[Metadata]
Title:Cinderella (TV Size)
TitleUnicode:シンデレラ (TV Size)
Artist:CIDER GIRL
ArtistUnicode:サイダーガール
Creator:Shiwakaze
Version:Normal
Source:古見さんは、コミュ症です。
Tags:Komi Can't Communicate Komi-san wa, Communication Shougai desu. 古見硝子 Komi Shouko Komyu Komisan cant Japanese Anime Opening op J-pop Jpop pop フジムラ 知 Yurin 江口亮 CIDERGIRL
BeatmapID:3429019
BeatmapSetID:1678143

[Difficulty]
HPDrainRate:3.5
CircleSize:3
OverallDifficulty:4
ApproachRate:5
SliderMultiplier:1.2
SliderTickRate:1

[Events]
//Background and Video events
Video,500,"video.mp4"
0,0,"BG.jpg",0,0
//Break Periods
//Storyboard Layer 0 (Background)
//Storyboard Layer 1 (Fail)
//Storyboard Layer 2 (Pass)
//Storyboard Layer 3 (Foreground)
//Storyboard Layer 4 (Overlay)
//Storyboard Sound Samples

[TimingPoints]
615,461.538461538462,4,2,1,50,1,0
615,-100,4,2,1,50,0,0
6615,-100,4,2,1,60,0,0
7999,-100,4,2,1,70,0,0
22768,-100,4,2,1,60,0,0
52307,-90.9090909090909,4,2,1,80,0,1
81845,-100,4,2,1,70,0,0

[Colours]
Combo1 : 206,206,206
Combo2 : 220,160,200
Combo3 : 255,230,140
Combo4 : 130,200,244

[HitObjects]
111,333,615,6,0,B|67:343|67:343|16:324,2,90,2|0|2,1:2|1:0|1:2,0:0:0:0:
183,290,1538,2,0,P|194:248|183:199,1,90,2|8,0:0|0:0,0:0:0:0:
181,81,2230,1,10,1:3:0:0:
181,81,2461,2,0,P|218:74|262:82,1,60,2|2,1:2|0:0,0:0:0:0:
317,109,2922,2,0,P|353:114|400:103,1,60,2|2,0:2|1:2,0:0:0:0:
453,77,3384,1,2,0:0:0:0:
443,244,3845,6,0,L|372:238,1,60,2|10,0:0|0:0,0:0:0:0:
305,271,4307,2,0,B|284:309|284:309|303:366,2,90,2|2|2,1:2|1:2|1:2,0:0:0:0:
383,238,5230,2,0,P|391:206|383:175,1,60,2|2,0:0|0:0,0:0:0:0:
383,96,5691,1,2,0:0:0:0:
237,11,6153,6,0,B|180:76|180:76|213:232,1,240,2|2,1:2|1:2,0:0:0:0:
348,128,7538,1,4,1:3:0:0:
498,201,7999,2,0,P|497:243|495:279,1,60,6|2,1:2|0:0,0:0:0:0:
457,336,8461,2,0,B|410:357|410:357|329:330,1,120,8|2,0:0|1:2,0:0:0:0:
283,286,9153,1,2,0:0:0:0:
283,286,9384,1,10,0:0:0:0:
129,354,9845,6,0,P|96:350|62:348,1,60,2|2,1:2|0:0,0:0:0:0:
2,293,10307,2,0,P|-4:262|9:222,1,60,10|2,0:0|0:0,0:0:0:0:
60,174,10768,2,0,P|96:174|135:172,1,60,2|2,1:2|0:0,0:0:0:0:
204,169,11230,1,10,0:0:0:0:
363,220,11691,6,0,P|380:161|361:104,1,120,2|10,1:2|0:0,0:0:0:0:
326,36,12384,1,2,0:0:0:0:
326,36,12615,2,0,P|291:28|254:34,1,60,2|2,1:2|0:0,0:0:0:0:
199,79,13076,2,0,P|167:77|129:75,1,60,10|2,0:0|0:0,0:0:0:0:
54,69,13538,2,0,B|26:113|26:113|56:202,1,120,2|8,1:2|0:0,0:0:0:0:
105,246,14230,1,0,0:0:0:0:
105,246,14461,2,0,P|168:202|222:217,1,120,10|10,0:0|0:0,0:0:0:0:
288,355,15384,6,0,P|343:353|411:350,1,120,6|8,1:2|0:0,0:0:0:0:
452,281,16076,1,2,0:0:0:0:
452,281,16307,2,0,L|520:283,2,60,2|2|10,1:2|0:0|0:0,0:0:0:0:
450,112,17230,2,0,P|401:80|331:90,1,120,2|10,1:2|0:0,0:0:0:0:
294,155,17922,1,2,0:0:0:0:
294,155,18153,2,0,P|258:155|225:153,1,60,2|2,1:2|0:0,0:0:0:0:
163,106,18615,1,10,0:0:0:0:
7,43,19076,6,0,P|9:101|13:182,1,120,2|10,1:2|0:0,0:0:0:0:
23,250,19768,1,2,0:0:0:0:
23,250,19999,2,0,P|55:253|92:235,1,60,2|2,1:2|0:0,0:0:0:0:
150,198,20461,1,10,0:0:0:0:
191,358,20922,6,0,L|259:351,1,60,2|2,1:2|1:2,0:0:0:0:
334,339,21384,2,0,L|402:332,1,60,2|2,1:2|1:2,0:0:0:0:
476,320,21845,1,2,1:2:0:0:
484,152,22307,1,8,0:0:0:0:
362,35,22768,6,0,P|309:14|241:31,1,120,6|2,1:2|1:2,0:0:0:0:
143,124,23691,1,2,1:2:0:0:
13,61,24153,1,0,1:2:0:0:
14,205,24615,2,0,P|14:262|15:334,1,120,0|2,1:0|1:2,0:0:0:0:
152,360,25538,1,0,1:2:0:0:
298,305,25999,1,0,1:0:0:0:
296,160,26461,6,0,P|237:137|179:163,1,120,2|2,1:2|1:2,0:0:0:0:
99,270,27384,1,2,1:2:0:0:
22,148,27845,1,0,1:0:0:0:
102,28,28307,2,0,P|167:23|239:17,1,120,2|0,1:2|1:0,0:0:0:0:
363,44,29230,2,0,P|384:91|361:165,1,120,2|0,1:2|1:0,0:0:0:0:
341,224,29922,5,2,0:0:0:0:
341,224,30153,2,0,P|284:217|221:209,1,120,2|0,1:2|1:0,0:0:0:0:
154,206,30845,1,2,0:0:0:0:
154,206,31076,1,2,1:2:0:0:
148,61,31538,2,0,L|227:61,1,60,0|2,1:0|0:0,0:0:0:0:
270,25,31999,2,0,P|332:4|394:24,1,120,2|0,1:2|1:0,0:0:0:0:
451,53,32691,1,2,0:0:0:0:
451,53,32922,2,0,P|451:112|449:173,1,120,2|0,1:2|1:0,0:0:0:0:
449,249,33615,5,2,0:0:0:0:
449,249,33845,1,2,1:2:0:0:
361,363,34307,2,0,P|330:363|297:359,1,60,0|2,1:0|0:0,0:0:0:0:
232,337,34768,2,0,P|214:276|237:209,1,120,2|0,1:2|1:0,0:0:0:0:
262,154,35461,1,2,0:0:0:0:
262,154,35691,2,0,P|272:120|252:77,1,60,10|8,0:0|0:0,0:0:0:0:
17,17,37076,6,0,L|17:93,1,60,10|2,0:0|0:0,0:0:0:0:
17,161,37538,2,0,P|61:176|135:157,1,120,6|10,1:2|0:0,0:0:0:0:
249,40,38461,2,0,P|288:33|325:30,1,60,2|2,0:0|1:2,0:0:0:0:
389,54,38922,1,10,0:0:0:0:
491,187,39384,2,0,P|488:223|486:258,1,60,2|2,1:2|0:0,0:0:0:0:
478,330,39845,2,0,P|444:334|410:320,1,60,10|2,0:0|0:0,0:0:0:0:
352,274,40307,1,2,0:0:0:0:
207,358,40768,6,0,L|128:356,1,60,10|2,0:0|0:0,0:0:0:0:
76,309,41230,2,0,P|59:262|84:183,1,120,2|10,1:2|0:0,0:0:0:0:
234,247,42153,2,0,P|266:245|306:244,1,60,2|2,0:0|1:2,0:0:0:0:
378,236,42615,1,10,0:0:0:0:
375,68,43076,2,0,L|290:69,1,60,2|2,1:2|0:0,0:0:0:0:
230,71,43538,2,0,L|145:72,1,60,10|2,0:0|0:0,0:0:0:0:
86,84,43999,1,2,0:0:0:0:
15,236,44461,6,0,P|17:274|18:302,1,60,10|10,0:0|0:0,0:0:0:0:
82,349,44922,2,0,P|123:363|205:333,1,120,6|10,1:2|0:0,0:0:0:0:
255,284,45615,1,0,3:0:0:0:
255,284,45845,2,0,P|296:270|377:297,1,120,2|10,1:2|0:0,0:0:0:0:
461,149,46768,1,2,1:2:0:0:
351,21,47230,2,0,P|319:19|274:14,1,60,8|2,0:0|3:2,0:0:0:0:
228,70,47691,2,0,P|168:82|103:53,1,120,2|10,1:2|0:0,0:0:0:0:
8,193,48615,6,0,L|13:257,1,60,2|0,1:2|1:0,0:0:0:0:
19,336,49076,2,0,P|48:341|83:329,1,60,0|0,1:0|1:0,0:0:0:0:
158,312,49538,2,0,L|158:381,2,60,0|0|2,1:0|1:0|1:2,0:0:0:0:
161,143,50461,2,0,P|195:135|236:142,1,60,10|10,0:0|0:0,0:0:0:0:
299,162,50922,2,0,P|332:168|373:157,1,60,10|10,0:0|0:0,0:0:0:0:
439,141,51384,1,10,0:0:0:0:
363,291,51845,6,0,L|294:291,1,60,2|2,3:2|0:0,0:0:0:0:
214,262,52307,2,0,B|192:210|192:210|208:125,1,132.00000402832,6|8,1:2|0:0,0:0:0:0:
223,48,52999,1,2,3:2:0:0:
223,48,53230,2,0,P|289:28|358:57,1,132.00000402832,2|8,1:2|0:0,0:0:0:0:
469,185,54153,2,0,L|465:264,1,66.0000020141602,2|2,1:2|3:2,0:0:0:0:
458,343,54615,2,0,P|421:348|394:336,1,66.0000020141602,10|2,0:0|3:2,0:0:0:0:
308,304,55076,1,2,1:2:0:0:
155,197,55538,6,0,P|155:160|155:127,1,66.0000020141602,10|2,0:0|1:2,0:0:0:0:
155,38,55999,2,0,P|227:19|294:45,1,132.00000402832,2|8,1:2|0:0,0:0:0:0:
367,79,56691,1,2,3:2:0:0:
367,79,56922,1,2,1:2:0:0:
480,224,57384,2,0,L|476:294,1,66.0000020141602,10|2,0:0|3:2,0:0:0:0:
420,362,57845,2,0,P|387:370|349:358,1,66.0000020141602,2|2,1:2|3:2,0:0:0:0:
313,280,58307,2,0,P|280:272|242:284,1,66.0000020141602,10|2,0:0|3:2,0:0:0:0:
196,355,58768,2,0,P|138:353|53:345,1,132.00000402832,2|10,1:2|0:0,0:0:0:0:
57,161,59691,6,0,P|123:144|198:166,1,132.00000402832,6|8,1:2|0:0,0:0:0:0:
269,206,60384,1,2,3:2:0:0:
269,206,60615,2,0,P|330:226|404:201,1,132.00000402832,2|8,1:2|0:0,0:0:0:0:
401,23,61538,2,0,L|324:16,1,66.0000020141602,2|2,1:2|3:2,0:0:0:0:
245,40,61999,2,0,L|179:30,1,66.0000020141602,10|2,0:0|3:2,0:0:0:0:
87,24,62461,1,2,1:2:0:0:
5,189,62922,6,0,P|10:230|12:271,1,66.0000020141602,10|2,0:0|1:2,0:0:0:0:
25,347,63384,2,0,P|91:361|161:335,1,132.00000402832,2|8,1:2|0:0,0:0:0:0:
220,280,64076,2,0,P|261:272|300:285,1,66.0000020141602,2|2,3:2|1:2,0:0:0:0:
353,347,64538,1,2,3:2:0:0:
353,347,64768,1,10,0:2:0:0:
481,213,65230,6,0,P|482:178|483:140,1,66.0000020141602,2|2,1:2|3:2,0:0:0:0:
487,54,65691,2,0,P|456:46|413:63,1,66.0000020141602,10|2,0:0|3:2,0:0:0:0:
335,84,66153,2,0,P|304:85|268:71,1,66.0000020141602,8|0,0:0|0:0,0:0:0:0:
184,41,66615,1,10,0:0:0:0:
210,223,67076,6,0,B|274:241|274:241|345:222,1,132.00000402832,6|8,1:2|0:0,0:0:0:0:
430,203,67768,1,2,3:2:0:0:
430,203,67999,2,0,P|390:137|398:79,1,132.00000402832,2|8,1:2|0:0,0:0:0:0:
217,26,68922,2,0,P|182:24|144:20,1,66.0000020141602,2|2,1:2|3:2,0:0:0:0:
79,79,69384,2,0,P|70:116|83:151,1,66.0000020141602,10|2,0:0|3:2,0:0:0:0:
139,210,69845,1,2,1:2:0:0:
299,118,70307,6,0,P|331:112|365:120,1,66.0000020141602,10|2,0:0|1:2,0:0:0:0:
439,172,70768,2,0,P|438:246|436:317,1,132.00000402832,2|8,1:2|0:0,0:0:0:0:
367,364,71460,1,2,3:2:0:0:
367,364,71691,1,2,1:2:0:0:
215,262,72153,2,0,P|177:252|140:260,1,66.0000020141602,8|2,0:0|3:2,0:0:0:0:
77,199,72614,2,0,P|70:168|77:127,1,66.0000020141602,2|2,1:2|3:2,0:0:0:0:
104,46,73076,2,0,P|135:39|185:50,1,66.0000020141602,10|2,0:0|3:2,0:0:0:0:
241,100,73537,2,0,P|304:116|378:98,1,132.00000402832,2|10,1:2|0:0,0:0:0:0:
369,290,74460,6,0,P|317:302|242:284,1,132.00000402832,6|8,1:2|0:0,0:0:0:0:
174,228,75153,1,2,3:2:0:0:
174,228,75384,2,0,P|198:168|175:95,1,132.00000402832,2|8,1:2|0:0,0:0:0:0:
1,144,76307,2,0,L|6:211,1,66.0000020141602,2|2,1:2|3:2,0:0:0:0:
10,302,76768,2,0,P|40:307|78:296,1,66.0000020141602,10|2,0:2|3:2,0:0:0:0:
151,248,77230,1,2,1:2:0:0:
301,355,77691,6,0,L|367:354,1,66.0000020141602,10|2,0:0|1:2,0:0:0:0:
448,308,78153,2,0,B|473:261|473:261|451:173,1,132.00000402832,2|8,1:2|0:0,0:0:0:0:
435,98,78845,1,2,3:2:0:0:
435,98,79076,2,0,P|405:94|367:102,1,66.0000020141602,2|2,1:2|3:2,0:0:0:0:
281,128,79537,1,10,0:0:0:0:
96,126,79999,6,0,P|99:160|98:198,1,66.0000020141602,2|2,1:2|1:2,0:0:0:0:
104,284,80460,2,0,P|137:293|171:286,1,66.0000020141602,8|2,0:0|1:2,0:0:0:0:
242,232,80922,2,0,P|279:227|313:244,1,66.0000020141602,2|2,1:2|0:0,0:0:0:0:
389,276,81384,1,10,0:0:0:0:
374,108,81845,6,0,L|294:103,1,60,6|2,1:2|0:0,0:0:0:0:
243,57,82307,2,0,P|186:30|127:44,1,120,8|2,0:0|1:2,0:0:0:0:
70,98,82999,1,2,0:0:0:0:
70,98,83230,1,10,0:0:0:0:
137,251,83691,2,0,P|173:251|214:248,1,60,2|2,1:2|0:0,0:0:0:0:
273,214,84153,2,0,P|281:181|273:147,1,60,10|2,0:0|0:0,0:0:0:0:
276,71,84614,2,0,P|305:64|336:69,1,60,2|2,1:2|0:0,0:0:0:0:
410,104,85076,1,10,0:0:0:0:
465,262,85537,6,0,P|408:275|350:254,1,120,2|10,1:2|0:0,0:0:0:0:
294,201,86230,1,2,0:0:0:0:
294,201,86461,2,0,P|261:192|224:200,1,60,2|2,1:2|0:0,0:0:0:0:
172,250,86922,1,10,0:2:0:0:
50,366,87384,6,0,L|46:284,1,60,2|2,1:2|1:2,0:0:0:0:
52,222,87845,2,0,L|60:146,1,60,2|2,1:2|1:2,0:0:0:0:
69,82,88307,1,10,0:0:0:0:
23,11,88538,1,10,0:0:0:0:
