osu file format v14

[General]
AudioFilename: audio.mp3
AudioLeadIn: 0
PreviewTime: 51730
Countdown: 0
SampleSet: Soft
StackLeniency: 0.4
Mode: 0
LetterboxInBreaks: 0
WidescreenStoryboard: 1

[Editor]
DistanceSpacing: 1.3
BeatDivisor: 4
GridSize: 32
TimelineZoom: 2.3

[Metadata]
Title:Cinderella (TV Size)
TitleUnicode:シンデレラ (TV Size)
Artist:CIDER GIRL
ArtistUnicode:サイダーガール
Creator:Shiwakaze
Version:Hard
Source:古見さんは、コミュ症です。
Tags:Komi Can't Communicate Komi-san wa, Communication Shougai desu. 古見硝子 Komi Shouko Komyu Komisan cant Japanese Anime Opening op J-pop Jpop pop フジムラ 知 Yurin 江口亮 CIDERGIRL
BeatmapID:3428924
BeatmapSetID:1678143

[Difficulty]
HPDrainRate:4.5
CircleSize:3.6
OverallDifficulty:6
ApproachRate:7.5
SliderMultiplier:1.55
SliderTickRate:1

[Events]
//Background and Video events
Video,500,"video.mp4"
0,0,"BG.jpg",0,0
//Break Periods
//Storyboard Layer 0 (Background)
//Storyboard Layer 1 (Fail)
//Storyboard Layer 2 (Pass)
//Storyboard Layer 3 (Foreground)
//Storyboard Layer 4 (Overlay)
//Storyboard Sound Samples

[TimingPoints]
615,461.538461538462,4,2,1,50,1,0
615,-111.111111111111,4,2,1,50,0,0
6615,-111.111111111111,4,2,1,60,0,0
7884,-111.111111111111,4,2,1,5,0,0
7999,-90.9090909090909,4,2,1,70,0,0
22768,-111.111111111111,4,2,1,60,0,0
37422,-111.111111111111,4,2,1,5,0,0
37538,-100,4,2,1,60,0,0
52307,-83.3333333333333,4,2,1,80,0,1
81845,-90.9090909090909,4,2,1,70,0,0

[Colours]
Combo1 : 206,206,206
Combo2 : 220,160,200
Combo3 : 255,230,140
Combo4 : 130,200,244

[HitObjects]
30,216,615,6,0,P|27:161|24:103,2,104.624996807098,2|0|2,1:2|1:0|1:2,0:0:0:0:
33,305,1538,2,0,P|87:314|138:288,1,104.624996807098,2|8,0:0|0:0,0:0:0:0:
244,225,2230,1,10,1:3:0:0:
244,225,2345,1,10,1:3:0:0:
244,225,2461,2,0,P|283:223|328:221,1,69.749997871399,2|2,1:2|0:0,0:0:0:0:
394,172,2922,2,0,P|405:139|397:103,1,69.749997871399,2|2,0:2|1:2,0:0:0:0:
341,24,3384,6,0,B|295:56|295:56|198:36,1,139.499995742798,2|2,0:0|0:0,0:0:0:0:
119,73,4076,1,10,0:0:0:0:
119,73,4191,1,8,0:0:0:0:
119,73,4307,2,0,P|64:72|14:73,2,104.624996807098,2|2|2,1:2|1:2|1:2,0:0:0:0:
201,126,5230,2,0,P|210:159|203:201,1,69.749997871399,2|2,0:0|0:0,0:0:0:0:
92,156,5691,1,2,0:0:0:0:
0,225,5922,5,8,1:3:0:0:
0,225,6038,1,8,1:3:0:0:
0,225,6153,2,0,L|15:273,3,34.8749989356995,2|2|2|2,1:2|0:0|0:0|0:0,0:0:0:0:
33,304,6615,2,0,L|73:335,3,34.8749989356995,2|2|2|2,0:2|0:0|0:0|0:0,0:0:0:0:
107,344,7076,2,0,P|138:315|179:314,1,69.749997871399,2|2,1:2|1:2,0:0:0:0:
211,345,7422,1,0,1:0:0:0:
211,345,7538,2,0,B|249:368|249:368|316:347,1,104.624996807098,4|2,1:3|0:0,0:0:0:0:
311,300,7999,6,0,P|313:259|310:213,1,85.2500026016236,6|2,1:2|0:0,0:0:0:0:
312,163,8345,1,2,0:0:0:0:
312,163,8461,1,8,0:0:0:0:
319,56,8691,1,2,0:0:0:0:
319,56,8807,1,2,0:0:0:0:
319,56,8922,2,0,P|361:43|405:60,1,85.2500026016236,2|2,1:2|0:0,0:0:0:0:
512,108,9384,6,0,L|506:165,1,42.6250013008118,10|2,0:0|0:0,0:0:0:0:
489,196,9615,2,0,L|496:237,1,42.6250013008118,2|2,0:0|0:0,0:0:0:0:
507,297,9845,2,0,P|460:306|419:293,1,85.2500026016236,2|2,1:2|0:0,0:0:0:0:
378,272,10191,1,2,0:0:0:0:
378,272,10307,2,0,L|333:277,3,42.6250013008118,10|2|2|2,0:0|0:0|0:0|0:0,0:0:0:0:
289,297,10768,5,2,1:2:0:0:
289,297,10884,1,2,0:0:0:0:
289,297,10999,1,2,0:0:0:0:
201,361,11230,1,10,0:0:0:0:
115,308,11461,1,2,0:0:0:0:
121,194,11691,6,0,P|161:175|205:181,1,85.2500026016236,2|2,1:2|0:0,0:0:0:0:
288,234,12153,1,10,0:0:0:0:
372,181,12384,1,2,0:0:0:0:
372,80,12615,2,0,P|332:61|281:75,1,85.2500026016236,2|2,1:2|0:0,0:0:0:0:
204,16,13076,1,10,0:0:0:0:
119,92,13307,1,2,0:0:0:0:
2,26,13538,6,0,P|6:107|13:207,1,170.500005203247,2|8,1:2|0:0,0:0:0:0:
22,306,14230,1,2,0:0:0:0:
122,237,14461,1,10,0:0:0:0:
122,237,14576,2,0,P|167:232|218:256,1,85.2500026016236,10|10,0:0|0:0,0:0:0:0:
247,278,14922,1,10,0:0:0:0:
333,359,15153,5,8,0:0:0:0:
333,359,15268,1,8,0:0:0:0:
333,359,15384,2,0,P|379:355|418:349,1,85.2500026016236,6|2,1:2|0:0,0:0:0:0:
474,344,15730,1,2,0:0:0:0:
474,344,15845,1,8,0:0:0:0:
476,206,16076,1,2,0:0:0:0:
476,206,16191,1,2,0:0:0:0:
476,206,16307,2,0,P|430:191|380:204,1,85.2500026016236,2|2,1:2|0:0,0:0:0:0:
314,267,16768,6,0,L|225:261,1,85.2500026016236,10|2,0:0|0:0,0:0:0:0:
184,234,17115,1,2,0:0:0:0:
184,234,17230,2,0,P|174:186|191:139,1,85.2500026016236,2|2,1:2|0:0,0:0:0:0:
207,51,17691,2,0,L|148:38,1,42.6250013008118,10|2,0:0|0:0,0:0:0:0:
122,55,17922,2,0,L|53:81,1,42.6250013008118,2|2,0:0|0:0,0:0:0:0:
32,89,18153,1,2,1:2:0:0:
32,89,18268,1,2,0:0:0:0:
32,89,18384,1,2,0:0:0:0:
0,192,18615,5,10,0:0:0:0:
74,282,18845,1,2,0:0:0:0:
144,204,19076,2,0,P|181:196|229:212,1,85.2500026016236,2|2,1:2|0:0,0:0:0:0:
303,283,19538,1,10,0:0:0:0:
400,278,19768,1,2,0:0:0:0:
487,218,19999,2,0,P|485:174|484:125,1,85.2500026016236,2|2,1:2|0:0,0:0:0:0:
483,31,20461,2,0,P|443:19|389:39,1,85.2500026016236,10|2,0:0|0:0,0:0:0:0:
296,83,20922,5,2,1:2:0:0:
185,22,21153,1,2,1:2:0:0:
73,92,21384,1,2,1:2:0:0:
76,225,21615,1,2,1:2:0:0:
171,168,21845,2,0,B|226:145|226:145|308:171,1,127.875003902435,2|0,1:2|1:0,0:0:0:0:
336,185,22307,1,8,0:0:0:0:
336,303,22538,5,2,0:0:0:0:
336,303,22653,1,2,0:0:0:0:
336,303,22768,2,0,B|267:322|267:322|188:297,1,139.499995742798,6|2,1:2|1:2,0:0:0:0:
136,214,23461,1,0,0:0:0:0:
136,214,23691,2,0,P|135:160|135:97,1,104.624996807098,2|2,1:2|0:0,0:0:0:0:
135,53,24153,2,0,P|171:39|219:54,1,69.749997871399,0|2,1:0|0:0,0:0:0:0:
288,100,24615,1,0,1:0:0:0:
376,41,24845,6,0,P|411:37|447:46,2,69.749997871399,2|2|2,0:0|1:2|0:0,0:0:0:0:
288,100,25538,2,0,B|260:147|260:147|286:245,1,139.499995742798,0|0,1:2|1:0,0:0:0:0:
277,333,26230,1,2,0:0:0:0:
277,333,26345,1,2,0:0:0:0:
277,333,26461,2,0,P|211:309|144:330,1,139.499995742798,2|2,1:2|1:2,0:0:0:0:
78,261,27153,5,0,0:0:0:0:
78,261,27384,2,0,P|93:216|89:156,1,104.624996807098,2|2,1:2|0:0,0:0:0:0:
90,101,27845,2,0,P|125:91|165:102,1,69.749997871399,0|2,1:0|0:0,0:0:0:0:
242,136,28307,2,0,P|309:127|399:118,1,139.499995742798,2|0,1:2|1:0,0:0:0:0:
457,65,28999,1,2,0:0:0:0:
457,65,29230,2,0,B|424:105|424:105|453:201,1,139.499995742798,2|0,1:2|1:0,0:0:0:0:
425,282,29922,5,2,0:0:0:0:
425,282,30153,2,0,P|389:286|344:261,1,69.749997871399,2|0,1:2|0:0,0:0:0:0:
315,192,30615,2,0,P|281:180|232:194,1,69.749997871399,0|2,1:0|0:0,0:0:0:0:
161,133,31076,2,0,P|141:199|168:266,1,139.499995742798,2|0,1:2|1:0,0:0:0:0:
184,360,31768,5,2,0:0:0:0:
184,360,31999,2,0,B|225:321|225:321|317:345,1,139.499995742798,2|0,1:2|1:0,0:0:0:0:
426,367,32691,1,2,0:0:0:0:
426,367,32807,1,2,0:0:0:0:
426,367,32922,2,0,P|399:301|428:231,1,139.499995742798,2|0,1:2|1:0,0:0:0:0:
482,174,33615,5,2,0:0:0:0:
482,174,33845,2,0,P|449:148|415:146,1,69.749997871399,2|0,1:2|0:0,0:0:0:0:
332,185,34307,2,0,P|299:211|265:213,1,69.749997871399,0|2,1:0|0:0,0:0:0:0:
190,165,34768,2,0,B|158:214|158:214|190:302,1,139.499995742798,2|0,1:2|1:0,0:0:0:0:
240,364,35461,5,2,0:0:0:0:
332,301,35691,1,10,0:0:0:0:
432,363,35922,1,8,0:0:0:0:
432,363,36845,5,0,1:0:0:0:
346,291,37076,1,10,0:0:0:0:
346,291,37191,2,0,P|303:278|265:295,1,69.749997871399,0|0,1:0|0:0,0:0:0:0:
239,319,37538,6,0,B|159:366|159:366|96:328,1,155,6|10,1:2|0:0,0:0:0:0:
52,173,38345,1,2,0:0:0:0:
52,173,38461,2,0,P|90:170|131:169,1,77.5,2|2,0:0|1:2,0:0:0:0:
214,112,38922,1,10,0:0:0:0:
214,112,39038,1,0,1:0:0:0:
214,112,39153,1,2,0:0:0:0:
148,35,39384,6,0,P|108:29|64:31,1,77.5,2|2,1:2|0:0,0:0:0:0:
0,98,39845,1,10,0:0:0:0:
68,176,40076,1,2,0:0:0:0:
68,176,40191,1,2,0:0:0:0:
68,176,40307,2,0,P|85:219|76:262,1,77.5,2|2,0:0|1:2,0:0:0:0:
79,348,40768,1,10,0:0:0:0:
171,282,40999,1,2,0:0:0:0:
238,366,41230,6,0,P|310:361|404:356,1,155,2|10,1:2|0:0,0:0:0:0:
464,225,42038,1,2,0:0:0:0:
464,225,42153,2,0,P|428:200|412:164,1,77.5,2|2,0:0|1:2,0:0:0:0:
344,110,42615,1,10,0:0:0:0:
344,110,42730,1,0,1:0:0:0:
344,110,42845,1,2,0:0:0:0:
276,185,43076,6,0,P|235:181|176:178,1,77.5,2|2,1:2|0:0,0:0:0:0:
151,182,43422,1,2,0:0:0:0:
151,182,43538,1,10,0:0:0:0:
120,86,43768,1,2,0:0:0:0:
190,13,43999,2,0,P|231:9|282:10,1,77.5,2|2,0:0|1:2,0:0:0:0:
345,72,44461,1,10,0:0:0:0:
297,168,44691,5,10,0:0:0:0:
297,168,44807,1,8,0:0:0:0:
297,168,44922,2,0,B|249:131|249:131|157:151,1,155,6|10,1:2|0:0,0:0:0:0:
143,53,45615,1,0,3:0:0:0:
143,53,45730,1,0,0:0:0:0:
143,53,45845,2,0,P|99:43|57:56,1,77.5,2|0,1:2|3:0,0:0:0:0:
18,140,46307,1,10,0:0:0:0:
89,232,46538,5,0,3:0:0:0:
89,232,46653,1,0,0:0:0:0:
89,232,46768,2,0,B|144:262|144:262|235:228,1,155,2|8,1:2|0:0,0:0:0:0:
285,137,47461,1,2,3:2:0:0:
285,137,47691,2,0,P|326:130|367:147,1,77.5,2|0,1:2|3:0,0:0:0:0:
422,209,48153,2,0,P|421:253|420:303,1,77.5,10|0,0:0|3:0,0:0:0:0:
370,366,48615,5,2,1:2:0:0:
370,366,48845,1,0,1:0:0:0:
294,276,49076,1,0,1:0:0:0:
294,276,49307,1,0,1:0:0:0:
226,365,49538,1,0,1:0:0:0:
226,365,49768,1,0,1:0:0:0:
150,281,49999,2,0,P|139:244|149:202,1,77.5,2|2,1:2|0:0,0:0:0:0:
173,98,50461,5,10,0:0:0:0:
264,53,50691,1,10,0:0:0:0:
348,92,50922,1,10,0:0:0:0:
390,174,51153,1,10,0:0:0:0:
354,265,51384,1,10,0:0:0:0:
354,265,51845,6,0,P|316:262|269:260,1,77.5,2|2,3:2|0:0,0:0:0:0:
208,348,52307,2,0,P|157:358|79:304,1,139.499995742798,6|0,1:2|0:0,0:0:0:0:
65,263,52768,1,8,0:0:0:0:
101,166,52999,1,2,3:2:0:0:
101,166,53115,1,0,0:0:0:0:
101,166,53230,2,0,P|55:170|8:173,2,92.9999971618653,2|0|8,1:2|3:0|0:0,0:0:0:0:
184,82,53922,5,2,3:2:0:0:
184,82,54038,1,0,0:0:0:0:
184,82,54153,2,0,P|230:63|285:79,1,92.9999971618653,2|2,1:2|3:2,0:0:0:0:
370,124,54615,2,0,P|369:175|369:221,1,92.9999971618653,10|2,0:0|3:2,0:0:0:0:
370,276,54961,1,0,0:0:0:0:
370,276,55076,1,2,1:2:0:0:
253,333,55307,1,0,3:0:0:0:
137,273,55538,2,0,P|136:228|136:177,1,92.9999971618653,10|2,0:0|1:2,0:0:0:0:
207,92,55999,6,0,P|161:60|70:81,2,139.499995742798,2|2|2,1:2|0:0|3:2,0:0:0:0:
300,133,56922,2,0,P|349:130|397:126,1,92.9999971618653,2|0,1:2|3:0,0:0:0:0:
448,110,57268,2,0,P|452:171|454:225,1,92.9999971618653,2|0,0:0|0:0,0:0:0:0:
456,253,57615,1,2,3:2:0:0:
331,293,57845,5,2,1:2:0:0:
274,191,58076,1,2,3:2:0:0:
312,70,58307,2,0,P|268:56|214:68,1,92.9999971618653,10|2,0:0|3:2,0:0:0:0:
126,30,58768,2,0,P|115:83|133:126,1,92.9999971618653,2|0,1:2|3:2,0:0:0:0:
190,199,59230,2,0,P|237:192|293:187,1,92.9999971618653,10|0,0:0|1:0,0:0:0:0:
406,117,59691,6,0,B|378:163|378:163|405:252,1,139.499995742798,6|0,1:2|0:0,0:0:0:0:
429,280,60152,1,8,0:0:0:0:
365,367,60384,1,2,3:2:0:0:
365,367,60499,1,2,0:0:0:0:
365,367,60615,2,0,L|258:375,2,92.9999971618653,2|0|8,1:2|3:0|0:0,0:0:0:0:
431,280,61307,5,2,3:2:0:0:
431,280,61422,1,2,0:0:0:0:
431,280,61538,2,0,P|441:231|421:174,1,92.9999971618653,2|2,1:2|3:2,0:0:0:0:
335,234,61999,2,0,P|289:230|235:225,1,92.9999971618653,10|2,0:0|3:2,0:0:0:0:
156,173,62461,2,0,P|144:127|163:74,1,92.9999971618653,2|0,1:2|3:0,0:0:0:0:
237,8,62922,1,10,0:0:0:0:
325,87,63153,5,2,1:2:0:0:
325,87,63268,1,0,0:0:0:0:
325,87,63384,2,0,P|384:83|470:86,1,139.499995742798,2|2,1:2|0:0,0:0:0:0:
512,108,63845,2,0,P|522:155|507:206,1,92.9999971618653,8|2,0:0|3:2,0:0:0:0:
400,198,64307,1,2,1:2:0:0:
290,163,64538,1,2,3:2:0:0:
215,250,64768,2,0,P|169:259|127:240,1,92.9999971618653,10|2,0:2|3:2,0:0:0:0:
21,198,65230,6,0,L|23:152,3,46.4999985809327,2|2|2|2,1:2|0:0|3:2|0:0,0:0:0:0:
39,99,65691,2,0,L|73:60,3,46.4999985809327,10|2|2|2,0:0|0:0|3:2|0:0,0:0:0:0:
120,31,66153,1,8,0:0:0:0:
120,31,66268,2,0,P|169:32|224:33,1,92.9999971618653,8|8,0:0|0:0,0:0:0:0:
264,35,66615,1,10,0:0:0:0:
342,155,66845,5,10,0:0:0:0:
342,155,66961,1,8,0:0:0:0:
342,155,67076,2,0,P|273:147|198:144,1,139.499995742798,6|0,1:2|0:0,0:0:0:0:
152,145,67538,1,8,0:0:0:0:
55,197,67768,1,2,3:2:0:0:
55,197,67884,1,2,0:0:0:0:
55,197,67999,2,0,P|42:146|59:94,2,92.9999971618653,2|0|8,1:2|3:0|0:0,0:0:0:0:
115,287,68691,5,2,3:2:0:0:
115,287,68922,2,0,P|166:270|221:280,1,92.9999971618653,2|2,1:2|3:2,0:0:0:0:
283,334,69384,2,0,P|335:330|392:324,1,92.9999971618653,10|2,0:0|3:2,0:0:0:0:
428,323,69730,1,0,0:0:0:0:
428,323,69845,1,2,1:2:0:0:
463,215,70076,1,0,3:2:0:0:
422,110,70307,2,0,P|374:94|324:103,1,92.9999971618653,10|2,0:0|1:2,0:0:0:0:
252,169,70768,6,0,P|225:119|253:32,2,139.499995742798,2|2|2,1:2|0:0|3:2,0:0:0:0:
388,156,71691,2,0,P|386:205|384:253,1,92.9999971618653,2|0,1:2|3:0,0:0:0:0:
382,305,72037,2,0,P|337:321|290:297,1,92.9999971618653,2|0,0:0|0:0,0:0:0:0:
255,273,72384,1,2,3:2:0:0:
253,162,72614,5,2,1:2:0:0:
150,101,72845,1,2,3:2:0:0:
57,175,73076,2,0,P|57:221|61:267,1,92.9999971618653,10|2,0:0|3:2,0:0:0:0:
20,353,73537,2,0,P|65:362|110:350,1,92.9999971618653,2|0,1:2|3:2,0:0:0:0:
184,288,73999,2,0,P|230:278|286:296,1,92.9999971618653,10|0,0:0|1:0,0:0:0:0:
386,362,74460,6,0,B|348:324|348:324|363:232,1,139.499995742798,6|0,1:2|0:0,0:0:0:0:
372,187,74921,1,8,0:0:0:0:
344,79,75153,1,2,3:2:0:0:
344,79,75268,1,0,0:0:0:0:
344,79,75384,2,0,P|394:86|450:95,2,92.9999971618653,2|0|8,1:2|3:0|0:0,0:0:0:0:
264,135,76076,5,2,3:2:0:0:
264,135,76191,1,2,0:0:0:0:
264,135,76307,2,0,P|215:144|165:120,1,92.9999971618653,2|2,1:2|3:2,0:0:0:0:
123,46,76768,2,0,P|72:30|22:54,1,92.9999971618653,10|2,0:2|3:2,0:0:0:0:
0,129,77230,2,0,P|5:181|6:232,1,92.9999971618653,2|0,1:2|3:0,0:0:0:0:
110,186,77691,1,10,0:0:0:0:
179,292,77922,5,2,1:2:0:0:
179,292,78037,1,0,0:0:0:0:
179,292,78153,2,0,P|243:303|303:245,1,139.499995742798,2|2,1:2|0:0,0:0:0:0:
305,204,78614,2,0,P|351:189|417:211,1,92.9999971618653,8|2,0:0|3:2,0:0:0:0:
461,280,79076,1,2,1:2:0:0:
400,363,79307,1,2,3:2:0:0:
303,316,79537,2,0,P|259:300|208:313,1,92.9999971618653,10|0,0:2|3:2,0:0:0:0:
102,366,79999,6,0,L|93:312,3,46.4999985809327,2|2|2|2,1:2|0:0|1:2|0:0,0:0:0:0:
91,280,80461,2,0,L|90:219,3,46.4999985809327,10|2|2|2,0:0|0:0|1:2|0:0,0:0:0:0:
112,192,80922,2,0,L|159:172,3,46.4999985809327,2|2|2|2,1:2|0:0|0:0|1:2,0:0:0:0:
204,170,81384,2,0,L|262:177,3,46.4999985809327,10|2|2|2,0:0|1:2|0:0|0:0,0:0:0:0:
296,190,81845,6,0,P|343:188|399:184,1,85.2500026016236,6|2,1:2|0:0,0:0:0:0:
432,186,82191,1,2,0:0:0:0:
432,186,82307,1,8,0:0:0:0:
433,60,82537,1,2,0:0:0:0:
433,60,82653,1,2,0:0:0:0:
433,60,82768,2,0,P|388:51|335:63,1,85.2500026016236,2|2,1:2|0:0,0:0:0:0:
234,18,83230,2,0,L|241:77,1,42.6250013008118,10|2,0:0|0:0,0:0:0:0:
242,111,83461,2,0,L|239:170,1,42.6250013008118,2|2,0:0|0:0,0:0:0:0:
240,203,83691,6,0,P|285:212|330:199,1,85.2500026016236,2|2,1:2|0:0,0:0:0:0:
374,179,84037,1,2,0:0:0:0:
374,179,84153,2,0,L|422:183,3,42.6250013008118,10|2|2|2,0:0|0:0|0:0|0:0,0:0:0:0:
468,222,84615,1,2,1:2:0:0:
468,222,84730,1,2,0:0:0:0:
468,222,84845,1,2,0:0:0:0:
512,119,85076,1,10,0:0:0:0:
446,30,85307,1,2,0:0:0:0:
374,102,85537,6,0,P|330:97|285:96,1,85.2500026016236,2|2,1:2|0:0,0:0:0:0:
201,28,85999,1,10,0:0:0:0:
111,83,86230,1,2,0:0:0:0:
114,191,86461,2,0,P|157:191|201:188,1,85.2500026016236,2|2,1:2|0:0,0:0:0:0:
269,122,86922,1,10,0:0:0:0:
364,68,87153,1,2,0:2:0:0:
459,122,87384,5,2,1:2:0:0:
459,232,87615,1,2,1:2:0:0:
364,287,87845,1,2,1:2:0:0:
269,232,88076,1,2,1:2:0:0:
269,122,88307,1,10,0:0:0:0:
364,173,88538,5,10,0:0:0:0:
