osu file format v14

[General]
AudioFilename: audio.mp3
AudioLeadIn: 0
PreviewTime: 51845
Countdown: 0
SampleSet: Soft
StackLeniency: 0.7
Mode: 3
LetterboxInBreaks: 0
SpecialStyle: 0
WidescreenStoryboard: 1

[Editor]
DistanceSpacing: 1.2
BeatDivisor: 4
GridSize: 4
TimelineZoom: 1.9

[Metadata]
Title:Cinderella (TV Size)
TitleUnicode:シンデレラ (TV Size)
Artist:CIDER GIRL
ArtistUnicode:サイダーガール
Creator:Japeynius
Version:Rhezie's 6k Hard
Source:古見さんは、コミュ症です。
Tags:Komi Can't Communicate Komi-san wa Communication Shougai desu. opening op 古見硝子 komi shouko komyu komyushou komisan cant japanese anime jpop pop j-pop フジムラ 知 Yurin 江口亮 cidergirl TheFunk Rhezie MEGAtive k_a_t_a_g_i_r_i katagiri randelman4ik
BeatmapID:3395439
BeatmapSetID:1606009

[Difficulty]
HPDrainRate:7.5
CircleSize:6
OverallDifficulty:7.5
ApproachRate:5
SliderMultiplier:1.4
SliderTickRate:1

[Events]
//Background and Video events
0,0,"Komisan.png",0,0
//Break Periods
//Storyboard Layer 0 (Background)
//Storyboard Layer 1 (Fail)
//Storyboard Layer 2 (Pass)
//Storyboard Layer 3 (Foreground)
//Storyboard Layer 4 (Overlay)
//Storyboard Sound Samples

[TimingPoints]
615,461.538461538462,4,2,1,60,1,0
52307,-100,4,2,1,60,0,1
66961,-100,4,2,1,60,0,0
67076,-100,4,2,1,60,0,1
81845,-100,4,2,1,60,0,0

[HitObjects]
384,192,615,5,2,0:0:0:70:Hat Open.wav
298,192,615,1,0,0:0:0:0:
42,192,615,128,0,1191:0:0:0:0:
298,192,961,1,2,0:0:0:0:
298,192,1307,128,2,1422:0:0:0:0:
128,192,1538,1,0,0:0:0:70:Hat Open.wav
469,192,1538,128,0,1884:0:0:0:0:
298,192,1884,1,8,0:0:0:0:
42,192,1884,1,0,0:0:0:0:
384,192,1999,1,0,0:0:0:70:Hat Open.wav
128,192,2230,1,0,0:0:0:25:Tom1.wav
213,192,2345,1,0,0:0:0:25:Tom2.wav
298,192,2461,1,0,0:0:0:70:Hat Open.wav
42,192,2461,128,0,2576:0:0:0:25:Tom3.wav
469,192,2691,128,0,2807:0:0:0:0:
298,192,2807,1,2,0:0:0:0:
128,192,2922,128,0,3038:0:0:0:70:Hat Open.wav
298,192,3153,128,2,3268:0:0:0:0:
384,192,3384,128,0,3615:0:0:0:70:Hat Open.wav
42,192,3384,1,0,0:0:0:0:
42,192,3730,1,8,0:0:0:0:
298,192,3730,1,0,0:0:0:0:
469,192,3845,128,0,4076:0:0:0:70:Hat Open.wav
128,192,4076,128,0,4191:0:0:0:0:
298,192,4307,1,2,0:0:0:70:Hat Open.wav
384,192,4307,128,0,4538:0:0:0:0:
42,192,4653,128,2,4999:0:0:0:0:
213,192,4768,1,0,0:0:0:70:Hat Open.wav
298,192,4999,128,2,5115:0:0:0:0:
469,192,5230,128,0,5461:0:0:0:70:Hat Open.wav
42,192,5230,1,0,0:0:0:0:
128,192,5461,128,0,5691:0:0:0:0:
213,192,5576,1,8,0:0:0:0:
298,192,5576,1,0,0:0:0:0:
384,192,5691,128,0,5922:0:0:0:0:
213,192,5922,1,0,0:0:0:25:Tom1.wav
42,192,5922,128,0,6153:0:0:0:0:
298,192,6038,1,0,0:0:0:25:Tom2.wav
384,192,6153,1,0,0:0:0:25:Tom3.wav
469,192,6153,128,0,7076:0:0:0:0:
128,192,6384,1,0,0:0:0:0:
128,192,6615,128,0,7076:0:0:0:0:
384,192,7076,1,2,0:0:0:0:
42,192,7076,1,0,0:0:0:0:
298,192,7153,1,2,0:0:0:0:
213,192,7230,1,2,0:0:0:0:
42,192,7307,1,2,0:0:0:0:
128,192,7307,1,0,0:0:0:0:
469,192,7422,1,2,0:0:0:0:
213,192,7538,1,8,0:0:0:30:soft-hitfinish.wav
384,192,7538,1,0,0:0:0:0:
128,192,7768,1,0,0:0:0:0:
298,192,7884,1,0,0:0:0:0:
469,192,7999,1,6,0:0:0:0:
384,192,7999,1,4,0:0:0:0:
42,192,7999,128,0,8115:0:0:0:0:
298,192,8230,1,0,0:0:0:0:
213,192,8345,1,0,0:0:0:0:
469,192,8461,128,8,8691:0:0:0:0:
42,192,8461,128,0,8576:0:0:0:0:
128,192,8461,1,0,0:0:0:0:
128,192,8691,1,0,0:0:0:0:
298,192,8807,1,0,0:0:0:0:
469,192,8922,1,2,0:0:0:0:
42,192,8922,128,0,9038:0:0:0:0:
298,192,9153,128,0,9384:0:0:0:0:
213,192,9268,1,0,0:0:0:0:
469,192,9384,1,8,0:0:0:0:
42,192,9384,128,0,9499:0:0:0:0:
128,192,9384,1,0,0:0:0:0:
128,192,9615,1,0,0:0:0:0:
298,192,9730,1,0,0:0:0:0:
469,192,9845,1,2,0:0:0:0:
42,192,9845,128,0,9961:0:0:0:0:
298,192,10076,1,0,0:0:0:0:
213,192,10191,1,0,0:0:0:0:
42,192,10307,1,8,0:0:0:0:
469,192,10307,128,0,10422:0:0:0:0:
128,192,10307,1,0,0:0:0:0:
298,192,10422,128,0,10538:0:0:0:0:
42,192,10538,128,0,10653:0:0:0:0:
213,192,10653,128,0,10768:0:0:0:0:
469,192,10768,128,2,10884:0:0:0:0:
298,192,10768,1,0,0:0:0:0:
128,192,10884,128,0,10999:0:0:0:0:
384,192,10999,128,0,11230:0:0:0:0:
42,192,11230,1,8,0:0:0:0:
213,192,11230,1,0,0:0:0:0:
298,192,11230,1,0,0:0:0:0:
469,192,11461,1,0,0:0:0:0:
213,192,11461,1,0,0:0:0:0:
42,192,11691,1,2,0:0:0:0:
469,192,11691,128,0,11922:0:0:0:0:
213,192,11922,128,0,12153:0:0:0:0:
469,192,12153,1,8,0:0:0:0:
42,192,12153,128,0,12384:0:0:0:0:
128,192,12153,1,0,0:0:0:0:
298,192,12384,128,0,12615:0:0:0:0:
384,192,12615,128,2,12845:0:0:0:0:
128,192,12615,1,0,0:0:0:0:
42,192,12845,128,0,13076:0:0:0:0:
298,192,13076,128,8,13307:0:0:0:0:
469,192,13076,1,0,0:0:0:0:
128,192,13076,1,0,0:0:0:0:
42,192,13307,128,0,13538:0:0:0:0:
469,192,13538,128,2,14230:0:0:0:0:
213,192,13538,1,0,0:0:0:0:
298,192,13768,1,0,0:0:0:0:
298,192,13999,1,8,0:0:0:0:
42,192,13999,1,0,0:0:0:0:
128,192,13999,1,0,0:0:0:0:
128,192,14230,128,0,14461:0:0:0:0:
384,192,14461,1,2,0:0:0:0:
42,192,14461,128,0,14691:0:0:0:0:
298,192,14576,1,8,0:0:0:0:
213,192,14576,1,0,0:0:0:0:
213,192,14807,1,8,0:0:0:0:
298,192,14807,1,0,0:0:0:0:
128,192,14922,1,8,0:0:0:0:
469,192,14922,128,0,15153:0:0:0:0:
298,192,15153,1,8,0:0:0:0:
384,192,15153,1,0,0:0:0:0:
213,192,15268,1,8,0:0:0:0:
42,192,15384,1,4,0:0:0:0:
469,192,15384,1,2,0:0:0:0:
128,192,15384,128,0,15499:0:0:0:0:
384,192,15615,1,0,0:0:0:0:
213,192,15730,1,0,0:0:0:0:
42,192,15845,1,8,0:0:0:0:
128,192,15845,128,0,15961:0:0:0:0:
469,192,15845,128,0,16076:0:0:0:0:
42,192,16076,1,0,0:0:0:0:
298,192,16191,1,0,0:0:0:0:
469,192,16307,1,2,0:0:0:0:
128,192,16307,128,0,16422:0:0:0:0:
384,192,16538,128,0,16768:0:0:0:0:
213,192,16653,1,0,0:0:0:0:
42,192,16768,1,8,0:0:0:0:
469,192,16768,1,0,0:0:0:0:
128,192,16768,128,0,16884:0:0:0:0:
42,192,16999,1,0,0:0:0:0:
298,192,17115,1,0,0:0:0:0:
469,192,17230,1,2,0:0:0:0:
128,192,17230,128,0,17345:0:0:0:0:
384,192,17461,1,0,0:0:0:0:
213,192,17576,1,0,0:0:0:0:
128,192,17691,1,8,0:0:0:0:
42,192,17691,1,0,0:0:0:0:
469,192,17691,128,0,17807:0:0:0:0:
298,192,17807,128,0,17922:0:0:0:0:
128,192,17922,128,0,18038:0:0:0:0:
213,192,18038,128,0,18153:0:0:0:0:
469,192,18153,128,2,18268:0:0:0:0:
298,192,18153,1,0,0:0:0:0:
42,192,18268,128,0,18384:0:0:0:0:
384,192,18384,128,0,18615:0:0:0:0:
128,192,18615,1,8,0:0:0:0:
213,192,18615,1,0,0:0:0:0:
298,192,18615,1,0,0:0:0:0:
213,192,18845,1,0,0:0:0:0:
469,192,18845,1,0,0:0:0:0:
128,192,19076,1,2,0:0:0:0:
469,192,19076,128,0,19307:0:0:0:0:
213,192,19307,128,0,19538:0:0:0:0:
128,192,19538,128,8,19768:0:0:0:0:
42,192,19538,1,0,0:0:0:0:
469,192,19538,1,0,0:0:0:0:
298,192,19768,128,0,19999:0:0:0:0:
384,192,19999,128,2,20230:0:0:0:0:
42,192,19999,1,0,0:0:0:0:
128,192,20230,128,0,20461:0:0:0:0:
469,192,20461,1,8,0:0:0:0:
298,192,20461,128,0,20691:0:0:0:0:
42,192,20461,1,0,0:0:0:0:
128,192,20691,128,0,20922:0:0:0:50:Hat Open2.wav
213,192,20922,1,2,0:0:0:0:
469,192,20922,1,0,0:0:0:0:
469,192,21153,1,2,0:0:0:0:
384,192,21153,1,0,0:0:0:0:
298,192,21384,1,2,0:0:0:0:
42,192,21384,1,0,0:0:0:0:
42,192,21615,1,2,0:0:0:0:
128,192,21615,1,0,0:0:0:0:
469,192,21845,1,2,0:0:0:0:
213,192,21845,128,0,22076:0:0:0:0:
298,192,22076,1,0,0:0:0:0:
128,192,22191,1,2,0:0:0:0:
42,192,22191,1,0,0:0:0:0:
469,192,22307,1,8,0:0:0:0:
298,192,22307,1,0,0:0:0:0:
384,192,22307,1,0,0:0:0:0:
42,192,22422,128,2,22768:0:0:0:0:
213,192,22768,1,4,0:0:0:35:soft-hitfinish.wav
384,192,22768,1,0,0:0:0:0:
469,192,22768,128,0,22999:0:0:0:0:
298,192,23230,128,2,23461:0:0:0:0:
42,192,23230,1,0,0:0:0:0:
213,192,23691,128,2,23922:0:0:0:0:
469,192,23691,1,0,0:0:0:0:
42,192,24153,1,2,0:0:0:0:
298,192,24153,1,0,0:0:0:0:
42,192,24384,128,0,25538:0:0:0:0:
213,192,24615,1,2,0:0:0:0:
469,192,24615,1,0,0:0:0:0:
384,192,25076,1,2,0:0:0:0:
128,192,25076,1,0,0:0:0:0:
298,192,25538,1,2,0:0:0:0:
469,192,25538,1,0,0:0:0:0:
213,192,25999,1,2,0:0:0:0:
42,192,25999,1,0,0:0:0:0:
469,192,26230,1,0,0:0:0:0:
128,192,26345,1,0,0:0:0:0:
384,192,26461,128,2,26691:0:0:0:0:
42,192,26461,1,0,0:0:0:0:
213,192,26922,128,2,27153:0:0:0:0:
469,192,26922,1,0,0:0:0:0:
42,192,27384,128,2,27615:0:0:0:0:
384,192,27384,1,0,0:0:0:0:
298,192,27730,128,0,27961:0:0:0:0:
213,192,27845,1,2,0:0:0:0:
128,192,27845,1,0,0:0:0:0:
469,192,28076,128,0,28999:0:0:0:0:
384,192,28307,1,2,0:0:0:0:
42,192,28307,1,0,0:0:0:0:
298,192,28768,1,2,0:0:0:0:
213,192,28768,1,0,0:0:0:0:
128,192,28999,1,0,0:0:0:0:
128,192,29230,128,2,29691:0:0:0:0:
384,192,29230,1,0,0:0:0:0:
213,192,29691,1,2,0:0:0:0:
469,192,29691,1,0,0:0:0:0:
42,192,29922,1,0,0:0:0:30:Hat Open.wav
42,192,30153,128,2,30615:0:0:0:0:
384,192,30153,1,0,0:0:0:0:
469,192,30615,1,2,0:0:0:0:
213,192,30615,1,0,0:0:0:0:
298,192,30845,1,0,0:0:0:0:
298,192,31076,128,2,31538:0:0:0:0:
128,192,31076,1,0,0:0:0:0:
384,192,31538,1,2,0:0:0:0:
42,192,31538,1,0,0:0:0:0:
213,192,31768,1,0,0:0:0:0:
213,192,31999,128,2,32461:0:0:0:0:
469,192,31999,1,0,0:0:0:0:
298,192,32461,1,2,0:0:0:0:
128,192,32461,1,0,0:0:0:0:
469,192,32691,1,0,0:0:0:0:
469,192,32922,128,2,33384:0:0:0:0:
42,192,32922,1,0,0:0:0:0:
298,192,33384,1,2,0:0:0:0:
42,192,33384,1,0,0:0:0:0:
128,192,33615,1,0,0:0:0:0:
128,192,33845,128,2,34307:0:0:0:0:
384,192,33845,1,0,0:0:0:0:
213,192,34307,1,2,0:0:0:0:
469,192,34307,1,0,0:0:0:0:
298,192,34538,1,0,0:0:0:0:
298,192,34768,128,2,35230:0:0:0:0:
128,192,34768,1,0,0:0:0:0:
384,192,35230,1,2,0:0:0:0:
42,192,35230,1,0,0:0:0:0:
469,192,35461,1,0,0:0:0:0:
128,192,35691,1,2,0:0:0:55:Tom3.wav
213,192,35691,1,2,0:0:0:0:
469,192,35691,128,0,36153:0:0:0:0:
298,192,35922,1,2,0:0:0:55:Tom3.wav
384,192,35922,1,2,0:0:0:0:
42,192,35922,1,0,0:0:0:0:
213,192,36153,128,0,36845:0:0:0:0:
384,192,36845,1,2,0:0:0:0:
469,192,36845,1,0,0:0:0:0:
213,192,37076,1,8,0:0:0:0:
128,192,37076,1,0,0:0:0:0:
42,192,37076,1,0,0:0:0:0:
384,192,37191,128,2,37538:0:0:0:0:
213,192,37538,1,6,0:0:0:0:
298,192,37538,1,4,0:0:0:0:
42,192,37538,128,0,37768:0:0:0:0:
469,192,37768,1,0,0:0:0:0:
469,192,37999,1,8,0:0:0:0:
128,192,37999,1,0,0:0:0:0:
298,192,37999,128,0,38230:0:0:0:0:
42,192,38345,1,0,0:0:0:0:
384,192,38461,1,0,0:0:0:70:Hat Open.wav
128,192,38691,1,2,0:0:0:0:
213,192,38691,128,0,38807:0:0:0:0:
469,192,38922,1,8,0:0:0:0:
384,192,38922,1,0,0:0:0:0:
213,192,38922,128,0,39038:0:0:0:0:
42,192,39038,1,2,0:0:0:0:
469,192,39153,128,0,39384:0:0:0:0:
384,192,39384,1,2,0:0:0:0:
42,192,39384,128,0,39615:0:0:0:0:
213,192,39615,128,0,39845:0:0:0:0:
469,192,39845,128,8,40076:0:0:0:0:
298,192,39845,1,0,0:0:0:0:
42,192,39845,1,0,0:0:0:0:
128,192,40076,128,0,40307:0:0:0:0:
384,192,40307,128,0,40538:0:0:0:70:Hat Open.wav
42,192,40538,128,2,40768:0:0:0:0:
213,192,40538,1,0,0:0:0:0:
298,192,40768,1,8,0:0:0:0:
384,192,40768,1,0,0:0:0:0:
469,192,40768,1,0,0:0:0:0:
128,192,40884,1,2,0:0:0:0:
298,192,40999,128,0,41230:0:0:0:0:
42,192,41230,1,2,0:0:0:0:
469,192,41230,128,0,41461:0:0:0:0:
213,192,41461,1,0,0:0:0:0:
213,192,41691,1,8,0:0:0:0:
384,192,41691,1,0,0:0:0:0:
42,192,41691,128,0,41922:0:0:0:0:
469,192,42038,1,0,0:0:0:0:
128,192,42153,1,0,0:0:0:70:Hat Open.wav
384,192,42384,1,2,0:0:0:0:
298,192,42384,128,0,42499:0:0:0:0:
42,192,42615,1,8,0:0:0:0:
128,192,42615,1,0,0:0:0:0:
298,192,42615,128,0,42730:0:0:0:0:
469,192,42730,1,2,0:0:0:0:
213,192,42845,128,0,43076:0:0:0:0:
469,192,43076,1,2,0:0:0:0:
128,192,43076,128,0,43307:0:0:0:0:
298,192,43307,128,0,43538:0:0:0:0:
213,192,43538,1,8,0:0:0:0:
469,192,43538,1,0,0:0:0:0:
42,192,43538,128,0,43653:0:0:0:0:
384,192,43768,1,0,0:0:0:0:
213,192,43884,1,0,0:0:0:0:
128,192,43999,128,0,44230:0:0:0:70:Hat Open.wav
298,192,44230,1,2,0:0:0:0:
469,192,44230,1,0,0:0:0:0:
384,192,44345,128,0,44461:0:0:0:0:
213,192,44461,1,8,0:0:0:0:
128,192,44461,1,0,0:0:0:0:
42,192,44461,1,0,0:0:0:0:
298,192,44576,1,2,0:0:0:0:
469,192,44691,1,8,0:0:0:0:
384,192,44691,1,0,0:0:0:0:
128,192,44807,1,8,0:0:0:0:
469,192,44922,1,6,0:0:0:0:
298,192,44922,1,4,0:0:0:0:
42,192,44922,128,0,45153:0:0:0:0:
298,192,45153,1,0,0:0:0:0:
128,192,45384,1,8,0:0:0:0:
42,192,45384,1,0,0:0:0:0:
469,192,45384,128,0,45615:0:0:0:0:
213,192,45615,1,0,0:0:0:70:Hat Open.wav
298,192,45730,1,0,0:0:0:70:Hat Open.wav
42,192,45845,1,2,0:0:0:0:
384,192,45845,128,0,46076:0:0:0:0:
42,192,46076,1,0,0:0:0:70:Hat Open.wav
298,192,46307,1,8,0:0:0:0:
384,192,46307,1,0,0:0:0:0:
128,192,46307,128,0,46538:0:0:0:0:
469,192,46538,1,0,0:0:0:70:Hat Open.wav
213,192,46653,1,0,0:0:0:70:Hat Open.wav
384,192,46768,1,2,0:0:0:0:
42,192,46768,128,0,47230:0:0:0:0:
384,192,46999,1,0,0:0:0:70:Hat Open.wav
128,192,47230,1,8,0:0:0:0:
213,192,47230,1,0,0:0:0:0:
469,192,47230,1,0,0:0:0:0:
298,192,47461,1,0,0:0:0:70:Hat Open.wav
42,192,47576,1,0,0:0:0:70:Hat Open.wav
469,192,47691,1,2,0:0:0:0:
213,192,47691,128,0,47922:0:0:0:0:
128,192,47922,1,0,0:0:0:70:Hat Open.wav
384,192,48153,1,8,0:0:0:0:
42,192,48153,1,0,0:0:0:0:
298,192,48153,128,0,48384:0:0:0:0:
213,192,48384,1,0,0:0:0:50:Hat Open2.wav
42,192,48615,1,2,0:0:0:0:
298,192,48615,1,0,0:0:0:0:
384,192,48615,128,0,49999:0:0:0:0:
469,192,48845,1,2,0:0:0:0:
42,192,48845,1,0,0:0:0:0:
469,192,49076,1,2,0:0:0:0:
128,192,49076,1,0,0:0:0:0:
298,192,49307,1,2,0:0:0:0:
128,192,49307,1,0,0:0:0:0:
42,192,49538,1,2,0:0:0:0:
298,192,49538,1,0,0:0:0:0:
42,192,49768,1,2,0:0:0:0:
213,192,49768,1,0,0:0:0:0:
469,192,49999,1,2,0:0:0:0:
213,192,49999,1,0,0:0:0:0:
469,192,50230,128,0,51384:0:0:0:0:
298,192,50461,1,2,0:0:0:60:Tom2.wav
128,192,50461,1,0,0:0:0:0:
42,192,50461,1,0,0:0:0:0:
42,192,50691,1,2,0:0:0:60:Tom2.wav
128,192,50691,1,2,0:0:0:0:
384,192,50922,1,2,0:0:0:60:Tom1.wav
298,192,50922,1,0,0:0:0:0:
42,192,50922,1,0,0:0:0:0:
298,192,51153,1,2,0:0:0:60:Tom1.wav
384,192,51153,1,2,0:0:0:0:
128,192,51384,1,2,0:0:0:60:Tom1.wav
42,192,51384,1,0,0:0:0:0:
298,192,51384,1,0,0:0:0:0:
213,192,51615,1,0,0:0:0:70:Hat Open.wav
298,192,51730,1,0,0:0:0:70:Hat Open.wav
469,192,51845,1,0,0:0:0:70:Hat Open2.wav
42,192,51845,1,0,0:0:0:0:
128,192,52076,1,0,0:0:0:0:
469,192,52076,1,0,0:0:0:0:
213,192,52307,1,4,0:0:0:0:
384,192,52307,1,2,0:0:0:0:
128,192,52307,128,0,52768:0:0:0:0:
298,192,52538,1,0,0:0:0:0:
298,192,52768,1,8,0:0:0:0:
469,192,52768,1,0,0:0:0:0:
42,192,52768,1,0,0:0:0:0:
384,192,52999,1,0,0:0:0:0:
384,192,53230,128,2,53691:0:0:0:0:
213,192,53230,1,0,0:0:0:0:
128,192,53461,1,0,0:0:0:0:
128,192,53691,1,8,0:0:0:0:
42,192,53691,1,0,0:0:0:0:
469,192,53691,1,0,0:0:0:0:
298,192,53922,1,0,0:0:0:60:Hat Open2.wav
298,192,54153,128,2,54615:0:0:0:0:
42,192,54153,1,0,0:0:0:0:
42,192,54384,128,0,54615:0:0:0:0:
128,192,54615,128,8,55076:0:0:0:0:
384,192,54615,1,0,0:0:0:0:
469,192,54615,1,0,0:0:0:0:
469,192,54845,128,0,55076:0:0:0:0:
42,192,55076,1,2,0:0:0:0:
298,192,55076,128,0,55307:0:0:0:0:
213,192,55307,1,0,0:0:0:0:
42,192,55422,1,0,0:0:0:0:
298,192,55538,1,8,0:0:0:0:
469,192,55538,1,0,0:0:0:0:
213,192,55538,1,0,0:0:0:0:
384,192,55768,1,2,0:0:0:0:
128,192,55768,1,0,0:0:0:0:
298,192,55999,1,2,0:0:0:0:
42,192,55999,128,0,56345:0:0:0:0:
469,192,56345,1,0,0:0:0:0:
384,192,56461,1,8,0:0:0:0:
213,192,56461,1,0,0:0:0:0:
128,192,56461,1,0,0:0:0:0:
298,192,56691,1,0,0:0:0:0:
298,192,56922,128,2,57268:0:0:0:0:
128,192,56922,1,0,0:0:0:0:
42,192,57268,1,0,0:0:0:0:
128,192,57384,1,8,0:0:0:0:
384,192,57384,1,0,0:0:0:0:
469,192,57384,1,0,0:0:0:0:
213,192,57615,1,0,0:0:0:60:Hat Open2.wav
213,192,57845,128,2,58076:0:0:0:0:
298,192,57845,1,0,0:0:0:0:
384,192,58076,128,0,58307:0:0:0:0:
128,192,58307,128,8,58538:0:0:0:0:
42,192,58307,1,0,0:0:0:0:
469,192,58307,1,0,0:0:0:0:
298,192,58538,128,0,58768:0:0:0:0:
213,192,58768,128,2,58999:0:0:0:0:
384,192,58768,1,0,0:0:0:0:
42,192,58999,128,0,59230:0:0:0:0:
469,192,59230,128,8,59461:0:0:0:0:
128,192,59230,1,0,0:0:0:0:
384,192,59230,1,0,0:0:0:0:
42,192,59461,1,2,0:0:0:0:
213,192,59461,1,0,0:0:0:0:
42,192,59691,1,6,0:0:0:0:
384,192,59691,1,4,0:0:0:0:
213,192,59691,128,0,60153:0:0:0:0:
469,192,59922,1,0,0:0:0:0:
298,192,60153,1,8,0:0:0:0:
469,192,60153,1,0,0:0:0:0:
128,192,60153,1,0,0:0:0:0:
384,192,60384,1,0,0:0:0:0:
42,192,60499,1,0,0:0:0:0:
213,192,60615,1,2,0:0:0:0:
384,192,60615,128,0,61076:0:0:0:0:
128,192,60845,1,0,0:0:0:0:
128,192,61076,1,8,0:0:0:0:
42,192,61076,1,0,0:0:0:0:
469,192,61076,1,0,0:0:0:0:
298,192,61307,1,0,0:0:0:60:Hat Open2.wav
213,192,61422,1,0,0:0:0:0:
298,192,61538,128,2,61999:0:0:0:0:
128,192,61538,1,0,0:0:0:0:
128,192,61768,128,0,61999:0:0:0:0:
213,192,61999,128,8,62461:0:0:0:0:
469,192,61999,1,0,0:0:0:0:
42,192,61999,1,0,0:0:0:0:
469,192,62230,128,0,62461:0:0:0:0:
42,192,62461,1,2,0:0:0:0:
384,192,62461,128,0,62691:0:0:0:0:
128,192,62691,1,0,0:0:0:0:
298,192,62807,1,0,0:0:0:0:
128,192,62922,1,8,0:0:0:0:
213,192,62922,1,0,0:0:0:0:
469,192,62922,1,0,0:0:0:0:
384,192,63153,1,2,0:0:0:0:
42,192,63153,1,0,0:0:0:0:
298,192,63384,1,2,0:0:0:0:
128,192,63384,128,0,63730:0:0:0:0:
469,192,63730,1,0,0:0:0:0:
213,192,63845,1,8,0:0:0:0:
42,192,63845,1,0,0:0:0:0:
384,192,63845,1,0,0:0:0:0:
298,192,64076,1,0,0:0:0:0:
42,192,64307,1,2,0:0:0:0:
298,192,64307,128,0,64538:0:0:0:0:
128,192,64538,128,0,64768:0:0:0:0:
469,192,64768,128,8,64999:0:0:0:0:
384,192,64768,1,0,0:0:0:0:
42,192,64768,1,0,0:0:0:0:
213,192,64999,128,0,65230:0:0:0:60:Hat Open2.wav
298,192,65230,1,2,0:0:0:0:
42,192,65230,1,0,0:0:0:0:
128,192,65461,1,0,0:0:0:0:
213,192,65691,1,8,0:0:0:0:
469,192,65691,1,0,0:0:0:0:
298,192,65691,1,0,0:0:0:0:
384,192,65922,1,0,0:0:0:0:
213,192,66038,1,2,0:0:0:0:
128,192,66038,1,0,0:0:0:0:
298,192,66153,1,8,0:0:0:0:
469,192,66153,1,0,0:0:0:0:
213,192,66268,1,8,0:0:0:0:
42,192,66268,1,0,0:0:0:0:
384,192,66499,1,8,0:0:0:0:
128,192,66499,1,0,0:0:0:0:
469,192,66615,1,8,0:0:0:0:
42,192,66615,1,0,0:0:0:0:
298,192,66845,1,8,0:0:0:0:
469,192,66845,1,0,0:0:0:0:
213,192,66961,1,8,0:0:0:0:
42,192,67076,1,6,0:0:0:0:
384,192,67076,1,4,0:0:0:0:
128,192,67076,128,0,67538:0:0:0:0:
298,192,67307,1,0,0:0:0:0:
298,192,67538,1,8,0:0:0:0:
469,192,67538,1,0,0:0:0:0:
42,192,67538,1,0,0:0:0:0:
384,192,67768,1,0,0:0:0:0:
42,192,67884,1,0,0:0:0:0:
384,192,67999,128,2,68461:0:0:0:0:
213,192,67999,1,0,0:0:0:0:
128,192,68230,1,0,0:0:0:0:
128,192,68461,1,8,0:0:0:0:
42,192,68461,1,0,0:0:0:0:
469,192,68461,1,0,0:0:0:0:
298,192,68691,1,0,0:0:0:60:Hat Open2.wav
213,192,68807,1,0,0:0:0:0:
298,192,68922,128,2,69384:0:0:0:0:
42,192,68922,1,0,0:0:0:0:
42,192,69153,128,0,69384:0:0:0:0:
128,192,69384,128,8,69845:0:0:0:0:
384,192,69384,1,0,0:0:0:0:
469,192,69384,1,0,0:0:0:0:
469,192,69615,128,0,69845:0:0:0:0:
42,192,69845,1,2,0:0:0:0:
298,192,69845,128,0,70076:0:0:0:0:
213,192,70076,1,0,0:0:0:0:
42,192,70191,1,0,0:0:0:0:
298,192,70307,1,8,0:0:0:0:
469,192,70307,1,0,0:0:0:0:
213,192,70307,1,0,0:0:0:0:
384,192,70538,1,2,0:0:0:0:
128,192,70538,1,0,0:0:0:0:
298,192,70768,1,2,0:0:0:0:
42,192,70768,128,0,71115:0:0:0:0:
469,192,71115,1,0,0:0:0:0:
384,192,71230,1,8,0:0:0:0:
213,192,71230,1,0,0:0:0:0:
128,192,71230,1,0,0:0:0:0:
298,192,71461,1,0,0:0:0:0:
298,192,71691,128,2,72038:0:0:0:0:
128,192,71691,1,0,0:0:0:0:
42,192,72038,1,0,0:0:0:0:
128,192,72153,1,8,0:0:0:0:
384,192,72153,1,0,0:0:0:0:
469,192,72153,1,0,0:0:0:0:
213,192,72384,1,0,0:0:0:60:Hat Open2.wav
213,192,72615,128,2,72845:0:0:0:0:
298,192,72615,1,0,0:0:0:0:
384,192,72845,128,0,73076:0:0:0:0:
128,192,73076,128,8,73307:0:0:0:0:
42,192,73076,1,0,0:0:0:0:
469,192,73076,1,0,0:0:0:0:
298,192,73307,128,0,73538:0:0:0:0:
42,192,73538,128,2,73768:0:0:0:0:
384,192,73538,1,0,0:0:0:0:
213,192,73768,1,0,0:0:0:0:
469,192,73999,128,8,74230:0:0:0:0:
128,192,73999,1,0,0:0:0:0:
298,192,73999,1,0,0:0:0:0:
42,192,74230,1,2,0:0:0:0:
213,192,74230,1,0,0:0:0:0:
42,192,74461,1,6,0:0:0:0:
384,192,74461,1,4,0:0:0:0:
213,192,74461,128,0,74922:0:0:0:0:
298,192,74691,1,0,0:0:0:0:
298,192,74922,1,8,0:0:0:0:
469,192,74922,1,0,0:0:0:0:
128,192,74922,1,0,0:0:0:0:
384,192,75153,1,0,0:0:0:0:
42,192,75268,1,0,0:0:0:0:
213,192,75384,1,2,0:0:0:0:
384,192,75384,128,0,75845:0:0:0:0:
128,192,75615,1,0,0:0:0:0:
128,192,75845,1,8,0:0:0:0:
42,192,75845,1,0,0:0:0:0:
469,192,75845,1,0,0:0:0:0:
298,192,76076,1,0,0:0:0:60:Hat Open2.wav
213,192,76191,1,0,0:0:0:0:
298,192,76307,128,2,76768:0:0:0:0:
128,192,76307,1,0,0:0:0:0:
128,192,76538,128,0,76768:0:0:0:0:
213,192,76768,128,8,77230:0:0:0:0:
469,192,76768,1,0,0:0:0:0:
42,192,76768,1,0,0:0:0:0:
469,192,76999,128,0,77230:0:0:0:0:
42,192,77230,1,2,0:0:0:0:
384,192,77230,128,0,77461:0:0:0:0:
128,192,77461,1,0,0:0:0:0:
298,192,77576,1,0,0:0:0:0:
128,192,77691,1,8,0:0:0:0:
213,192,77691,1,0,0:0:0:0:
469,192,77691,1,0,0:0:0:0:
384,192,77922,1,2,0:0:0:0:
42,192,77922,1,0,0:0:0:0:
298,192,78153,1,2,0:0:0:0:
128,192,78153,128,0,78499:0:0:0:0:
469,192,78499,1,0,0:0:0:0:
213,192,78615,1,8,0:0:0:0:
42,192,78615,1,0,0:0:0:0:
384,192,78615,1,0,0:0:0:0:
298,192,78845,1,0,0:0:0:0:
213,192,78845,1,0,0:0:0:0:
42,192,79076,1,2,0:0:0:0:
298,192,79076,128,0,79307:0:0:0:0:
128,192,79307,128,0,79538:0:0:0:0:
469,192,79538,128,8,79768:0:0:0:0:
384,192,79538,1,0,0:0:0:0:
42,192,79538,1,0,0:0:0:0:
213,192,79768,128,0,79999:0:0:0:0:
298,192,79999,1,2,0:0:0:0:
42,192,79999,1,0,0:0:0:0:
42,192,80230,1,2,0:0:0:0:
298,192,80230,1,0,0:0:0:0:
128,192,80461,5,2,0:0:0:0:
469,192,80461,1,0,0:0:0:0:
384,192,80461,1,0,0:0:0:0:
298,192,80691,1,2,0:0:0:0:
42,192,80691,1,0,0:0:0:0:
42,192,80922,1,2,0:0:0:0:
298,192,80922,1,0,0:0:0:0:
213,192,81153,1,0,0:0:0:0:
384,192,81268,1,2,0:0:0:0:
469,192,81268,1,0,0:0:0:0:
213,192,81384,1,8,0:0:0:0:
128,192,81384,1,0,0:0:0:0:
42,192,81384,1,0,0:0:0:0:
469,192,81499,1,2,0:0:0:0:
128,192,81615,5,0,0:0:0:0:
298,192,81730,1,0,0:0:0:0:
213,192,81845,128,6,81961:0:0:0:0:
384,192,81845,1,4,0:0:0:0:
469,192,81845,1,0,0:0:0:0:
298,192,82076,1,0,0:0:0:0:
42,192,82191,1,0,0:0:0:0:
128,192,82307,1,8,0:0:0:0:
213,192,82307,128,0,82422:0:0:0:0:
469,192,82307,128,0,82538:0:0:0:0:
128,192,82538,1,0,0:0:0:0:
298,192,82653,1,0,0:0:0:0:
213,192,82768,128,2,82884:0:0:0:0:
469,192,82768,1,0,0:0:0:0:
298,192,82999,128,0,83230:0:0:0:0:
42,192,83115,1,0,0:0:0:0:
128,192,83230,1,8,0:0:0:0:
213,192,83230,128,0,83345:0:0:0:0:
469,192,83230,1,0,0:0:0:0:
128,192,83461,1,0,0:0:0:0:
298,192,83576,1,0,0:0:0:0:
213,192,83691,128,2,83807:0:0:0:0:
469,192,83691,1,0,0:0:0:0:
298,192,83922,1,0,0:0:0:0:
42,192,84038,1,0,0:0:0:0:
213,192,84153,1,8,0:0:0:0:
469,192,84153,128,0,84268:0:0:0:0:
128,192,84153,1,0,0:0:0:0:
298,192,84268,128,0,84384:0:0:0:0:
213,192,84384,128,0,84499:0:0:0:0:
42,192,84499,128,0,84615:0:0:0:0:
298,192,84615,1,2,0:0:0:0:
469,192,84615,128,0,84730:0:0:0:0:
128,192,84730,128,0,84845:0:0:0:0:
384,192,84845,128,0,85076:0:0:0:0:
298,192,85076,1,8,0:0:0:0:
213,192,85076,1,0,0:0:0:0:
42,192,85076,1,0,0:0:0:0:
42,192,85307,1,0,0:0:0:0:
469,192,85307,1,0,0:0:0:0:
469,192,85538,128,2,85768:0:0:0:0:
213,192,85538,1,0,0:0:0:0:
128,192,85768,128,0,85999:0:0:0:0:
213,192,85999,1,8,0:0:0:0:
42,192,85999,128,0,86230:0:0:0:0:
469,192,85999,1,0,0:0:0:0:
298,192,86230,128,0,86461:0:0:0:0:
128,192,86461,1,2,0:0:0:0:
384,192,86461,128,0,86691:0:0:0:0:
213,192,86691,128,0,86922:0:0:0:0:
42,192,86922,1,8,0:0:0:0:
469,192,86922,1,0,0:0:0:0:
298,192,86922,128,0,87153:0:0:0:0:
213,192,87153,128,0,87384:0:0:0:60:Hat Open2.wav
128,192,87384,1,2,0:0:0:0:
469,192,87384,1,0,0:0:0:0:
298,192,87615,1,2,0:0:0:0:
469,192,87615,1,0,0:0:0:0:
42,192,87845,1,2,0:0:0:0:
384,192,87845,1,0,0:0:0:0:
213,192,88076,1,2,0:0:0:0:
42,192,88076,1,0,0:0:0:0:
128,192,88307,1,2,0:0:0:0:
469,192,88307,1,0,0:0:0:0:
298,192,88538,1,6,0:0:0:0:
469,192,88538,128,4,88768:0:0:0:0:
42,192,88538,128,0,88768:0:0:0:0:
