osu file format v14

[General]
AudioFilename: audio.mp3
AudioLeadIn: 0
PreviewTime: 51845
Countdown: 0
SampleSet: Soft
StackLeniency: 0.7
Mode: 3
LetterboxInBreaks: 0
SpecialStyle: 0
WidescreenStoryboard: 1

[Editor]
DistanceSpacing: 1.2
BeatDivisor: 4
GridSize: 4
TimelineZoom: 1.9

[Metadata]
Title:Cinderella (TV Size)
TitleUnicode:シンデレラ (TV Size)
Artist:CIDER GIRL
ArtistUnicode:サイダーガール
Creator:Japeynius
Version:6k Easy
Source:古見さんは、コミュ症です。
Tags:Komi Can't Communicate Komi-san wa Communication Shougai desu. opening op 古見硝子 komi shouko komyu komyushou komisan cant japanese anime jpop pop j-pop フジムラ 知 Yurin 江口亮 cidergirl TheFunk Rhezie MEGAtive k_a_t_a_g_i_r_i katagiri randelman4ik
BeatmapID:3395438
BeatmapSetID:1606009

[Difficulty]
HPDrainRate:6.5
CircleSize:6
OverallDifficulty:6.5
ApproachRate:5
SliderMultiplier:1.4
SliderTickRate:1

[Events]
//Background and Video events
0,0,"Komisan.png",0,0
//Break Periods
//Storyboard Layer 0 (Background)
//Storyboard Layer 1 (Fail)
//Storyboard Layer 2 (Pass)
//Storyboard Layer 3 (Foreground)
//Storyboard Layer 4 (Overlay)
//Storyboard Sound Samples

[TimingPoints]
615,461.538461538462,4,2,1,60,1,0
52307,-100,4,2,1,60,0,1
66961,-100,4,2,1,60,0,0
67076,-100,4,2,1,60,0,1
81845,-100,4,2,1,60,0,0

[HitObjects]
128,192,615,5,2,0:0:0:70:Hat Open.wav
298,192,961,1,2,0:0:0:0:
469,192,1307,1,2,0:0:0:0:
213,192,1538,1,0,0:0:0:70:Hat Open.wav
384,192,2230,1,0,0:0:0:25:Tom1.wav
298,192,2461,1,0,0:0:0:70:Hat Open.wav
213,192,2922,1,0,0:0:0:70:Hat Open.wav
128,192,3384,1,0,0:0:0:70:Hat Open.wav
384,192,3845,1,0,0:0:0:70:Hat Open.wav
42,192,4307,1,2,0:0:0:70:Hat Open.wav
298,192,4653,1,2,0:0:0:0:
213,192,4999,1,2,0:0:0:0:
469,192,5230,1,0,0:0:0:70:Hat Open.wav
298,192,5691,1,0,0:0:0:0:
128,192,6153,128,0,7076:0:0:0:25:Tom3.wav
384,192,6153,1,0,0:0:0:0:
384,192,7076,1,2,0:0:0:0:
384,192,7307,1,2,0:0:0:0:
213,192,7538,1,8,0:0:0:30:soft-hitfinish.wav
42,192,7999,128,6,8461:0:0:0:0:
298,192,7999,1,4,0:0:0:0:
213,192,8461,128,8,8922:0:0:0:0:
42,192,8922,128,2,9384:0:0:0:0:
213,192,9384,128,8,9845:0:0:0:0:
42,192,9845,128,2,10307:0:0:0:0:
298,192,10307,1,8,0:0:0:0:
384,192,10538,1,0,0:0:0:0:
469,192,10768,128,2,11230:0:0:0:0:
128,192,11230,1,8,0:0:0:0:
213,192,11461,1,0,0:0:0:0:
298,192,11691,128,2,12153:0:0:0:0:
128,192,12153,128,8,12615:0:0:0:0:
298,192,12615,128,2,13076:0:0:0:0:
213,192,13076,128,8,13538:0:0:0:0:
469,192,13538,128,2,13999:0:0:0:0:
298,192,13999,1,8,0:0:0:0:
384,192,14461,1,2,0:0:0:0:
42,192,14922,1,8,0:0:0:0:
213,192,15153,1,8,0:0:0:0:
469,192,15384,128,4,15845:0:0:0:0:
298,192,15384,1,2,0:0:0:0:
298,192,15845,128,8,16307:0:0:0:0:
469,192,16307,128,2,16768:0:0:0:0:
298,192,16768,128,8,17230:0:0:0:0:
469,192,17230,128,2,17691:0:0:0:0:
298,192,17691,1,8,0:0:0:0:
213,192,17922,1,0,0:0:0:0:
128,192,18153,128,2,18615:0:0:0:0:
384,192,18615,1,8,0:0:0:0:
298,192,18845,1,0,0:0:0:0:
213,192,19076,128,2,19538:0:0:0:0:
384,192,19538,128,8,19999:0:0:0:0:
128,192,19999,128,2,20461:0:0:0:0:
384,192,20461,128,8,20922:0:0:0:0:
213,192,20922,128,2,21845:0:0:0:0:
298,192,21384,1,2,0:0:0:0:
298,192,21845,1,2,0:0:0:0:
384,192,22307,1,8,0:0:0:0:
213,192,22538,1,0,0:0:0:0:
42,192,22768,1,4,0:0:0:35:soft-hitfinish.wav
213,192,23230,1,2,0:0:0:0:
298,192,23691,1,2,0:0:0:0:
384,192,24153,1,2,0:0:0:0:
469,192,24384,128,0,25538:0:0:0:0:
298,192,25538,1,2,0:0:0:0:
384,192,25999,1,2,0:0:0:0:
298,192,26230,1,0,0:0:0:0:
213,192,26461,1,2,0:0:0:0:
42,192,26922,1,2,0:0:0:0:
384,192,27384,1,2,0:0:0:0:
213,192,27730,1,0,0:0:0:0:
384,192,28076,128,0,28999:0:0:0:0:
42,192,28999,1,0,0:0:0:0:
128,192,29230,128,2,29691:0:0:0:0:
213,192,29922,1,0,0:0:0:30:Hat Open.wav
298,192,30153,128,2,30615:0:0:0:0:
384,192,30615,1,2,0:0:0:0:
213,192,30845,1,0,0:0:0:0:
128,192,31076,128,2,31538:0:0:0:0:
213,192,31538,1,2,0:0:0:0:
384,192,31768,1,0,0:0:0:0:
469,192,31999,128,2,32461:0:0:0:0:
213,192,32461,1,2,0:0:0:0:
298,192,32691,1,0,0:0:0:0:
384,192,32922,128,2,33384:0:0:0:0:
469,192,33384,1,2,0:0:0:0:
298,192,33615,1,0,0:0:0:0:
213,192,33845,128,2,34307:0:0:0:0:
384,192,34307,1,2,0:0:0:0:
213,192,34538,1,0,0:0:0:0:
42,192,34768,128,2,35230:0:0:0:0:
128,192,35230,1,2,0:0:0:0:
384,192,35461,1,0,0:0:0:0:
213,192,35691,1,2,0:0:0:55:Tom3.wav
213,192,35922,1,2,0:0:0:55:Tom3.wav
298,192,36153,128,0,36845:0:0:0:0:
128,192,36845,1,2,0:0:0:0:
384,192,37076,1,8,0:0:0:0:
384,192,37538,1,6,0:0:0:0:
298,192,37538,128,4,37999:0:0:0:0:
42,192,37999,1,8,0:0:0:0:
213,192,37999,128,0,38461:0:0:0:0:
298,192,38461,1,0,0:0:0:70:Hat Open.wav
128,192,38691,1,2,0:0:0:0:
384,192,38922,1,8,0:0:0:0:
213,192,39384,1,2,0:0:0:0:
384,192,39615,1,0,0:0:0:0:
128,192,39845,1,8,0:0:0:0:
213,192,40076,1,0,0:0:0:0:
469,192,40307,1,0,0:0:0:70:Hat Open.wav
298,192,40768,1,8,0:0:0:0:
213,192,40999,1,0,0:0:0:0:
128,192,41230,128,2,41691:0:0:0:0:
384,192,41691,128,8,42153:0:0:0:0:
213,192,42153,1,0,0:0:0:70:Hat Open.wav
42,192,42384,1,2,0:0:0:0:
469,192,42615,1,8,0:0:0:0:
384,192,43076,1,2,0:0:0:0:
128,192,43307,1,0,0:0:0:0:
298,192,43538,1,8,0:0:0:0:
213,192,43768,1,0,0:0:0:0:
42,192,43999,1,0,0:0:0:70:Hat Open.wav
298,192,44461,1,8,0:0:0:0:
469,192,44691,1,8,0:0:0:0:
128,192,44922,1,6,0:0:0:0:
384,192,44922,128,4,45384:0:0:0:0:
213,192,45384,128,8,45845:0:0:0:0:
298,192,45845,128,2,46307:0:0:0:0:
384,192,46307,128,8,46768:0:0:0:0:
213,192,46768,128,2,47230:0:0:0:0:
384,192,47230,1,8,0:0:0:0:
298,192,47461,1,0,0:0:0:70:Hat Open.wav
213,192,47691,128,2,48153:0:0:0:0:
128,192,48153,128,8,48615:0:0:0:0:
42,192,48615,128,2,49999:0:0:0:0:
469,192,48615,1,0,0:0:0:0:
469,192,49076,1,2,0:0:0:0:
469,192,49538,1,2,0:0:0:0:
469,192,49999,1,2,0:0:0:0:
128,192,50461,1,2,0:0:0:60:Tom2.wav
384,192,50691,1,2,0:0:0:60:Tom2.wav
128,192,50922,1,2,0:0:0:60:Tom1.wav
384,192,51153,1,2,0:0:0:60:Tom1.wav
128,192,51384,1,2,0:0:0:60:Tom1.wav
213,192,51845,1,0,0:0:0:70:Hat Open2.wav
298,192,52076,1,0,0:0:0:0:
384,192,52307,128,4,52768:0:0:0:0:
128,192,52307,1,2,0:0:0:0:
42,192,52768,1,8,0:0:0:0:
298,192,52999,1,0,0:0:0:0:
128,192,53230,128,2,53691:0:0:0:0:
469,192,53691,1,8,0:0:0:0:
384,192,53922,1,0,0:0:0:60:Hat Open2.wav
298,192,54153,128,2,54615:0:0:0:0:
128,192,54615,1,8,0:0:0:0:
298,192,54845,1,0,0:0:0:0:
469,192,55076,1,2,0:0:0:0:
128,192,55538,1,8,0:0:0:0:
213,192,55768,1,2,0:0:0:0:
298,192,55999,1,2,0:0:0:0:
42,192,56345,1,0,0:0:0:0:
384,192,56691,1,0,0:0:0:0:
128,192,56922,1,2,0:0:0:0:
213,192,57268,1,0,0:0:0:0:
384,192,57615,1,0,0:0:0:60:Hat Open2.wav
128,192,57845,1,2,0:0:0:0:
298,192,58076,1,0,0:0:0:0:
469,192,58307,1,8,0:0:0:0:
213,192,58538,1,0,0:0:0:0:
384,192,58768,128,2,59230:0:0:0:0:
128,192,59230,128,8,59691:0:0:0:0:
298,192,59691,128,6,60153:0:0:0:0:
213,192,59691,1,4,0:0:0:0:
469,192,60153,1,8,0:0:0:0:
128,192,60384,1,0,0:0:0:0:
213,192,60615,128,2,61076:0:0:0:0:
384,192,61076,1,8,0:0:0:0:
298,192,61307,1,0,0:0:0:60:Hat Open2.wav
128,192,61538,128,2,61999:0:0:0:0:
213,192,61999,1,8,0:0:0:0:
298,192,62230,1,0,0:0:0:0:
384,192,62461,1,2,0:0:0:0:
213,192,62922,1,8,0:0:0:0:
298,192,63153,1,2,0:0:0:0:
469,192,63384,1,2,0:0:0:0:
384,192,63730,1,0,0:0:0:0:
213,192,64076,1,0,0:0:0:0:
42,192,64307,1,2,0:0:0:0:
298,192,64538,1,0,0:0:0:0:
128,192,64768,1,8,0:0:0:0:
384,192,64999,1,0,0:0:0:60:Hat Open2.wav
213,192,65230,128,2,65691:0:0:0:0:
298,192,65691,128,8,66153:0:0:0:0:
384,192,66153,128,8,66615:0:0:0:0:
298,192,66615,1,8,0:0:0:0:
213,192,66845,1,8,0:0:0:0:
128,192,67076,128,6,67538:0:0:0:0:
384,192,67076,1,4,0:0:0:0:
469,192,67538,1,8,0:0:0:0:
213,192,67768,1,0,0:0:0:0:
384,192,67999,128,2,68461:0:0:0:0:
42,192,68461,1,8,0:0:0:0:
128,192,68691,1,0,0:0:0:60:Hat Open2.wav
213,192,68922,128,2,69384:0:0:0:0:
384,192,69384,1,8,0:0:0:0:
213,192,69615,1,0,0:0:0:0:
42,192,69845,1,2,0:0:0:0:
384,192,70307,1,8,0:0:0:0:
298,192,70538,1,2,0:0:0:0:
213,192,70768,1,2,0:0:0:0:
469,192,71115,1,0,0:0:0:0:
128,192,71461,1,0,0:0:0:0:
384,192,71691,1,2,0:0:0:0:
298,192,72038,1,0,0:0:0:0:
128,192,72384,1,0,0:0:0:60:Hat Open2.wav
384,192,72615,1,2,0:0:0:0:
213,192,72845,1,0,0:0:0:0:
42,192,73076,1,8,0:0:0:0:
298,192,73307,1,0,0:0:0:0:
128,192,73538,128,2,73999:0:0:0:0:
384,192,73999,128,8,74461:0:0:0:0:
213,192,74461,128,6,74922:0:0:0:0:
298,192,74461,1,4,0:0:0:0:
42,192,74922,1,8,0:0:0:0:
384,192,75153,1,0,0:0:0:0:
298,192,75384,128,2,75845:0:0:0:0:
128,192,75845,1,8,0:0:0:0:
213,192,76076,1,0,0:0:0:60:Hat Open2.wav
384,192,76307,128,2,76768:0:0:0:0:
298,192,76768,1,8,0:0:0:0:
213,192,76999,1,0,0:0:0:0:
128,192,77230,1,2,0:0:0:0:
298,192,77691,1,8,0:0:0:0:
213,192,77922,1,2,0:0:0:0:
42,192,78153,1,2,0:0:0:0:
128,192,78499,1,0,0:0:0:0:
298,192,78845,1,0,0:0:0:0:
469,192,79076,1,2,0:0:0:0:
213,192,79307,1,0,0:0:0:0:
384,192,79538,1,8,0:0:0:0:
128,192,79768,1,0,0:0:0:0:
298,192,79999,128,2,80461:0:0:0:0:
213,192,80461,128,2,80922:0:0:0:0:
128,192,80922,128,2,81384:0:0:0:0:
42,192,81384,128,8,81845:0:0:0:0:
469,192,81845,128,6,82307:0:0:0:0:
213,192,81845,1,4,0:0:0:0:
298,192,82307,128,8,82768:0:0:0:0:
469,192,82768,128,2,83230:0:0:0:0:
298,192,83230,128,8,83691:0:0:0:0:
469,192,83691,128,2,84153:0:0:0:0:
128,192,84153,1,8,0:0:0:0:
213,192,84384,1,0,0:0:0:0:
384,192,84615,128,2,85076:0:0:0:0:
298,192,85076,1,8,0:0:0:0:
128,192,85307,1,0,0:0:0:0:
42,192,85538,128,2,85999:0:0:0:0:
384,192,85999,128,8,86461:0:0:0:0:
213,192,86461,128,2,86922:0:0:0:0:
469,192,86922,128,8,87384:0:0:0:0:
128,192,87384,128,2,88307:0:0:0:0:
384,192,87845,1,2,0:0:0:0:
384,192,88307,1,2,0:0:0:0:
213,192,88538,1,6,0:0:0:0:
