osu file format v14

[General]
AudioFilename: audio.mp3
AudioLeadIn: 0
PreviewTime: 51845
Countdown: 0
SampleSet: Soft
StackLeniency: 0.7
Mode: 3
LetterboxInBreaks: 0
SpecialStyle: 0
WidescreenStoryboard: 1

[Editor]
DistanceSpacing: 1.2
BeatDivisor: 4
GridSize: 4
TimelineZoom: 2.599999

[Metadata]
Title:Cinderella (TV Size)
TitleUnicode:シンデレラ (TV Size)
Artist:CIDER GIRL
ArtistUnicode:サイダーガール
Creator:Japeynius
Version:4k Hard
Source:古見さんは、コミュ症です。
Tags:Komi Can't Communicate Komi-san wa Communication Shougai desu. opening op 古見硝子 komi shouko komyu komyushou komisan cant japanese anime jpop pop j-pop フジムラ 知 Yurin 江口亮 cidergirl TheFunk Rhezie MEGAtive k_a_t_a_g_i_r_i katagiri randelman4ik
BeatmapID:3395443
BeatmapSetID:1606009

[Difficulty]
HPDrainRate:7.5
CircleSize:4
OverallDifficulty:7.5
ApproachRate:5
SliderMultiplier:1.4
SliderTickRate:1

[Events]
//Background and Video events
0,0,"Komisan.png",0,0
//Break Periods
//Storyboard Layer 0 (Background)
//Storyboard Layer 1 (Fail)
//Storyboard Layer 2 (Pass)
//Storyboard Layer 3 (Foreground)
//Storyboard Layer 4 (Overlay)
//Storyboard Sound Samples

[TimingPoints]
615,461.538461538462,4,2,1,60,1,0
52307,-100,4,2,1,60,0,1
66961,-100,4,2,1,60,0,0
67076,-100,4,2,1,60,0,1
81845,-100,4,2,1,60,0,0

[HitObjects]
64,192,615,5,2,0:0:0:70:Hat Open.wav
448,192,615,128,0,1307:0:0:0:0:
192,192,615,1,0,0:0:0:0:
192,192,961,1,2,0:0:0:0:
64,192,1307,1,2,0:0:0:0:
192,192,1422,1,0,0:0:0:0:
320,192,1538,1,0,0:0:0:70:Hat Open.wav
448,192,1538,128,0,1884:0:0:0:0:
64,192,1884,1,8,0:0:0:0:
320,192,1884,1,0,0:0:0:0:
320,192,2230,1,0,0:0:0:25:Tom1.wav
192,192,2345,1,0,0:0:0:25:Tom2.wav
64,192,2461,1,0,0:0:0:70:Hat Open.wav
320,192,2461,128,0,2691:0:0:0:25:Tom3.wav
192,192,2691,128,0,2922:0:0:0:0:
320,192,2807,1,2,0:0:0:0:
448,192,2922,128,0,3153:0:0:0:70:Hat Open.wav
64,192,3153,128,2,3384:0:0:0:0:
192,192,3153,1,0,0:0:0:0:
320,192,3384,128,0,3730:0:0:0:70:Hat Open.wav
64,192,3730,1,8,0:0:0:0:
192,192,3730,1,0,0:0:0:0:
448,192,3845,128,0,4076:0:0:0:70:Hat Open.wav
192,192,4076,128,0,4307:0:0:0:0:
64,192,4307,1,2,0:0:0:70:Hat Open.wav
320,192,4307,128,0,4653:0:0:0:0:
64,192,4653,128,2,4999:0:0:0:0:
448,192,4653,1,0,0:0:0:0:
448,192,4999,128,2,5230:0:0:0:0:
320,192,4999,1,0,0:0:0:0:
64,192,5230,128,0,5461:0:0:0:70:Hat Open.wav
192,192,5230,1,0,0:0:0:0:
320,192,5461,128,0,5691:0:0:0:0:
448,192,5576,1,8,0:0:0:0:
64,192,5576,1,0,0:0:0:0:
192,192,5691,128,0,5922:0:0:0:0:
448,192,5922,128,0,6153:0:0:0:25:Tom1.wav
320,192,6038,1,0,0:0:0:25:Tom2.wav
192,192,6153,1,0,0:0:0:25:Tom3.wav
64,192,6268,1,0,0:0:0:0:
448,192,6384,1,0,0:0:0:0:
192,192,6499,1,0,0:0:0:0:
320,192,6615,1,0,0:0:0:0:
64,192,6730,1,0,0:0:0:0:
320,192,6845,1,0,0:0:0:0:
192,192,6961,1,0,0:0:0:0:
64,192,7076,1,2,0:0:0:0:
320,192,7076,1,0,0:0:0:0:
448,192,7191,1,0,0:0:0:0:
192,192,7307,1,2,0:0:0:0:
320,192,7422,1,2,0:0:0:0:
64,192,7538,1,8,0:0:0:30:soft-hitfinish.wav
192,192,7538,1,0,0:0:0:0:
320,192,7768,1,0,0:0:0:0:
192,192,7884,1,0,0:0:0:0:
320,192,7999,1,6,0:0:0:0:
64,192,7999,1,4,0:0:0:0:
448,192,7999,128,0,8230:0:0:0:0:
64,192,8230,1,0,0:0:0:0:
192,192,8345,1,0,0:0:0:0:
320,192,8461,128,8,8691:0:0:0:0:
448,192,8461,1,0,0:0:0:0:
192,192,8691,1,0,0:0:0:0:
64,192,8807,1,0,0:0:0:0:
448,192,8922,128,2,9153:0:0:0:0:
320,192,8922,1,0,0:0:0:0:
64,192,9153,1,0,0:0:0:0:
192,192,9268,1,0,0:0:0:0:
320,192,9384,128,8,9615:0:0:0:0:
448,192,9384,1,0,0:0:0:0:
192,192,9615,1,0,0:0:0:0:
320,192,9730,1,0,0:0:0:0:
64,192,9845,1,2,0:0:0:0:
448,192,9845,128,0,10076:0:0:0:0:
192,192,10076,1,0,0:0:0:0:
64,192,10191,1,0,0:0:0:0:
448,192,10307,1,8,0:0:0:0:
320,192,10307,1,0,0:0:0:0:
64,192,10422,1,0,0:0:0:0:
192,192,10538,1,0,0:0:0:0:
448,192,10653,1,0,0:0:0:0:
192,192,10768,1,2,0:0:0:0:
64,192,10768,1,0,0:0:0:0:
320,192,10884,1,0,0:0:0:0:
64,192,10999,128,0,11230:0:0:0:0:
192,192,11230,1,8,0:0:0:0:
448,192,11230,128,0,11461:0:0:0:0:
320,192,11461,128,0,11691:0:0:0:0:
64,192,11691,128,2,11922:0:0:0:0:
448,192,11691,1,0,0:0:0:0:
192,192,11922,1,0,0:0:0:0:
448,192,12153,1,8,0:0:0:0:
320,192,12153,128,0,12384:0:0:0:0:
64,192,12384,1,0,0:0:0:0:
448,192,12615,128,2,12845:0:0:0:0:
192,192,12615,1,0,0:0:0:0:
64,192,12845,1,0,0:0:0:0:
192,192,13076,128,8,13307:0:0:0:0:
320,192,13076,1,0,0:0:0:0:
448,192,13307,1,0,0:0:0:0:
64,192,13538,1,2,0:0:0:0:
448,192,13538,128,0,14230:0:0:0:0:
320,192,13538,128,0,14230:0:0:0:0:
192,192,13768,1,0,0:0:0:0:
64,192,13999,1,8,0:0:0:0:
64,192,14230,128,0,14461:0:0:0:0:
192,192,14461,1,2,0:0:0:0:
320,192,14461,1,0,0:0:0:0:
64,192,14576,1,8,0:0:0:0:
448,192,14576,1,0,0:0:0:0:
320,192,14807,1,8,0:0:0:0:
448,192,14807,1,0,0:0:0:0:
192,192,14922,1,8,0:0:0:0:
64,192,14922,1,0,0:0:0:0:
320,192,15153,1,8,0:0:0:0:
64,192,15268,1,8,0:0:0:0:
192,192,15384,128,4,15615:0:0:0:0:
448,192,15384,1,2,0:0:0:0:
448,192,15615,1,0,0:0:0:0:
320,192,15730,1,0,0:0:0:0:
64,192,15845,128,8,16076:0:0:0:0:
192,192,15845,1,0,0:0:0:0:
320,192,16076,1,0,0:0:0:0:
448,192,16191,1,0,0:0:0:0:
192,192,16307,128,2,16538:0:0:0:0:
64,192,16307,1,0,0:0:0:0:
448,192,16538,1,0,0:0:0:0:
320,192,16653,1,0,0:0:0:0:
64,192,16768,128,8,16999:0:0:0:0:
192,192,16768,1,0,0:0:0:0:
320,192,16999,1,0,0:0:0:0:
192,192,17115,1,0,0:0:0:0:
320,192,17230,128,2,17461:0:0:0:0:
64,192,17230,1,0,0:0:0:0:
448,192,17461,1,0,0:0:0:0:
64,192,17576,1,0,0:0:0:0:
320,192,17691,1,8,0:0:0:0:
448,192,17691,1,0,0:0:0:0:
192,192,17807,1,0,0:0:0:0:
64,192,17922,1,0,0:0:0:0:
448,192,18038,1,0,0:0:0:0:
192,192,18153,1,2,0:0:0:0:
64,192,18153,1,0,0:0:0:0:
320,192,18268,1,0,0:0:0:0:
64,192,18384,128,0,18615:0:0:0:0:
448,192,18615,128,8,18845:0:0:0:0:
192,192,18615,1,0,0:0:0:0:
192,192,18845,128,0,19076:0:0:0:0:
64,192,19076,1,2,0:0:0:0:
448,192,19076,128,0,19307:0:0:0:0:
320,192,19307,1,0,0:0:0:0:
192,192,19538,128,8,19768:0:0:0:0:
64,192,19538,1,0,0:0:0:0:
448,192,19768,1,0,0:0:0:0:
64,192,19999,128,2,20230:0:0:0:0:
320,192,19999,1,0,0:0:0:0:
192,192,20230,1,0,0:0:0:0:
448,192,20461,1,8,0:0:0:0:
320,192,20461,128,0,20691:0:0:0:0:
192,192,20691,1,0,0:0:0:50:Hat Open2.wav
64,192,20922,1,2,0:0:0:0:
448,192,20922,1,0,0:0:0:0:
320,192,21153,1,2,0:0:0:0:
192,192,21153,1,0,0:0:0:0:
320,192,21384,1,2,0:0:0:0:
64,192,21384,1,0,0:0:0:0:
192,192,21615,1,2,0:0:0:0:
448,192,21615,1,0,0:0:0:0:
64,192,21845,1,2,0:0:0:0:
448,192,21845,1,0,0:0:0:0:
192,192,22191,1,2,0:0:0:0:
320,192,22191,1,0,0:0:0:0:
64,192,22307,1,8,0:0:0:0:
448,192,22307,1,0,0:0:0:0:
192,192,22538,1,0,0:0:0:0:
320,192,22653,1,0,0:0:0:0:
64,192,22768,1,4,0:0:0:35:soft-hitfinish.wav
448,192,22768,128,0,23230:0:0:0:0:
192,192,23230,128,2,23691:0:0:0:0:
320,192,23230,1,0,0:0:0:0:
320,192,23691,128,2,24153:0:0:0:0:
64,192,23691,1,0,0:0:0:0:
448,192,24153,1,2,0:0:0:0:
192,192,24153,128,0,24384:0:0:0:0:
64,192,24384,128,0,25538:0:0:0:0:
320,192,24615,1,2,0:0:0:0:
192,192,24615,1,0,0:0:0:0:
192,192,25076,1,2,0:0:0:0:
448,192,25076,1,0,0:0:0:0:
448,192,25538,1,2,0:0:0:0:
320,192,25538,1,0,0:0:0:0:
320,192,25999,1,2,0:0:0:0:
448,192,25999,1,0,0:0:0:0:
64,192,26230,1,0,0:0:0:0:
192,192,26461,1,2,0:0:0:0:
448,192,26461,128,0,26691:0:0:0:0:
320,192,26922,128,2,27384:0:0:0:0:
448,192,26922,1,0,0:0:0:0:
192,192,27384,128,2,27615:0:0:0:0:
64,192,27384,1,0,0:0:0:0:
448,192,27730,128,0,27961:0:0:0:0:
64,192,27845,1,2,0:0:0:0:
192,192,27845,1,0,0:0:0:0:
320,192,28076,128,0,28999:0:0:0:0:
192,192,28307,1,2,0:0:0:0:
448,192,28307,1,0,0:0:0:0:
64,192,28768,1,2,0:0:0:0:
448,192,28768,1,0,0:0:0:0:
192,192,28999,128,0,29230:0:0:0:0:
64,192,29230,128,2,29691:0:0:0:0:
448,192,29230,1,0,0:0:0:0:
320,192,29691,1,2,0:0:0:0:
192,192,29691,1,0,0:0:0:0:
192,192,29922,128,0,30153:0:0:0:30:Hat Open.wav
448,192,30153,128,2,30845:0:0:0:0:
320,192,30153,1,0,0:0:0:0:
192,192,30615,1,2,0:0:0:0:
64,192,30615,1,0,0:0:0:0:
320,192,30845,128,0,31076:0:0:0:0:
64,192,31076,128,2,31538:0:0:0:0:
192,192,31076,1,0,0:0:0:0:
320,192,31538,1,2,0:0:0:0:
448,192,31538,1,0,0:0:0:0:
192,192,31768,128,0,31999:0:0:0:0:
320,192,31999,128,2,32691:0:0:0:0:
64,192,31999,1,0,0:0:0:0:
192,192,32461,1,2,0:0:0:0:
64,192,32461,1,0,0:0:0:0:
64,192,32691,128,0,32922:0:0:0:0:
448,192,32922,128,2,33384:0:0:0:0:
320,192,32922,1,0,0:0:0:0:
64,192,33384,1,2,0:0:0:0:
192,192,33384,1,0,0:0:0:0:
320,192,33615,128,0,33845:0:0:0:0:
64,192,33845,128,2,34538:0:0:0:0:
448,192,33845,1,0,0:0:0:0:
448,192,34307,1,2,0:0:0:0:
192,192,34307,1,0,0:0:0:0:
320,192,34538,128,0,34768:0:0:0:0:
192,192,34768,128,2,35461:0:0:0:0:
64,192,34768,1,0,0:0:0:0:
320,192,35230,1,2,0:0:0:0:
448,192,35230,1,0,0:0:0:0:
448,192,35461,128,0,35691:0:0:0:0:
64,192,35691,1,2,0:0:0:55:Tom3.wav
192,192,35691,1,2,0:0:0:0:
320,192,35922,1,2,0:0:0:55:Tom3.wav
448,192,35922,1,2,0:0:0:0:
64,192,36153,1,0,0:0:0:0:
320,192,36268,1,0,0:0:0:0:
192,192,36384,1,0,0:0:0:0:
320,192,36499,1,0,0:0:0:0:
64,192,36615,1,0,0:0:0:0:
448,192,36730,1,0,0:0:0:0:
192,192,36845,1,2,0:0:0:0:
64,192,36845,1,0,0:0:0:0:
320,192,37076,1,8,0:0:0:0:
448,192,37076,1,0,0:0:0:0:
192,192,37191,1,2,0:0:0:0:
64,192,37191,1,0,0:0:0:0:
320,192,37307,1,0,0:0:0:0:
64,192,37538,1,6,0:0:0:0:
448,192,37538,1,4,0:0:0:0:
192,192,37538,1,0,0:0:0:0:
320,192,37768,1,0,0:0:0:0:
192,192,37999,1,8,0:0:0:0:
64,192,37999,1,0,0:0:0:0:
320,192,38345,1,0,0:0:0:0:
448,192,38461,1,0,0:0:0:70:Hat Open.wav
64,192,38461,1,0,0:0:0:0:
192,192,38691,1,2,0:0:0:0:
320,192,38922,1,8,0:0:0:0:
448,192,38922,1,0,0:0:0:0:
64,192,39038,1,2,0:0:0:0:
192,192,39153,1,0,0:0:0:0:
64,192,39384,1,2,0:0:0:0:
448,192,39384,1,0,0:0:0:0:
192,192,39615,128,0,39845:0:0:0:0:
448,192,39845,128,8,40076:0:0:0:0:
320,192,39845,1,0,0:0:0:0:
64,192,40076,128,0,40307:0:0:0:0:
448,192,40307,128,0,40538:0:0:0:70:Hat Open.wav
192,192,40307,1,0,0:0:0:0:
192,192,40538,128,2,40768:0:0:0:0:
448,192,40768,128,8,40999:0:0:0:0:
64,192,40768,1,0,0:0:0:0:
320,192,40884,1,2,0:0:0:0:
64,192,40999,128,0,41230:0:0:0:0:
320,192,41230,1,2,0:0:0:0:
448,192,41230,1,0,0:0:0:0:
192,192,41461,1,0,0:0:0:0:
64,192,41691,1,8,0:0:0:0:
448,192,41691,1,0,0:0:0:0:
192,192,42038,1,0,0:0:0:0:
64,192,42153,1,0,0:0:0:70:Hat Open.wav
448,192,42153,1,0,0:0:0:0:
192,192,42384,1,2,0:0:0:0:
320,192,42615,1,8,0:0:0:0:
448,192,42615,1,0,0:0:0:0:
192,192,42730,1,2,0:0:0:0:
64,192,42845,1,0,0:0:0:0:
192,192,43076,1,2,0:0:0:0:
448,192,43076,1,0,0:0:0:0:
64,192,43307,128,0,43422:0:0:0:0:
320,192,43422,128,0,43538:0:0:0:0:
64,192,43538,1,8,0:0:0:0:
192,192,43538,1,0,0:0:0:0:
320,192,43768,1,0,0:0:0:0:
320,192,43999,128,0,44115:0:0:0:70:Hat Open.wav
64,192,43999,1,0,0:0:0:0:
448,192,44115,128,0,44230:0:0:0:0:
192,192,44230,1,2,0:0:0:0:
64,192,44345,128,0,44461:0:0:0:0:
320,192,44461,1,8,0:0:0:0:
448,192,44461,1,0,0:0:0:0:
192,192,44576,1,2,0:0:0:0:
320,192,44691,1,8,0:0:0:0:
192,192,44807,1,8,0:0:0:0:
64,192,44922,1,6,0:0:0:0:
320,192,44922,1,4,0:0:0:0:
448,192,44922,128,0,45153:0:0:0:0:
192,192,45153,1,0,0:0:0:0:
448,192,45384,1,8,0:0:0:0:
192,192,45384,128,0,45615:0:0:0:0:
320,192,45615,1,0,0:0:0:70:Hat Open.wav
64,192,45845,1,2,0:0:0:0:
320,192,45845,128,0,46076:0:0:0:0:
192,192,46076,1,0,0:0:0:70:Hat Open.wav
192,192,46307,1,8,0:0:0:0:
64,192,46307,128,0,46538:0:0:0:0:
320,192,46538,1,0,0:0:0:70:Hat Open.wav
448,192,46768,1,2,0:0:0:0:
320,192,46768,128,0,47230:0:0:0:0:
64,192,46999,1,0,0:0:0:70:Hat Open.wav
64,192,47230,1,8,0:0:0:0:
192,192,47230,1,0,0:0:0:0:
320,192,47461,128,0,47691:0:0:0:70:Hat Open.wav
448,192,47691,128,2,48153:0:0:0:0:
64,192,47691,1,0,0:0:0:0:
192,192,47922,1,0,0:0:0:70:Hat Open.wav
64,192,48153,128,8,48615:0:0:0:0:
192,192,48153,1,0,0:0:0:0:
320,192,48384,1,0,0:0:0:50:Hat Open2.wav
320,192,48615,1,2,0:0:0:0:
448,192,48615,1,0,0:0:0:0:
448,192,48845,1,2,0:0:0:0:
192,192,48845,1,0,0:0:0:0:
192,192,49076,1,2,0:0:0:0:
64,192,49076,1,0,0:0:0:0:
64,192,49307,1,2,0:0:0:0:
320,192,49307,1,0,0:0:0:0:
448,192,49538,1,2,0:0:0:0:
192,192,49538,1,0,0:0:0:0:
320,192,49768,1,2,0:0:0:0:
192,192,49768,1,0,0:0:0:0:
64,192,49999,128,2,50230:0:0:0:0:
448,192,49999,1,0,0:0:0:0:
192,192,50230,1,0,0:0:0:0:
320,192,50461,1,2,0:0:0:60:Tom2.wav
448,192,50461,1,0,0:0:0:0:
192,192,50691,1,2,0:0:0:60:Tom2.wav
64,192,50691,1,2,0:0:0:0:
320,192,50922,1,2,0:0:0:60:Tom1.wav
448,192,50922,1,0,0:0:0:0:
192,192,51153,1,2,0:0:0:60:Tom1.wav
64,192,51153,1,2,0:0:0:0:
320,192,51384,128,2,51730:0:0:0:60:Tom1.wav
448,192,51384,128,0,51730:0:0:0:0:
64,192,51615,1,0,0:0:0:70:Hat Open.wav
192,192,51730,1,0,0:0:0:70:Hat Open.wav
320,192,51845,1,0,0:0:0:70:Hat Open2.wav
448,192,51845,1,0,0:0:0:0:
192,192,52076,1,0,0:0:0:0:
448,192,52307,1,4,0:0:0:0:
64,192,52307,128,2,52768:0:0:0:0:
320,192,52307,1,0,0:0:0:0:
192,192,52768,1,8,0:0:0:0:
448,192,52768,1,0,0:0:0:0:
320,192,52999,1,0,0:0:0:0:
192,192,53115,1,0,0:0:0:0:
448,192,53230,128,2,53691:0:0:0:0:
64,192,53230,1,0,0:0:0:0:
192,192,53461,1,0,0:0:0:0:
320,192,53691,1,8,0:0:0:0:
64,192,53691,1,0,0:0:0:0:
64,192,53922,128,0,54153:0:0:0:60:Hat Open2.wav
448,192,54153,128,2,54384:0:0:0:0:
192,192,54153,1,0,0:0:0:0:
64,192,54384,128,0,54615:0:0:0:0:
192,192,54615,128,8,54845:0:0:0:0:
320,192,54615,1,0,0:0:0:0:
448,192,54845,128,0,55076:0:0:0:0:
64,192,55076,128,2,55307:0:0:0:0:
320,192,55076,1,0,0:0:0:0:
448,192,55191,1,0,0:0:0:0:
192,192,55307,1,0,0:0:0:0:
320,192,55422,1,0,0:0:0:0:
448,192,55538,1,8,0:0:0:0:
64,192,55538,1,0,0:0:0:0:
192,192,55768,1,2,0:0:0:0:
320,192,55768,1,0,0:0:0:0:
64,192,55999,1,2,0:0:0:0:
320,192,55999,128,0,56345:0:0:0:0:
448,192,56230,1,0,0:0:0:0:
64,192,56345,128,0,56691:0:0:0:0:
192,192,56461,1,8,0:0:0:0:
320,192,56461,1,0,0:0:0:0:
320,192,56691,128,0,56922:0:0:0:0:
64,192,56807,1,0,0:0:0:0:
448,192,56922,128,2,57268:0:0:0:0:
192,192,56922,1,0,0:0:0:0:
320,192,57153,1,0,0:0:0:0:
64,192,57268,128,0,57615:0:0:0:0:
192,192,57384,1,8,0:0:0:0:
320,192,57384,1,0,0:0:0:0:
320,192,57615,128,0,57845:0:0:0:60:Hat Open2.wav
64,192,57845,1,2,0:0:0:0:
448,192,57845,128,0,58076:0:0:0:0:
192,192,58076,128,0,58307:0:0:0:0:
448,192,58307,1,8,0:0:0:0:
64,192,58307,128,0,58538:0:0:0:0:
320,192,58538,128,0,58768:0:0:0:0:
448,192,58768,128,2,58999:0:0:0:0:
192,192,58768,1,0,0:0:0:0:
64,192,58999,128,0,59230:0:0:0:0:
192,192,59230,128,8,59461:0:0:0:0:
448,192,59230,1,0,0:0:0:0:
320,192,59461,1,2,0:0:0:0:
448,192,59461,1,0,0:0:0:0:
64,192,59691,128,6,60153:0:0:0:0:
320,192,59691,1,4,0:0:0:0:
192,192,59691,1,0,0:0:0:0:
448,192,60153,1,8,0:0:0:0:
320,192,60153,1,0,0:0:0:0:
64,192,60384,1,0,0:0:0:0:
192,192,60499,1,0,0:0:0:0:
448,192,60615,128,2,61076:0:0:0:0:
320,192,60615,1,0,0:0:0:0:
64,192,60845,1,0,0:0:0:0:
192,192,61076,1,8,0:0:0:0:
320,192,61076,1,0,0:0:0:0:
320,192,61307,1,0,0:0:0:60:Hat Open2.wav
192,192,61422,1,0,0:0:0:0:
448,192,61538,1,2,0:0:0:0:
64,192,61538,128,0,61768:0:0:0:0:
320,192,61768,128,0,61999:0:0:0:0:
192,192,61999,128,8,62230:0:0:0:0:
448,192,61999,1,0,0:0:0:0:
64,192,62230,128,0,62461:0:0:0:0:
448,192,62461,128,2,62922:0:0:0:0:
320,192,62461,1,0,0:0:0:0:
64,192,62691,1,0,0:0:0:0:
192,192,62807,1,0,0:0:0:0:
64,192,62922,1,8,0:0:0:0:
320,192,62922,1,0,0:0:0:0:
320,192,63153,1,2,0:0:0:0:
192,192,63153,1,0,0:0:0:0:
192,192,63384,128,2,63730:0:0:0:0:
448,192,63384,1,0,0:0:0:0:
448,192,63615,1,0,0:0:0:0:
320,192,63730,128,0,64076:0:0:0:0:
64,192,63845,1,8,0:0:0:0:
448,192,63845,1,0,0:0:0:0:
64,192,64076,128,0,64307:0:0:0:0:
192,192,64307,128,2,64538:0:0:0:0:
448,192,64538,128,0,64768:0:0:0:0:
320,192,64768,128,8,64999:0:0:0:0:
192,192,64768,1,0,0:0:0:0:
64,192,64999,128,0,65230:0:0:0:60:Hat Open2.wav
320,192,65230,1,2,0:0:0:0:
448,192,65230,1,0,0:0:0:0:
192,192,65345,1,0,0:0:0:0:
448,192,65461,1,0,0:0:0:0:
192,192,65576,1,0,0:0:0:0:
320,192,65691,1,8,0:0:0:0:
448,192,65691,1,0,0:0:0:0:
64,192,65807,1,0,0:0:0:0:
192,192,65922,1,0,0:0:0:0:
320,192,66038,1,2,0:0:0:0:
448,192,66153,1,8,0:0:0:0:
64,192,66153,1,0,0:0:0:0:
192,192,66268,1,8,0:0:0:0:
320,192,66268,1,0,0:0:0:0:
320,192,66499,1,8,0:0:0:0:
448,192,66499,1,0,0:0:0:0:
192,192,66615,1,8,0:0:0:0:
64,192,66615,128,0,66845:0:0:0:0:
320,192,66845,128,8,67076:0:0:0:0:
448,192,67076,128,6,67538:0:0:0:0:
64,192,67076,1,4,0:0:0:0:
192,192,67076,1,0,0:0:0:0:
192,192,67307,1,0,0:0:0:0:
320,192,67538,1,8,0:0:0:0:
64,192,67538,1,0,0:0:0:0:
192,192,67768,1,0,0:0:0:0:
320,192,67884,1,0,0:0:0:0:
64,192,67999,128,2,68461:0:0:0:0:
448,192,67999,1,0,0:0:0:0:
320,192,68230,1,0,0:0:0:0:
192,192,68461,1,8,0:0:0:0:
448,192,68461,1,0,0:0:0:0:
320,192,68691,128,0,68922:0:0:0:60:Hat Open2.wav
64,192,68922,128,2,69153:0:0:0:0:
448,192,68922,1,0,0:0:0:0:
320,192,69153,128,0,69384:0:0:0:0:
448,192,69384,128,8,69615:0:0:0:0:
192,192,69384,1,0,0:0:0:0:
64,192,69615,128,0,69845:0:0:0:0:
448,192,69845,128,2,70076:0:0:0:0:
320,192,69845,1,0,0:0:0:0:
192,192,69961,1,0,0:0:0:0:
64,192,70076,1,0,0:0:0:0:
320,192,70191,1,0,0:0:0:0:
192,192,70307,1,8,0:0:0:0:
64,192,70307,1,0,0:0:0:0:
448,192,70538,1,2,0:0:0:0:
320,192,70538,1,0,0:0:0:0:
448,192,70768,1,2,0:0:0:0:
192,192,70768,128,0,71115:0:0:0:0:
320,192,70999,1,0,0:0:0:0:
448,192,71115,128,0,71461:0:0:0:0:
64,192,71230,1,8,0:0:0:0:
192,192,71230,1,0,0:0:0:0:
320,192,71461,128,0,71691:0:0:0:0:
64,192,71691,128,2,72038:0:0:0:0:
192,192,71691,1,0,0:0:0:0:
448,192,71922,1,0,0:0:0:0:
320,192,72038,128,0,72384:0:0:0:0:
192,192,72153,1,8,0:0:0:0:
448,192,72153,1,0,0:0:0:0:
64,192,72384,128,0,72615:0:0:0:60:Hat Open2.wav
448,192,72615,1,2,0:0:0:0:
320,192,72615,128,0,72845:0:0:0:0:
192,192,72845,128,0,73076:0:0:0:0:
64,192,73076,1,8,0:0:0:0:
448,192,73076,128,0,73307:0:0:0:0:
64,192,73307,128,0,73538:0:0:0:0:
448,192,73538,1,2,0:0:0:0:
192,192,73538,128,0,73768:0:0:0:0:
320,192,73768,128,0,73999:0:0:0:0:
448,192,73999,128,8,74461:0:0:0:0:
64,192,73999,1,0,0:0:0:0:
192,192,74230,1,2,0:0:0:0:
64,192,74230,1,0,0:0:0:0:
192,192,74461,1,6,0:0:0:0:
320,192,74461,1,4,0:0:0:0:
64,192,74461,128,0,74922:0:0:0:0:
192,192,74691,1,0,0:0:0:0:
448,192,74922,1,8,0:0:0:0:
320,192,74922,1,0,0:0:0:0:
192,192,75153,1,0,0:0:0:0:
320,192,75268,1,0,0:0:0:0:
64,192,75384,1,2,0:0:0:0:
448,192,75384,128,0,75845:0:0:0:0:
320,192,75615,1,0,0:0:0:0:
192,192,75845,1,8,0:0:0:0:
64,192,75845,1,0,0:0:0:0:
320,192,76076,1,0,0:0:0:60:Hat Open2.wav
192,192,76191,1,0,0:0:0:0:
448,192,76307,1,2,0:0:0:0:
64,192,76307,128,0,76538:0:0:0:0:
320,192,76538,128,0,76768:0:0:0:0:
192,192,76768,128,8,76999:0:0:0:0:
448,192,76768,1,0,0:0:0:0:
448,192,76999,128,0,77230:0:0:0:0:
192,192,77230,128,2,77691:0:0:0:0:
64,192,77230,1,0,0:0:0:0:
448,192,77461,1,0,0:0:0:0:
320,192,77576,1,0,0:0:0:0:
64,192,77691,1,8,0:0:0:0:
448,192,77691,1,0,0:0:0:0:
448,192,77922,1,2,0:0:0:0:
320,192,77922,1,0,0:0:0:0:
64,192,78153,1,2,0:0:0:0:
192,192,78153,128,0,78499:0:0:0:0:
320,192,78384,1,0,0:0:0:0:
448,192,78499,128,0,78845:0:0:0:0:
320,192,78615,1,8,0:0:0:0:
64,192,78615,1,0,0:0:0:0:
64,192,78845,128,0,79076:0:0:0:0:
192,192,78845,1,0,0:0:0:0:
320,192,79076,128,2,79307:0:0:0:0:
448,192,79076,1,0,0:0:0:0:
192,192,79307,128,0,79538:0:0:0:0:
64,192,79538,128,8,79768:0:0:0:0:
448,192,79538,1,0,0:0:0:0:
320,192,79768,128,0,79999:0:0:0:0:
448,192,79999,1,2,0:0:0:0:
64,192,79999,1,0,0:0:0:0:
192,192,80230,1,2,0:0:0:0:
64,192,80230,1,0,0:0:0:0:
320,192,80461,1,2,0:0:0:0:
448,192,80461,1,0,0:0:0:0:
320,192,80691,1,2,0:0:0:0:
64,192,80691,1,0,0:0:0:0:
64,192,80922,1,2,0:0:0:0:
192,192,80922,1,0,0:0:0:0:
64,192,81268,1,2,0:0:0:0:
448,192,81268,1,0,0:0:0:0:
192,192,81384,1,8,0:0:0:0:
320,192,81384,1,0,0:0:0:0:
448,192,81499,1,2,0:0:0:0:
64,192,81499,1,0,0:0:0:0:
64,192,81845,1,6,0:0:0:0:
320,192,81845,128,4,82076:0:0:0:0:
448,192,81845,1,0,0:0:0:0:
64,192,82076,1,0,0:0:0:0:
192,192,82191,1,0,0:0:0:0:
448,192,82307,128,8,82538:0:0:0:0:
320,192,82307,1,0,0:0:0:0:
192,192,82538,1,0,0:0:0:0:
64,192,82653,1,0,0:0:0:0:
320,192,82768,128,2,82999:0:0:0:0:
448,192,82768,1,0,0:0:0:0:
192,192,82999,1,0,0:0:0:0:
64,192,83115,1,0,0:0:0:0:
448,192,83230,128,8,83461:0:0:0:0:
320,192,83230,1,0,0:0:0:0:
64,192,83461,1,0,0:0:0:0:
192,192,83576,1,0,0:0:0:0:
320,192,83691,128,2,83922:0:0:0:0:
448,192,83691,1,0,0:0:0:0:
64,192,83922,1,0,0:0:0:0:
192,192,84038,1,0,0:0:0:0:
448,192,84153,1,8,0:0:0:0:
320,192,84153,1,0,0:0:0:0:
192,192,84268,1,0,0:0:0:0:
448,192,84384,1,0,0:0:0:0:
64,192,84499,1,0,0:0:0:0:
192,192,84615,1,2,0:0:0:0:
320,192,84615,1,0,0:0:0:0:
448,192,84730,1,0,0:0:0:0:
320,192,84845,128,0,85076:0:0:0:0:
448,192,85076,128,8,85307:0:0:0:0:
192,192,85076,1,0,0:0:0:0:
64,192,85307,128,0,85538:0:0:0:0:
448,192,85538,128,2,85768:0:0:0:0:
192,192,85538,1,0,0:0:0:0:
320,192,85768,1,0,0:0:0:0:
192,192,85999,128,8,86230:0:0:0:0:
64,192,85999,1,0,0:0:0:0:
448,192,86230,1,0,0:0:0:0:
64,192,86461,128,2,86691:0:0:0:0:
320,192,86461,1,0,0:0:0:0:
192,192,86691,1,0,0:0:0:0:
320,192,86922,128,8,87153:0:0:0:0:
448,192,86922,1,0,0:0:0:0:
64,192,87153,1,0,0:0:0:60:Hat Open2.wav
192,192,87384,1,2,0:0:0:0:
448,192,87384,1,0,0:0:0:0:
64,192,87615,1,2,0:0:0:0:
320,192,87615,1,0,0:0:0:0:
192,192,87845,1,2,0:0:0:0:
448,192,87845,1,0,0:0:0:0:
320,192,88076,1,2,0:0:0:0:
192,192,88076,1,0,0:0:0:0:
64,192,88307,1,2,0:0:0:0:
320,192,88307,1,0,0:0:0:0:
448,192,88538,1,6,0:0:0:0:
64,192,88538,1,4,0:0:0:0:
192,192,88538,1,0,0:0:0:0:
