osu file format v14

[General]
AudioFilename: audio.mp3
AudioLeadIn: 0
PreviewTime: 51896
Countdown: 0
SampleSet: Soft
StackLeniency: 0.3
Mode: 0
LetterboxInBreaks: 0
WidescreenStoryboard: 1

[Editor]
Bookmarks: 83982,98752
DistanceSpacing: 1.3
BeatDivisor: 4
GridSize: 8
TimelineZoom: 2.2

[Metadata]
Title:Cinderella
TitleUnicode:シンデレラ
Artist:CIDER GIRL
ArtistUnicode:サイダーガール
Creator:Chizu-Kun
Version:Normal
Source:古見さんは、コミュ症です。
Tags:komi can't communicate komi-san wa communication shougai desu. 古見硝子 komi shouko komyu komisan cant japanese anime opening op j-pop jpop pop
BeatmapID:3514295
BeatmapSetID:1719578

[Difficulty]
HPDrainRate:3.5
CircleSize:3.5
OverallDifficulty:5
ApproachRate:6
SliderMultiplier:1.3
SliderTickRate:1

[Events]
//Background and Video events
0,0,"najimi.jpg",0,0
//Break Periods
2,128480,134615
//Storyboard Layer 0 (Background)
//Storyboard Layer 1 (Fail)
//Storyboard Layer 2 (Pass)
//Storyboard Layer 3 (Foreground)
//Storyboard Layer 4 (Overlay)
//Storyboard Sound Samples

[TimingPoints]
896,461.538461538462,4,2,1,50,1,0
896,-100,4,2,1,50,0,0
1819,-100,4,2,1,70,0,0
6434,-100,4,2,2,60,0,0
8280,-100,4,2,10,70,0,0
8511,-100,4,2,2,70,0,0
15665,-100,4,2,10,70,0,0
15896,-100,4,2,2,70,0,0
23049,-100,4,2,1,60,0,0
37819,-100,4,2,1,65,0,0
49357,-100,4,2,1,66,0,0
49819,-100,4,2,1,68,0,0
50280,-100,4,2,1,70,0,0
50742,-100,4,2,1,75,0,0
51203,-100,4,2,1,78,0,0
51665,-100,4,2,1,80,0,0
52588,-100,4,2,10,85,0,0
52819,-100,4,2,1,85,0,0
59972,-100,4,2,10,85,0,0
60203,-100,4,2,1,85,0,0
67357,-100,4,2,10,85,0,0
67588,-100,4,2,1,85,0,0
74742,-100,4,2,10,85,0,0
74972,-100,4,2,1,85,0,0
82126,-100,4,2,1,60,0,0
83972,461.538461538462,4,2,5,55,1,0
83972,-100,4,2,5,55,0,0
96896,-100,4,2,1,55,0,0
98742,-100,4,2,1,65,0,0
111665,-100,4,2,1,70,0,0
112126,-100,4,2,1,75,0,0
112588,-100,4,2,1,78,0,0
113049,-100,4,2,1,80,0,0
113511,-100,4,2,10,85,0,0
113742,-100,4,2,1,85,0,0
120896,-100,4,2,10,85,0,0
121126,-100,4,2,1,85,0,0
128280,-100,4,2,10,60,0,0
128511,-100,4,2,5,60,0,0
135665,-100,4,2,5,65,0,0
143049,-100,4,2,1,70,0,0
157357,-100,4,2,5,70,0,0
157819,-100,4,2,2,70,0,0
161511,-100,4,2,1,65,0,0
161972,-100,4,2,1,66,0,0
162434,-100,4,2,1,68,0,0
162896,-100,4,2,1,70,0,0
163357,-100,4,2,1,75,0,0
163819,-100,4,2,1,78,0,0
164280,-100,4,2,1,80,0,0
179972,-100,4,2,10,90,0,0
180203,-100,4,2,1,90,0,0
187357,-100,4,2,10,90,0,0
187588,-100,4,2,1,90,0,0
194742,-100,4,2,10,80,0,0
194972,-100,4,2,2,80,0,0
202126,-100,4,2,10,80,0,0
202357,-100,4,2,2,80,0,0
207665,-100,4,2,1,80,0,0

[Colours]
Combo1 : 235,129,243
Combo2 : 230,188,233

[HitObjects]
37,367,896,6,0,P|15:263|74:200,1,195,2|2,1:2|1:2,0:0:0:0:
144,239,1819,2,0,P|225:216|345:195,1,195,2|2,2:2|1:2,0:0:0:0:
397,251,2742,2,0,P|413:316|418:395,2,130,2|2|2,1:2|2:0|2:0,0:0:0:0:
467,99,4126,2,0,P|444:76|390:59,1,65,2|10,2:0|2:0,0:0:0:0:
336,96,4588,6,0,L|325:-2,2,97.5,2|2|2,1:2|1:2|1:2,0:0:0:0:
273,153,5511,2,0,P|227:160|185:87,1,130,2|2,2:0|2:0,0:0:0:0:
19,140,6434,2,0,L|2:7,2,130,2|2|2,2:0|2:0|1:2,0:0:0:0:
6,308,7819,1,8,1:1:0:0:
163,368,8280,6,0,P|224:349|289:342,1,130,6|10,1:2|2:0,0:0:0:0:
425,240,9203,2,0,P|438:178|412:119,1,130,0|10,1:2|2:0,0:0:0:0:
332,113,9896,1,2,3:2:0:0:
332,113,10126,2,0,P|272:103|206:78,2,130,0|10|2,1:2|2:0|1:2,0:0:0:0:
361,36,11280,1,2,3:2:0:0:
361,36,11511,2,0,L|449:20,1,65,10|2,2:0|3:2,0:0:0:0:
467,96,11972,6,0,P|509:145|509:209,2,130,2|10|0,1:2|2:0|1:2,0:0:0:0:
317,174,13357,2,0,P|321:203|332:248,1,65,10|2,2:0|3:2,0:0:0:0:
285,310,13819,2,0,P|241:347|170:333,1,130,2|10,1:2|2:0,0:0:0:0:
29,246,14742,2,0,P|27:186|14:113,1,130,10|10,1:2|1:2,0:0:0:0:
53,41,15434,1,10,2:0:0:0:
53,41,15665,6,0,P|118:46|156:121,1,130,6|10,1:2|2:0,0:0:0:0:
297,185,16588,2,0,L|265:339,1,130,0|10,1:2|2:0,0:0:0:0:
344,363,17280,1,2,3:2:0:0:
344,363,17511,2,0,P|402:361|449:305,2,130,0|10|2,1:2|2:0|1:2,0:0:0:0:
184,307,18896,2,0,L|91:328,1,65,10|2,2:0|3:2,0:0:0:0:
48,277,19357,6,0,P|31:221|69:162,1,130,2|10,1:2|2:0,0:0:0:0:
219,90,20280,2,0,P|278:86|361:67,1,130,2|10,1:2|2:0,0:0:0:0:
418,126,20972,1,2,3:2:0:0:
418,125,21203,2,0,P|408:156|402:188,1,65,2|2,1:2|1:2,0:0:0:0:
323,218,21665,2,0,P|332:248|338:280,1,65,2|2,1:2|1:2,0:0:0:0:
292,352,22126,2,0,P|231:357|206:287,1,130,2|10,1:2|2:0,0:0:0:0:
88,177,23049,6,0,P|84:117|64:41,2,130,6|2|2,1:2|1:2|1:2,0:0:0:0:
243,243,24434,2,0,P|274:229|312:230,1,65,0|2,1:0|2:0,0:0:0:0:
375,274,24896,2,0,P|432:270|455:201,1,130,0|2,1:0|1:2,0:0:0:0:
382,75,25819,2,0,P|324:78|296:139,1,130,2|2,1:2|1:2,0:0:0:0:
198,275,26742,6,0,P|135:267|68:261,1,130,2|2,1:2|1:2,0:0:0:0:
84,92,27665,2,0,P|147:100|213:105,1,130,2|2,1:2|1:2,0:0:0:0:
278,51,28357,1,2,2:0:0:0:
278,51,28588,2,0,P|327:80|333:152,1,130,0|0,1:0|1:0,0:0:0:0:
480,233,29511,2,0,P|431:262|425:334,1,130,2|0,1:2|1:0,0:0:0:0:
345,355,30203,1,2,2:0:0:0:
345,355,30434,6,0,L|212:377,1,130,2|0,1:2|1:0,0:0:0:0:
160,320,31126,1,2,2:0:0:0:
160,320,31357,2,0,P|131:264|144:201,1,130,2|0,1:2|1:0,0:0:0:0:
212,45,32280,2,0,L|345:29,1,130,2|0,1:2|1:0,0:0:0:0:
420,72,32972,1,2,2:0:0:0:
420,72,33203,2,0,B|448:91|448:91|414:207,1,130,2|0,1:2|1:0,0:0:0:0:
413,352,34126,6,0,P|357:334|279:328,1,130,2|0,1:2|1:0,0:0:0:0:
237,265,34819,1,2,2:0:0:0:
237,265,35049,2,0,P|204:206|236:147,1,130,2|0,1:2|1:0,0:0:0:0:
208,75,35742,1,2,2:0:0:0:
208,75,35972,2,0,L|131:62,1,65,10|8,1:2|1:2,0:0:0:0:
498,71,37126,5,0,1:2:0:0:
498,71,37357,2,0,L|477:164,1,65,10|2,2:0|2:0,0:0:0:0:
417,185,37819,2,0,P|362:201|344:279,2,130,6|10|2,1:2|2:0|2:0,0:0:0:0:
497,223,38972,1,2,1:2:0:0:
497,223,39203,2,0,L|506:310,1,65,10|2,2:0|2:0,0:0:0:0:
434,337,39665,2,0,P|370:342|310:367,1,130,2|10,1:2|2:0,0:0:0:0:
236,214,40588,2,0,P|171:209|111:184,1,130,2|10,2:0|2:0,0:0:0:0:
42,146,41280,1,2,1:2:0:0:
42,146,41511,6,0,P|33:94|16:9,2,130,2|10|2,1:2|2:0|2:0,0:0:0:0:
33,233,42665,1,2,1:2:0:0:
33,233,42896,2,0,L|23:320,1,65,10|2,2:0|1:2,0:0:0:0:
87,352,43357,2,0,P|147:372|201:339,1,130,2|10,1:2|2:0,0:0:0:0:
280,190,44280,2,0,P|334:168|399:198,1,130,2|10,2:0|2:0,0:0:0:0:
468,149,44972,1,10,2:0:0:0:
468,149,45203,6,0,P|476:89|491:18,1,130,6|8,1:2|2:0,0:0:0:0:
322,1,46126,2,0,P|314:61|299:132,1,130,0|8,1:2|2:0,0:0:0:0:
170,242,47049,2,0,P|107:241|76:187,1,130,0|8,1:2|2:0,0:0:0:0:
115,111,47742,1,0,3:2:0:0:
115,111,47972,2,0,P|148:106|179:96,1,65,0|0,1:2|3:2,0:0:0:0:
225,167,48434,2,0,P|257:171|288:181,1,65,8|0,2:0|3:0,0:0:0:0:
356,130,48896,6,0,P|413:155|429:215,2,130,0|0|0,1:2|1:2|1:2,0:0:0:0:
244,4,50280,1,0,1:2:0:0:
116,115,50742,6,0,P|105:145|96:176,1,65,8|8,1:2|1:2,0:0:0:0:
16,206,51203,2,0,P|27:236|36:267,1,65,8|8,1:2|1:2,0:0:0:0:
110,309,51665,2,0,P|144:360|205:352,1,130,8|2,1:2|2:0,0:0:0:0:
333,264,52588,6,0,P|321:200|316:135,1,130,6|8,1:2|2:0,0:0:0:0:
270,64,53280,1,2,3:2:0:0:
193,105,53511,2,0,P|130:93|65:88,1,130,2|8,1:2|2:0,0:0:0:0:
0,142,54203,1,2,3:2:0:0:
47,215,54434,2,0,P|54:247|61:279,1,65,2|2,1:2|3:2,0:0:0:0:
130,328,54896,2,0,P|137:296|144:264,1,65,10|2,2:0|3:2,0:0:0:0:
216,219,55357,1,2,1:2:0:0:
371,284,55819,2,0,L|457:291,1,65,10|2,2:0|1:2,0:0:0:0:
497,225,56280,6,0,P|515:180|512:131,2,97.5,2|2|2,1:2|1:2|1:2,0:0:0:0:
434,282,57203,2,0,P|431:330|449:375,2,97.5,2|2|2,1:2|1:2|1:2,0:0:0:0:
389,210,58126,2,0,P|331:196|256:194,1,130,2|10,1:2|2:0,0:0:0:0:
196,138,58819,1,2,3:2:0:0:
142,204,59049,2,0,P|149:235|154:267,1,65,2|2,1:2|3:2,0:0:0:0:
109,340,59511,1,10,2:0:0:0:
41,189,59972,6,0,P|11:138|31:68,1,130,6|8,1:2|2:0,0:0:0:0:
86,10,60665,1,2,3:2:0:0:
158,51,60896,2,0,P|223:40|287:33,1,130,2|8,1:2|2:0,0:0:0:0:
350,89,61588,1,2,3:2:0:0:
286,145,61819,2,0,P|274:203|266:275,2,130,2|10|2,1:2|2:0|1:2,0:0:0:0:
436,69,63203,2,0,P|470:92|481:121,1,65,10|2,2:0|1:2,0:0:0:0:
451,193,63665,6,0,L|425:304,2,97.5,2|2|2,1:2|1:2|3:2,0:0:0:0:
376,161,64588,2,0,P|329:157|300:230,1,130,2|8,1:2|2:0,0:0:0:0:
253,295,65280,1,2,1:2:0:0:
191,236,65511,2,0,P|160:230|121:223,1,65,2|2,1:2|2:2,0:0:0:0:
85,150,65972,2,0,P|116:144|155:137,1,65,8|2,2:2|2:2,0:0:0:0:
208,78,66434,2,0,P|257:49|314:94,1,130,10|10,1:2|2:2,0:0:0:0:
464,159,67357,6,0,P|452:217|441:288,1,130,6|8,1:2|2:0,0:0:0:0:
383,346,68049,1,2,3:2:0:0:
313,295,68280,2,0,P|255:272|199:301,1,130,2|8,1:2|2:0,0:0:0:0:
119,330,68972,1,2,3:2:0:0:
90,250,69203,2,0,P|86:225|76:184,1,65,2|2,1:2|3:2,0:0:0:0:
146,138,69665,2,0,P|150:113|160:72,1,65,10|2,2:0|3:2,0:0:0:0:
234,36,70126,2,0,P|288:17|339:67,1,130,2|10,1:2|2:0,0:0:0:0:
411,199,71049,6,0,L|512:187,2,97.5,2|2|2,1:2|1:2|1:2,0:0:0:0:
342,247,71972,2,0,L|241:235,2,97.5,2|2|2,1:2|1:2|1:2,0:0:0:0:
394,313,72896,2,0,P|423:304|450:280,1,65,2|2,1:2|3:2,0:0:0:0:
508,221,73357,2,0,P|514:191|507:156,1,65,10|2,2:0|3:2,0:0:0:0:
454,91,73819,2,0,L|311:72,1,130,2|10,1:2|2:0,0:0:0:0:
172,0,74742,6,0,P|141:50|159:119,1,130,6|8,1:2|2:0,0:0:0:0:
228,160,75434,1,2,3:2:0:0:
181,230,75665,2,0,L|47:251,1,130,2|8,1:2|2:0,0:0:0:0:
2,181,76357,1,2,3:2:0:0:
62,122,76588,2,0,P|94:127|125:133,1,65,2|2,1:2|3:2,0:0:0:0:
179,68,77049,2,0,P|210:61|242:56,1,65,10|2,2:0|3:2,0:0:0:0:
308,109,77511,1,2,1:2:0:0:
266,272,77972,2,0,P|240:291|226:320,1,65,10|2,2:0|1:2,0:0:0:0:
149,357,78434,6,0,P|106:347|35:341,2,97.5,2|2|2,1:2|1:2|1:2,0:0:0:0:
229,331,79357,2,0,P|266:285|264:211,1,130,2|8,1:2|2:0,0:0:0:0:
273,132,80049,1,0,1:2:0:0:
194,163,80280,2,0,P|164:161|127:154,1,65,2|0,1:2|1:2,0:0:0:0:
57,199,80742,2,0,P|55:228|49:266,1,65,10|0,1:2|1:2,0:0:0:0:
101,328,81203,2,0,P|157:357|211:325,1,130,2|10,1:2|1:2,0:0:0:0:
374,282,82126,6,0,B|319:122|421:193|390:26,1,260,6|0,1:2|0:0,0:0:0:0:
81,60,83972,6,0,P|41:70|23:165,2,130,6|2|10,2:0|2:0|2:0,0:0:0:0:
198,107,85242,2,0,L|312:93,1,97.5,2|2,2:0|2:0,0:0:0:0:
463,82,86049,2,0,B|496:115|496:115|481:189,2,97.5,0|0|8,1:2|1:2|2:0,0:0:0:0:
163,237,87665,6,0,B|149:268|149:268|186:388,2,130,0|2|10,1:2|2:0|2:0,0:0:0:0:
281,281,88934,2,0,L|386:292,1,97.5,2|2,2:0|2:0,0:0:0:0:
482,158,89742,2,0,B|517:120|517:120|509:74,2,97.5,0|2|10,1:2|1:2|2:0,0:0:0:0:
374,214,90780,1,0,1:2:0:0:
250,42,91357,6,0,L|109:26,1,130,2|0,1:2|0:0,0:0:0:0:
67,93,92049,1,2,2:0:0:0:
67,93,92280,2,0,P|60:155|107:196,1,130,10|0,2:0|0:0,0:0:0:0:
126,364,93203,2,0,P|185:337|247:319,1,130,2|0,2:0|0:0,0:0:0:0:
334,340,93896,1,2,2:0:0:0:
334,340,94126,2,0,P|360:306|334:220,1,130,10|2,2:0|2:0,0:0:0:0:
279,52,95049,6,0,L|149:44,1,130,2|0,1:2|0:0,0:0:0:0:
74,80,95742,1,2,1:2:0:0:
74,80,95972,2,0,P|58:123|100:208,1,130,10|0,2:0|0:0,0:0:0:0:
148,263,96665,1,2,2:0:0:0:
148,263,96896,2,0,L|216:252,1,65,8|8,2:0|2:0,0:0:0:0:
493,368,98049,5,2,1:2:0:0:
493,368,98280,2,0,L|481:281,1,65,2|2,1:2|1:2,0:0:0:0:
424,243,98742,2,0,P|368:232|326:289,2,130,10|10|10,2:0|2:0|2:0,0:0:0:0:
505,95,100126,2,0,P|502:62|437:22,1,97.5,10|2,2:0|2:0,0:0:0:0:
421,48,100588,2,0,P|358:59|274:55,1,130,8|10,2:0|2:0,0:0:0:0:
139,137,101511,2,0,P|102:117|98:79,2,65,10|8|8,2:0|2:0|2:0,0:0:0:0:
264,250,102434,6,0,P|251:308|244:383,2,130,10|10|10,2:0|2:0|2:0,0:0:0:0:
423,194,103819,2,0,P|445:172|428:94,1,97.5,8|2,2:0|2:0,0:0:0:0:
408,85,104280,6,0,P|349:79|277:65,1,130,8|8,2:0|2:0,0:0:0:0:
110,65,105203,2,0,P|104:21|97:-19,2,65,8|10|10,2:0|2:0|2:0,0:0:0:0:
59,134,105896,1,2,2:0:0:0:
59,134,106126,6,0,B|23:303|23:303|104:364,1,260,4|4,1:2|1:2,0:0:0:0:
429,381,107972,2,0,B|465:212|465:212|384:151,1,260,4|4,1:2|1:2,0:0:0:0:
193,51,109819,6,0,P|127:46|62:29,1,130,6|4,1:2|1:2,0:0:0:0:
23,193,110742,2,0,P|89:198|154:215,1,130,6|6,1:2|1:2,0:0:0:0:
285,315,111665,2,0,P|301:290|312:253,1,65,8|8,2:0|2:0,0:0:0:0:
385,215,112126,2,0,P|371:188|352:155,1,65,8|8,2:0|2:0,0:0:0:0:
293,98,112588,2,0,L|158:78,1,130,8|2,2:0|2:0,0:0:0:0:
55,208,113511,6,0,P|73:270|85:334,1,130,6|8,1:2|2:0,0:0:0:0:
157,378,114203,1,2,3:2:0:0:
219,321,114434,2,0,L|361:305,1,130,2|8,1:2|2:0,0:0:0:0:
394,235,115126,1,2,3:2:0:0:
339,170,115357,2,0,P|305:167|263:154,1,65,2|2,1:2|3:2,0:0:0:0:
226,228,115819,2,0,P|192:231|150:244,1,65,10|2,2:0|3:2,0:0:0:0:
94,187,116280,1,2,1:2:0:0:
175,38,116742,2,0,L|249:26,1,65,10|2,2:0|1:2,0:0:0:0:
308,75,117203,6,0,P|352:54|400:58,2,97.5,2|2|2,1:2|1:2|1:2,0:0:0:0:
252,137,118126,2,0,P|208:116|160:120,2,97.5,2|2|2,1:2|1:2|1:2,0:0:0:0:
320,187,119049,2,0,P|338:245|344:322,1,130,2|10,1:2|2:0,0:0:0:0:
282,372,119742,1,2,1:2:0:0:
221,312,119972,2,0,L|149:333,1,65,2|2,1:2|3:2,0:0:0:0:
76,351,120434,1,10,2:0:0:0:
19,191,120896,6,0,P|30:129|101:122,1,130,6|8,1:2|2:0,0:0:0:0:
163,76,121588,1,2,3:2:0:0:
223,135,121819,2,0,P|240:202|257:282,1,130,2|8,1:2|2:0,0:0:0:0:
331,292,122511,1,2,3:2:0:0:
388,230,122742,2,0,P|419:221|451:219,1,65,2|2,1:2|3:2,0:0:0:0:
493,145,123203,2,0,P|460:142|429:134,1,65,10|2,2:0|3:2,0:0:0:0:
386,60,123665,1,2,1:2:0:0:
217,71,124126,2,0,P|168:108|162:129,1,65,10|2,2:0|1:2,0:0:0:0:
102,163,124588,6,0,P|111:227|116:292,1,130,2|8,1:2|2:0,0:0:0:0:
161,363,125280,1,2,3:2:0:0:
242,338,125511,2,0,P|304:335|333:280,1,130,2|8,1:2|2:0,0:0:0:0:
399,226,126203,1,2,3:2:0:0:
342,163,126434,2,0,P|340:103|333:23,2,130,2|10|10,1:2|2:0|2:0,0:0:0:0:
177,206,127819,2,0,P|146:212|117:200,1,65,10|10,2:0|1:2,0:0:0:0:
119,115,128280,1,6,1:2:0:0:
119,114,135665,6,0,P|71:110|45:71,2,97.5,6|2|2,1:2|1:2|1:2,0:0:0:0:
181,58,136588,2,0,P|219:51|243:42,1,65,2|2,2:0|2:0,0:0:0:0:
296,107,137049,2,0,P|334:114|358:123,1,65,10|0,2:0|1:2,0:0:0:0:
429,75,137511,2,0,P|460:117|445:215,2,130,2|8|0,1:2|2:0|0:0,0:0:0:0:
277,0,138896,1,8,2:0:0:0:
190,144,139357,6,0,P|201:196|210:261,2,97.5,0|2|2,1:2|1:2|1:2,0:0:0:0:
116,105,140280,2,0,P|127:53|136:-12,2,97.5,2|2|2,1:2|2:0|1:2,0:0:0:0:
58,166,141203,2,0,P|30:223|46:284,1,130,4|2,1:2|2:0,0:0:0:0:
192,369,142126,2,0,P|220:355|252:346,1,65,2|2,1:2|1:2,0:0:0:0:
292,271,142588,2,0,P|320:285|352:294,1,65,2|2,1:2|2:0,0:0:0:0:
429,329,143049,6,0,P|456:268|446:193,1,130,6|10,1:2|2:0,0:0:0:0:
356,66,143972,2,0,L|207:43,1,130,2|8,1:2|2:0,0:0:0:0:
157,92,144665,1,2,2:0:0:0:
157,92,144896,2,0,P|131:126|151:215,2,130,2|10|2,1:2|2:2|1:2,0:0:0:0:
324,73,146280,2,0,P|314:107|309:143,1,65,8|2,2:0|2:0,0:0:0:0:
382,179,146742,6,0,P|443:160|502:183,1,130,2|10,1:2|2:0,0:0:0:0:
497,352,147665,2,0,P|435:370|376:347,1,130,2|10,1:2|2:0,0:0:0:0:
321,290,148357,1,2,2:0:0:0:
321,290,148588,2,0,L|186:287,1,130,2|8,1:2|2:0,0:0:0:0:
48,378,149511,2,0,B|10:331|10:331|21:261,1,130,2|8,1:2|2:0,0:0:0:0:
77,200,150203,1,10,2:0:0:0:
77,200,150434,6,0,L|58:57,1,130,6|8,1:2|2:0,0:0:0:0:
133,26,151126,1,2,2:0:0:0:
133,26,151357,2,0,P|168:17|222:97,1,130,2|8,1:2|2:0,0:0:0:0:
369,167,152280,2,0,P|351:229|340:293,1,130,2|8,1:2|2:0,0:0:0:0:
279,351,152972,1,2,1:2:0:0:
279,351,153203,2,0,P|220:364|192:310,1,130,2|8,1:2|2:0,0:0:0:0:
114,291,153896,1,2,1:2:0:0:
114,291,154126,6,0,P|105:232|89:151,1,130,2|8,1:2|2:0,0:0:0:0:
136,90,154819,1,2,2:0:0:0:
136,90,155049,2,0,L|240:58,2,97.5,2|8|10,1:2|2:0|1:2,0:0:0:0:
60,52,155972,1,6,1:2:0:0:
229,344,156896,2,0,L|299:313,1,65,2|0,1:2|1:2,0:0:0:0:
364,354,157357,1,8,3:2:0:0:
424,195,157819,6,0,P|443:151|442:103,2,97.5,2|2|2,1:2|3:2|3:2,0:0:0:0:
350,237,158742,2,0,L|221:216,1,130,2|0,1:2|1:2,0:0:0:0:
163,154,159434,1,2,3:2:0:0:
163,154,159665,2,0,P|146:114|147:57,2,97.5,2|2|2,1:2|3:2|3:2,0:0:0:0:
108,218,160588,2,0,L|84:357,1,130,2|2,1:2|1:2,0:0:0:0:
254,360,161511,6,0,P|285:352|317:345,1,65,2|0,1:2|1:2,0:0:0:0:
352,268,161972,2,0,P|320:261|288:253,1,65,0|0,1:2|1:2,0:0:0:0:
227,194,162434,2,0,P|222:167|213:119,2,65,0|0|0,1:2|1:2|1:2,0:0:0:0:
336,65,163357,6,0,L|426:42,1,65,10|10,2:0|2:0,0:0:0:0:
479,88,163819,1,10,2:0:0:0:
479,88,164049,1,10,2:0:0:0:
438,162,164280,2,0,L|300:143,1,130,10|2,2:0|2:0,0:0:0:0:
202,13,165203,5,14,1:2:0:0:
93,332,166126,2,0,P|151:326|185:368,2,97.5,6|4|10,2:0|2:0|2:0,0:0:0:0:
31,274,167049,2,0,P|31:241|28:209,1,65,2|10,1:2|2:0,0:0:0:0:
103,168,167511,2,0,P|102:135|105:103,1,65,2|2,1:2|2:0,0:0:0:0:
164,43,167972,2,0,P|224:30|256:83,1,130,2|6,1:2|1:2,0:0:0:0:
326,130,168665,1,10,2:0:0:0:
326,130,168896,6,0,L|422:113,2,97.5,10|6|10,2:0|1:2|2:0,0:0:0:0:
262,185,169819,2,0,L|166:168,2,97.5,10|6|10,2:0|1:2|2:0,0:0:0:0:
337,223,170742,1,6,1:2:0:0:
309,350,171203,1,2,1:2:0:0:
178,346,171665,2,0,P|142:292|150:229,1,130,10|10,1:2|1:2,0:0:0:0:
231,204,172357,1,0,1:2:0:0:
231,204,172588,6,0,L|250:67,1,130,6|8,1:2|2:0,0:0:0:0:
179,27,173280,1,2,2:0:0:0:
179,27,173511,2,0,P|130:38|116:121,1,130,2|8,1:2|2:0,0:0:0:0:
69,182,174203,1,2,2:0:0:0:
69,182,174434,2,0,B|75:259|18:225|34:317,2,130,2|10|2,1:2|2:0|1:2,0:0:0:0:
219,104,175819,2,0,P|258:121|278:153,1,65,10|2,2:0|2:0,0:0:0:0:
343,183,176280,6,0,P|333:230|329:279,2,97.5,2|2|2,1:2|2:0|1:2,0:0:0:0:
418,143,177203,2,0,P|424:82|372:48,1,130,2|10,1:2|2:0,0:0:0:0:
214,110,178126,2,0,P|171:99|105:86,2,97.5,6|6|6,1:2|1:2|1:2,0:0:0:0:
267,175,179049,2,0,P|281:222|242:308,1,130,6|2,1:2|1:0,0:0:0:0:
100,366,179972,6,0,P|94:301|86:236,1,130,6|8,1:2|2:0,0:0:0:0:
142,173,180665,1,2,3:2:0:0:
216,212,180896,2,0,P|278:205|310:151,1,130,2|8,1:2|2:0,0:0:0:0:
371,92,181588,1,2,3:2:0:0:
442,139,181819,2,0,P|445:171|451:203,1,65,2|2,1:2|3:2,0:0:0:0:
385,257,182280,2,0,P|381:289|375:321,1,65,10|2,2:0|3:2,0:0:0:0:
298,356,182742,1,2,1:2:0:0:
131,326,183203,2,0,P|107:304|102:267,1,65,10|2,2:0|1:2,0:0:0:0:
159,211,183665,6,0,P|152:162|144:114,2,97.5,2|2|2,1:2|1:2|1:2,0:0:0:0:
224,264,184588,2,0,P|216:312|209:360,2,97.5,2|2|2,1:2|1:2|1:2,0:0:0:0:
287,208,185511,2,0,P|317:196|348:204,1,65,2|2,1:2|3:2,0:0:0:0:
414,254,185972,2,0,P|445:261|475:250,1,65,10|2,2:0|1:2,0:0:0:0:
496,168,186434,2,0,P|500:112|514:28,1,130,2|10,1:2|2:0,0:0:0:0:
342,33,187357,6,0,P|300:57|322:135,1,130,6|8,1:2|2:0,0:0:0:0:
377,182,188049,1,2,3:2:0:0:
309,232,188280,2,0,P|244:237|179:244,1,130,2|8,1:2|2:0,0:0:0:0:
110,196,188972,1,2,3:2:0:0:
52,257,189203,2,0,P|57:289|62:321,1,65,2|2,1:2|3:2,0:0:0:0:
136,362,189665,2,0,P|141:329|146:297,1,65,10|2,2:0|3:2,0:0:0:0:
208,241,190126,1,2,1:2:0:0:
119,96,190588,2,0,P|97:133|93:155,1,65,10|2,2:0|1:2,0:0:0:0:
96,238,191049,6,0,P|50:232|-31:229,2,97.5,2|2|2,1:2|1:2|1:2,0:0:0:0:
180,245,191972,2,0,P|171:308|190:370,1,130,2|8,1:2|2:0,0:0:0:0:
359,378,192896,2,0,P|366:346|370:313,1,65,2|2,1:2|1:2,0:0:0:0:
451,293,193357,2,0,P|444:261|440:228,1,65,10|2,2:0|1:2,0:0:0:0:
386,162,193819,2,0,P|334:157|316:235,1,130,10|10,1:2|2:0,0:0:0:0:
264,293,194511,1,10,2:2:0:0:
188,257,194742,6,0,P|127:247|52:243,1,130,6|10,1:2|2:0,0:0:0:0:
91,67,195665,2,0,P|152:77|227:81,1,130,0|10,1:2|2:0,0:0:0:0:
287,30,196357,1,2,3:2:0:0:
287,30,196588,2,0,P|334:47|346:131,1,130,0|10,1:2|2:0,0:0:0:0:
424,171,197280,1,2,3:2:0:0:
424,171,197511,2,0,P|430:245|437:321,1,130,2|10,1:2|2:0,0:0:0:0:
282,372,198434,6,0,P|252:315|293:242,1,130,2|10,1:2|2:0,0:0:0:0:
231,189,199126,1,2,3:2:0:0:
231,189,199357,2,0,P|199:190|167:188,1,65,0|2,1:2|3:2,0:0:0:0:
168,102,199819,2,0,P|200:101|232:103,1,65,10|2,2:0|3:2,0:0:0:0:
289,41,200280,2,0,P|351:39|391:87,1,130,2|10,1:2|2:0,0:0:0:0:
467,136,200972,1,2,3:2:0:0:
467,136,201203,2,0,P|449:198|440:262,1,130,10|10,2:0|2:0,0:0:0:0:
300,357,202126,6,0,P|235:348|170:340,1,130,6|10,1:2|2:0,0:0:0:0:
62,210,203049,2,0,P|127:201|192:193,1,130,0|10,1:2|2:0,0:0:0:0:
252,134,203742,1,2,3:2:0:0:
252,134,203972,2,0,P|280:99|240:21,1,130,0|10,1:2|2:0,0:0:0:0:
169,47,204665,1,2,3:2:0:0:
169,47,204896,2,0,P|161:78|156:110,1,65,2|2,1:2|3:2,0:0:0:0:
77,141,205357,2,0,P|84:172|89:204,1,65,10|2,2:0|3:2,0:0:0:0:
135,276,205819,6,0,P|196:285|224:341,1,130,2|10,1:2|2:0,0:0:0:0:
56,358,206741,1,2,1:2:0:0:
56,358,206972,1,2,3:2:0:0:
50,276,207203,2,0,L|35:202,1,65,10|2,2:0|3:2,0:0:0:0:
79,138,207665,6,0,P|112:126|148:139,1,65,2|2,1:2|1:2,0:0:0:0:
193,198,208126,2,0,P|224:205|254:193,1,65,10|2,1:2|1:2,0:0:0:0:
303,125,208588,1,6,1:2:0:0:
303,125,208819,1,6,1:2:0:0:
