osu file format v14

[General]
AudioFilename: audio.mp3
AudioLeadIn: 0
PreviewTime: 62169
Countdown: 0
SampleSet: Soft
StackLeniency: 0.7
Mode: 0
LetterboxInBreaks: 0
WidescreenStoryboard: 0

[Editor]
DistanceSpacing: 0.6
BeatDivisor: 3
GridSize: 8
TimelineZoom: 2.3

[Metadata]
Title:identity
TitleUnicode:identity
Artist:CHiCO with HoneyWorks
ArtistUnicode:CHiCO with HoneyWorks
Creator:Sotarks
Version:Expert
Source:
Tags:世界はiに満ちている Sekai wa i ni Michiteiru J-pop Akitoshi Corinn -Laura- Kowari iljaaz Kalibe
BeatmapID:2159665
BeatmapSetID:1032959

[Difficulty]
HPDrainRate:6.2
CircleSize:4
OverallDifficulty:8.7
ApproachRate:9.2
SliderMultiplier:1.92
SliderTickRate:1

[Events]
//Background and Video events
0,0,"identity.jpg",0,0
//Break Periods
//Storyboard Layer 0 (Background)
//Storyboard Layer 1 (Fail)
//Storyboard Layer 2 (Pass)
//Storyboard Layer 3 (Foreground)
//Storyboard Layer 4 (Overlay)
//Storyboard Sound Samples

[TimingPoints]
305,324.324324324324,4,2,22,62,1,0
305,-121.951219512195,4,2,22,62,0,0
5818,-192.307692307692,4,2,22,62,0,0
10034,-98.0392156862744,4,2,22,62,0,0
10196,-138.888888888889,4,2,22,62,0,0
10521,-98.0392156862745,4,2,22,62,0,0
21223,-108.695652173913,4,2,22,62,0,0
26088,-98.0392156862745,4,2,22,62,0,0
31764,-108.695652173913,4,2,22,62,0,0
36467,-98.0392156862745,4,2,22,62,0,0
41818,-121.951219512195,4,2,22,62,0,0
51061,-75.7575757575758,4,2,22,62,0,0
51386,-70.4225352112676,4,2,22,62,0,0
51710,-65.7894736842105,4,2,22,62,0,0
52196,-98.0392156862745,4,2,22,62,0,0
59980,-238.095238095238,4,2,22,62,0,0
61440,-98.0392156862745,4,2,22,62,0,0
61602,-192.307692307692,4,2,22,62,0,0
61926,-98.0392156862745,4,2,22,62,0,0
62088,-192.307692307692,4,2,22,62,0,0
62413,-89.2857142857143,4,1,22,62,0,0
83332,-89.2857142857143,4,2,22,62,0,0
88349,324.324324324324,4,2,22,62,1,0
88349,-89.2857142857143,4,2,22,62,0,0
88511,324.324324324324,4,2,22,62,1,0
88511,-89.2857142857143,4,2,22,62,0,0
98727,-121.951219512195,4,2,22,62,0,0

[Colours]
Combo1 : 213,85,155
Combo2 : 118,163,218
Combo3 : 176,213,234
Combo4 : 255,198,255

[HitObjects]
74,341,305,6,0,P|121:324|160:317,1,78.7200012011719,8|0,0:0|1:0,0:0:0:0:
229,336,629,1,0,1:0:0:0:
126,114,791,1,8,0:3:0:0:
96,186,953,1,0,1:0:0:0:
214,255,1115,1,0,1:0:0:0:
197,176,1277,2,0,P|142:195|114:218,1,78.7200012011719,4|0,0:3|1:0,0:0:0:0:
326,303,1602,1,0,1:0:0:0:
386,246,1764,2,0,P|352:225|314:215,1,78.7200012011719,4|0,0:3|1:0,0:0:0:0:
229,336,2088,1,0,1:0:0:0:
303,140,2250,1,8,0:3:0:0:
303,140,2332,1,8,0:3:0:0:
303,140,2413,2,0,P|289:86|287:78,1,39.3600006005859,0|0,1:0|1:0,0:0:0:0:
187,214,2575,1,4,0:3:0:0:
187,214,2657,1,4,0:3:0:0:
187,214,2738,2,0,P|201:160|203:152,1,39.3600006005859,4|4,0:3|0:3,0:0:0:0:
121,42,2899,5,12,0:2:0:0:
8,121,3061,1,0,1:2:0:0:
10,101,3223,1,0,1:2:0:0:
187,214,3386,1,12,0:2:0:0:
84,127,3548,1,0,1:2:0:0:
86,147,3710,1,0,1:2:0:0:
268,38,3872,1,12,0:2:0:0:
165,125,4034,1,0,1:2:0:0:
167,105,4196,1,0,1:2:0:0:
345,225,4359,1,12,0:2:0:0:
242,138,4521,1,0,1:2:0:0:
244,158,4683,1,0,1:2:0:0:
405,79,4845,1,8,0:2:0:0:
308,296,5007,1,0,1:2:0:0:
433,210,5169,1,8,0:2:0:0:
345,225,5332,6,0,B|241:232|306:283|174:286,1,157.440002402344,6|0,1:2|0:0,0:0:0:0:
162,191,5818,2,0,P|205:202|225:203,1,49.9199996953125,2|0,0:0|0:0,0:0:0:0:
115,288,6142,2,0,P|139:284|163:276,2,49.9199996953125,2|0|0,0:0|0:0|0:0,0:0:0:0:
81,205,6629,2,0,P|71:154|69:96,1,99.839999390625,2|0,0:0|0:0,0:0:0:0:
139,39,7115,2,0,P|176:58|201:63,1,49.9199996953125,2|0,0:0|0:0,0:0:0:0:
270,112,7440,1,2,0:0:0:0:
342,82,7602,1,0,0:0:0:0:
279,37,7764,1,0,0:0:0:0:
332,159,7926,6,0,P|326:209|323:272,1,99.839999390625,2|0,0:0|0:0,0:0:0:0:
251,330,8413,2,0,P|247:291|241:260,1,49.9199996953125,2|0,0:0|0:0,0:0:0:0:
170,233,8737,2,0,P|166:257|164:282,1,49.9199996953125,2|0,0:0|0:0,0:0:0:0:
73,58,9061,1,8,0:0:0:0:
139,120,9223,2,0,P|73:137|19:147,1,99.839999390625,2|0,1:2|0:0,0:0:0:0:
148,40,9710,2,0,P|178:46|207:51,1,49.9199996953125,2|0,0:0|0:0,0:0:0:0:
422,83,10034,6,0,L|406:174,1,48.9600002988281,10|0,0:0|0:0,0:0:0:0:
347,211,10196,2,0,L|361:342,1,103.68000253125,10|0,0:0|0:0,0:0:0:0:
293,369,10521,6,0,B|222:398|163:361|163:361|209:298,1,195.840001195313,6|0,1:2|1:2,0:0:0:0:
346,142,11007,2,0,P|288:204|214:206,1,146.880000896484,10|0,0:2|0:0,0:0:0:0:
159,184,11332,1,2,1:2:0:0:
331,56,11494,2,0,P|394:74|421:119,1,97.9200005976563,2|8,1:2|0:2,0:0:0:0:
392,292,11818,2,0,B|264:274|323:361|192:348,1,195.840001195313,2|0,1:2|1:2,0:0:0:0:
52,209,12304,2,0,P|115:262|207:244,1,146.880000896484,10|0,0:2|0:0,0:0:0:0:
236,201,12629,2,0,P|227:148|226:131,1,48.9600002988281,2|0,1:2|1:2,0:0:0:0:
119,60,12791,1,2,1:2:0:0:
119,60,12872,1,0,1:2:0:0:
119,60,12953,1,8,0:2:0:0:
312,73,13115,6,0,B|294:113|294:113|205:130|123:62,1,195.840001195313,2|0,1:2|1:2,0:0:0:0:
376,8,13602,2,0,P|397:103|396:177,1,146.880000896484,10|0,0:2|0:0,0:0:0:0:
344,249,13926,1,2,1:2:0:0:
341,206,14007,1,0,1:2:0:0:
369,173,14088,1,2,1:2:0:0:
412,169,14169,1,0,1:2:0:0:
445,196,14250,1,8,0:2:0:0:
362,338,14413,2,0,B|232:346|305:263|158:274,1,195.840001195313,2|2,1:2|1:2,0:0:0:0:
299,128,14899,1,8,0:2:0:0:
242,184,15061,1,2,1:2:0:0:
242,184,15142,1,0,1:2:0:0:
242,184,15223,1,8,0:2:0:0:
63,57,15386,1,4,1:3:0:0:
106,36,15467,1,4,1:3:0:0:
155,37,15548,1,8,0:2:0:0:
197,60,15629,1,4,1:3:0:0:
225,100,15710,6,0,P|154:74|111:197,1,195.840001195313,6|0,1:2|1:2,0:0:0:0:
264,305,16196,2,0,P|270:203|292:142,1,146.880000896484,10|0,0:2|0:0,0:0:0:0:
354,106,16521,2,0,P|364:170|369:186,1,48.9600002988281,2|0,1:2|1:0,0:0:0:0:
443,295,16683,1,2,1:2:0:0:
443,295,16764,1,0,1:0:0:0:
443,295,16845,1,8,0:2:0:0:
308,227,17007,1,2,1:2:0:0:
435,175,17169,1,0,0:0:0:0:
264,305,17332,1,2,1:2:0:0:
179,257,17494,2,0,P|99:232|28:234,1,146.880000896484,8|0,0:2|0:0,0:0:0:0:
0,168,17818,2,0,P|56:151|83:154,1,48.9600002988281,2|0,1:2|1:2,0:0:0:0:
124,318,17980,2,0,P|180:335|207:332,1,48.9600002988281,2|0,1:2|1:2,0:0:0:0:
251,166,18142,1,8,0:2:0:0:
390,318,18304,6,0,B|429:343|429:343|476:262|410:197,1,195.840001195313,2|0,1:2|1:2,0:0:0:0:
206,98,18791,2,0,P|223:186|231:259,1,146.880000896484,10|0,0:2|0:0,0:0:0:0:
231,332,19115,1,2,1:2:0:0:
227,288,19196,1,0,1:2:0:0:
199,255,19277,1,2,1:2:0:0:
157,244,19358,1,0,1:2:0:0:
116,258,19439,1,8,0:2:0:0:
60,357,19602,2,0,P|116:336|160:333,1,97.9200005976563,2|0,1:2|0:0,0:0:0:0:
313,372,19926,1,2,1:2:0:0:
132,170,20088,1,8,0:2:0:0:
225,126,20250,1,2,1:2:0:0:
225,126,20332,1,0,0:0:0:0:
225,126,20413,1,8,0:0:0:0:
153,332,20575,2,0,P|212:313|225:313,1,48.9600002988281,0|0,1:2|0:0,0:0:0:0:
402,347,20737,1,8,0:0:0:0:
323,142,20899,6,0,P|222:160|199:242,1,195.840001195313,4|0,1:2|1:2,0:0:0:0:
380,216,21386,2,0,P|397:156|395:97,1,88.3199970351563,10|0,0:2|0:0,0:0:0:0:
242,25,21710,1,2,0:0:0:0:
313,61,21872,1,8,0:3:0:0:
184,137,22034,1,6,0:3:0:0:
174,63,22196,1,8,0:3:0:0:
239,194,22359,1,6,0:3:0:0:
139,280,22521,1,8,0:3:0:0:
41,144,22684,1,2,3:0:0:0:
167,213,22845,1,10,0:3:0:0:
258,119,23007,1,8,0:0:0:0:
299,246,23169,1,2,0:3:0:0:
376,228,23332,1,4,0:3:0:0:
441,284,23494,6,0,B|482:171|407:219|460:94,1,176.639994070313,6|2,1:2|1:2,0:0:0:0:
466,16,23980,2,0,P|410:45|367:52,1,88.3199970351563,10|2,0:2|0:0,0:0:0:0:
329,172,24304,2,0,P|273:143|230:136,1,88.3199970351563,2|8,0:0|0:0,0:0:0:0:
34,86,24629,1,10,0:0:0:0:
62,105,24710,1,8,0:0:0:0:
97,114,24791,1,2,1:2:0:0:
131,109,24872,1,0,1:2:0:0:
162,92,24953,2,0,P|209:69|225:69,3,44.1599985175782,4|8|2|0,0:3|0:3|1:2|1:2,0:0:0:0:
151,205,25277,1,8,0:3:0:0:
151,205,25359,1,8,0:3:0:0:
151,205,25440,2,0,L|142:268,1,44.1599985175782,2|0,1:2|1:2,0:0:0:0:
280,135,25602,2,0,L|286:178,1,44.1599985175782,8|0,0:2|1:2,0:0:0:0:
390,251,25764,1,2,1:2:0:0:
419,246,25845,1,0,1:2:0:0:
448,241,25926,1,8,0:2:0:0:
329,367,26088,6,0,P|258:327|132:327,1,195.840001195313,6|0,1:2|1:2,0:0:0:0:
53,161,26575,2,0,B|73:130|73:130|148:125|178:202,1,146.880000896484,10|0,0:2|0:0,0:0:0:0:
147,247,26899,1,0,1:2:0:0:
230,147,27061,1,2,1:2:0:0:
377,275,27223,1,8,0:2:0:0:
301,247,27386,1,0,1:2:0:0:
330,111,27548,2,0,B|368:151|368:151|362:216,1,97.9200005976563,2|0,0:0|1:2,0:0:0:0:
187,346,27872,1,8,0:2:0:0:
263,232,28034,1,2,0:0:0:0:
339,342,28196,1,0,1:2:0:0:
377,335,28277,1,0,1:2:0:0:
416,328,28358,1,2,1:2:0:0:
454,321,28439,1,0,1:2:0:0:
454,321,28521,2,0,L|460:265,1,48.9600002988281,8|0,0:2|0:0,0:0:0:0:
469,90,28683,6,0,B|426:67|379:114|379:114|340:69|282:78,1,195.840001195313,2|0,1:2|1:2,0:0:0:0:
135,200,29169,2,0,P|196:141|282:161,1,146.880000896484,10|0,0:2|0:0,0:0:0:0:
305,204,29494,1,0,1:2:0:0:
196,300,29656,1,2,1:2:0:0:
36,235,29818,1,8,0:2:0:0:
132,232,29980,1,0,1:2:0:0:
256,365,30142,2,0,B|311:371|311:371|352:340,1,97.9200005976563,2|0,0:0|1:2,0:0:0:0:
362,138,30467,1,8,0:0:0:0:
393,223,30629,2,0,B|338:229|338:229|304:203,1,97.9200005976563,2|0,0:0|1:2,0:0:0:0:
183,95,30953,1,2,1:2:0:0:
333,54,31115,1,8,0:0:0:0:
181,177,31277,6,0,P|95:141|-26:143,1,195.840001195313,6|0,1:2|1:2,0:0:0:0:
134,248,31764,2,0,P|204:226|239:226,1,88.3199970351563,10|0,0:0|1:2,0:0:0:0:
287,259,32007,1,0,1:2:0:0:
287,259,32088,2,0,P|357:281|392:281,1,88.3199970351563,2|0,1:2|1:2,0:0:0:0:
445,102,32413,1,10,0:0:0:0:
382,151,32575,1,0,1:2:0:0:
237,85,32737,1,2,1:2:0:0:
344,46,32899,1,2,1:2:0:0:
277,192,33061,1,10,0:0:0:0:
191,183,33223,1,2,1:2:0:0:
191,183,33304,1,0,1:2:0:0:
191,183,33386,1,0,1:2:0:0:
302,292,33548,1,2,1:2:0:0:
214,323,33710,1,8,0:0:0:0:
377,246,33872,6,0,P|292:214|191:213,1,176.639994070313,2|2,0:0|1:2,0:0:0:0:
29,305,34359,1,10,0:0:0:0:
64,212,34521,1,0,0:0:0:0:
64,212,34602,1,0,0:0:0:0:
64,212,34683,2,0,P|48:160|44:121,1,88.3199970351563,2|0,1:2|1:2,0:0:0:0:
205,27,35007,1,10,0:0:0:0:
154,104,35169,2,0,P|212:128|255:129,1,88.3199970351563,2|0,0:0|1:2,0:0:0:0:
445,60,35494,1,2,1:2:0:0:
396,224,35656,1,8,0:0:0:0:
423,138,35818,2,0,P|364:156|331:176,1,88.3199970351563,2|8,0:0|0:3,0:0:0:0:
290,251,36061,1,8,0:3:0:0:
290,251,36142,2,0,P|238:234|221:234,1,44.1599985175782,10|8,0:3|0:3,0:0:0:0:
154,104,36304,2,0,P|134:113|112:119,1,44.1599985175782,4|4,0:3|0:3,0:0:0:0:
68,290,36467,6,0,P|138:205|220:205,1,195.840001195313,6|0,1:2|1:2,0:0:0:0:
363,292,36953,2,0,B|386:309|386:309|335:360|269:339,1,146.880000896484,10|0,0:2|0:0,0:0:0:0:
216,286,37277,1,0,1:2:0:0:
348,207,37440,1,2,1:2:0:0:
450,355,37602,2,0,P|463:302|457:257,1,97.9200005976563,8|2,0:2|1:2,0:0:0:0:
273,151,37926,2,0,P|268:199|280:246,1,97.9200005976563,2|0,0:0|1:2,0:0:0:0:
417,36,38250,1,8,0:2:0:0:
342,99,38413,1,2,0:0:0:0:
260,67,38575,1,0,1:2:0:0:
260,67,38656,1,0,1:2:0:0:
260,67,38737,2,0,P|201:54|189:57,1,48.9600002988281,2|0,1:2|1:2,0:0:0:0:
85,176,38899,1,8,0:2:0:0:
13,149,39061,6,0,P|70:94|192:142,1,195.840001195313,2|0,1:2|1:2,0:0:0:0:
366,221,39548,2,0,P|309:261|214:245,1,146.880000896484,10|0,0:2|0:0,0:0:0:0:
171,208,39872,1,0,1:2:0:0:
333,146,40034,1,2,1:2:0:0:
252,65,40196,1,8,0:2:0:0:
241,148,40359,1,0,1:2:0:0:
346,60,40521,2,0,P|402:44|447:46,1,97.9200005976563,2|0,0:0|1:2,0:0:0:0:
461,235,40845,2,0,P|412:234|365:220,1,97.9200005976563,8|0,0:0|0:0,0:0:0:0:
162,60,41169,2,0,P|183:113|184:132,1,48.9600002988281,2|0,1:2|0:0,0:0:0:0:
112,198,41332,2,0,B|144:225|185:209|185:209|189:92|65:63,1,244.800001494141,6|0,1:2|0:0,0:0:0:0:
33,56,41818,6,0,P|8:106|7:223,1,157.440002402344,6|0,1:2|0:0,0:0:0:0:
54,307,42304,2,0,P|106:286|152:288,1,78.7200012011719,8|0,0:3|0:0,0:0:0:0:
273,342,42629,1,0,1:0:0:0:
383,318,42791,1,8,0:0:0:0:
441,226,42953,2,0,B|346:211|377:275|258:258,2,157.440002402344,0|8|0,1:0|0:3|1:0,0:0:0:0:
287,170,43764,5,8,0:3:0:0:
245,195,43872,5,8,0:3:0:0:
194,177,43980,5,8,0:3:0:0:
167,202,44088,5,4,0:3:0:0:
167,202,44196,1,4,0:3:0:0:
167,202,44304,1,4,0:3:0:0:
167,202,44413,6,0,P|171:130|91:92,1,157.440002402344,6|0,1:2|0:0,0:0:0:0:
87,250,44899,2,0,P|128:276|162:280,1,78.7200012011719,8|0,0:0|0:0,0:0:0:0:
267,177,45223,1,0,1:0:0:0:
184,293,45386,1,8,0:0:0:0:
317,234,45548,2,0,P|245:205|148:205,1,157.440002402344,0|0,1:0|0:0,0:0:0:0:
89,154,46034,1,0,1:0:0:0:
120,72,46196,1,0,1:0:0:0:
51,16,46359,1,8,0:0:0:0:
184,293,46683,1,0,1:0:0:0:
346,28,47007,6,0,P|406:55|420:147,1,157.440002402344,6|0,1:2|0:0,0:0:0:0:
369,275,47494,1,8,0:0:0:0:
392,163,47656,2,0,P|363:208|361:252,1,78.7200012011719,0|0,0:0|1:0,0:0:0:0:
414,369,47980,1,8,0:0:0:0:
459,223,48142,1,0,0:0:0:0:
318,348,48304,2,0,P|237:329|154:324,1,157.440002402344,0|0,1:0|0:0,0:0:0:0:
31,358,48791,1,0,1:0:0:0:
100,214,48953,5,8,0:3:0:0:
89,165,49061,5,8,0:3:0:0:
112,129,49169,5,8,0:3:0:0:
108,89,49277,5,4,0:3:0:0:
108,89,49386,1,4,0:3:0:0:
108,89,49494,1,4,0:3:0:0:
108,89,49602,6,0,P|154:130|252:106,1,157.440002402344,6|0,1:2|0:0,0:0:0:0:
392,16,50088,1,8,0:0:0:0:
343,180,50250,1,0,0:0:0:0:
395,357,50413,1,0,1:0:0:0:
424,149,50575,1,8,0:0:0:0:
326,297,50737,1,0,1:0:0:0:
243,61,50899,6,0,L|235:128,1,39.3600006005859,8|0,0:0|0:0,0:0:0:0:
234,311,51061,2,0,P|201:244|84:265,1,190.079999419922,6|0,1:2|0:0,0:0:0:0:
63,245,51386,2,0,P|111:169|229:187,1,204.479989703614,6|0,1:2|0:0,0:0:0:0:
274,220,51710,2,0,P|370:230|426:129,1,218.879997328125,6|0,1:2|0:0,0:0:0:0:
377,74,52034,2,0,P|346:52|295:59,1,72.959999109375,8|8,0:0|0:0,0:0:0:0:
438,273,52196,6,0,P|488:203|489:83,1,195.840001195313,6|8,1:2|0:2,0:2:0:0:
332,152,52683,1,2,3:2:0:0:
223,97,52845,1,2,1:2:0:0:
124,156,53007,1,2,3:2:0:0:
233,211,53169,2,0,B|258:167|258:167|230:95,1,97.9200005976563,10|0,0:2|3:2,0:2:0:0:
62,74,53494,2,0,L|87:251,1,146.880000896484,2|0,1:2|0:2,0:2:0:0:
116,244,53818,2,0,B|141:200|141:200|123:155,1,97.9200005976563,10|0,0:2|3:2,0:2:0:0:
32,286,54142,1,2,1:2:0:0:
165,334,54304,1,2,3:2:0:0:
294,242,54467,1,10,0:2:0:0:
433,308,54629,6,0,L|447:200,1,97.9200005976563,2|0,3:2|1:2,0:2:0:0:
228,65,54953,1,2,3:2:0:0:
357,152,55115,1,10,0:2:0:0:
291,1,55277,2,0,L|320:222,1,195.840001195313,2|0,3:2|3:2,0:2:0:0:
201,346,55764,1,10,0:2:0:0:
106,200,55926,1,2,3:2:0:0:
228,65,56088,2,0,B|256:114|256:114|225:172,1,97.9200005976563,2|0,1:2|3:2,0:2:0:0:
36,235,56413,2,0,B|16:198|16:198|44:149,1,97.9200005976563,10|0,0:2|3:2,0:2:0:0:
243,282,56737,2,0,L|355:301,1,97.9200005976563,2|0,1:2|3:2,0:2:0:0:
409,48,57061,2,0,L|312:64,1,97.9200005976563,10|0,0:2|3:2,0:2:0:0:
151,298,57386,5,14,0:2:0:0:
234,188,57548,1,0,1:2:0:0:
203,56,57710,1,0,1:2:0:0:
159,221,57872,5,12,0:2:0:0:
308,154,58034,1,0,1:2:0:0:
408,229,58196,1,0,1:2:0:0:
168,138,58359,5,12,0:2:0:0:
315,288,58521,1,0,1:2:0:0:
483,179,58683,1,0,1:2:0:0:
234,188,58845,5,12,0:2:0:0:
375,119,59007,1,0,1:2:0:0:
371,0,59169,1,0,1:2:0:0:
322,203,59332,5,12,0:2:0:0:
204,63,59494,1,2,1:2:0:0:
121,230,59656,5,10,0:2:0:0:
273,112,59818,1,2,1:2:0:0:
209,169,59980,6,0,L|77:148,1,120.959996308594,2|0,0:0|0:0,0:0:0:0:
15,111,60953,2,0,L|120:97,1,100.799996923828,2|0,0:0|0:0,0:0:0:0:
156,38,61440,6,0,L|210:51,1,48.9600002988281,8|0,0:0|0:0,0:0:0:0:
265,216,61602,2,0,L|351:200,1,74.8799995429687,8|0,0:0|0:0,0:0:0:0:
375,136,61926,6,0,L|299:126,1,48.9600002988281,8|0,0:0|0:0,0:0:0:0:
215,305,62088,2,0,L|129:289,1,74.8799995429687,8|0,0:0|0:0,0:0:0:0:
70,222,62413,6,0,B|205:217|129:296|293:289,1,215.040002625,6|0,1:2|0:2,0:2:0:0:
475,161,62899,1,10,2:2:0:0:
246,211,63061,1,2,1:2:0:0:
309,272,63223,2,0,P|324:206|314:150,1,107.5200013125,2|0,1:2|0:2,0:2:0:0:
109,39,63548,1,10,2:2:0:0:
33,74,63710,2,0,P|97:133|237:90,1,215.040002625,2|0,0:2|0:2,0:2:0:0:
404,13,64196,1,8,2:2:0:0:
305,204,64359,1,2,0:2:0:0:
399,128,64521,1,0,0:2:0:0:
298,106,64683,1,2,0:2:0:0:
412,238,64845,1,8,2:2:0:0:
286,343,65007,6,0,B|148:355|217:267|58:291,1,215.040002625,2|0,0:2|0:2,0:2:0:0:
129,119,65494,1,8,2:2:0:0:
50,268,65656,1,2,0:2:0:0:
16,79,65818,1,2,0:2:0:0:
127,160,65980,1,2,0:2:0:0:
262,123,66142,1,8,2:2:0:0:
311,10,66304,2,0,P|287:88|296:191,1,161.28000196875,2|0,0:2|2:2,0:2:0:0:
320,232,66629,2,0,P|340:300|343:352,1,107.5200013125,2|8,0:2|2:2,0:2:0:0:
366,169,66953,1,2,0:2:0:0:
366,169,67034,1,0,0:2:0:0:
366,169,67115,2,0,P|424:149|444:152,1,53.76000065625,8|0,2:2|0:2,0:2:0:0:
248,241,67277,1,2,0:2:0:0:
248,241,67358,1,0,0:2:0:0:
248,241,67439,2,0,P|192:214|180:197,1,53.76000065625,8|0,2:2|0:2,0:2:0:0:
146,68,67602,6,0,B|144:38|111:17|111:17|26:68|74:191,1,215.040002625,6|0,0:2|0:2,0:2:0:0:
206,315,68088,5,10,2:2:0:0:
327,101,68250,1,0,0:2:0:0:
247,156,68413,1,10,2:2:0:0:
457,278,68575,1,0,0:2:0:0:
457,278,68656,1,0,0:2:0:0:
457,278,68737,1,10,2:2:0:0:
173,204,68899,1,2,0:2:0:0:
250,71,69061,1,8,2:2:0:0:
318,301,69223,1,2,0:2:0:0:
374,217,69386,1,10,2:2:0:0:
87,195,69548,1,0,0:2:0:0:
154,115,69710,1,10,2:2:0:0:
197,90,69791,1,4,0:3:0:0:
240,89,69872,1,4,0:3:0:0:
274,112,69953,1,4,0:3:0:0:
289,135,70034,1,4,0:3:0:0:
309,147,70115,1,4,0:3:0:0:
328,147,70196,6,0,P|294:106|214:216,1,215.040002625,4|0,0:2|0:2,0:2:0:0:
284,299,70683,1,10,2:2:0:0:
137,264,70845,1,2,0:2:0:0:
252,381,71007,2,0,P|322:364|361:322,1,107.5200013125,2|0,0:2|0:2,0:2:0:0:
202,114,71332,1,10,2:2:0:0:
93,338,71494,2,0,P|59:263|80:129,1,215.040002625,2|0,0:2|0:2,0:2:0:0:
247,47,71980,2,0,P|275:104|277:123,1,53.76000065625,10|0,2:2|0:2,0:2:0:0:
225,266,72142,1,2,0:2:0:0:
225,266,72223,1,0,0:2:0:0:
225,266,72304,2,0,P|292:229|346:240,1,107.5200013125,10|0,2:2|0:2,0:2:0:0:
410,205,72548,1,0,0:2:0:0:
410,205,72629,2,0,P|323:215|227:163,1,161.28000196875,10|0,2:2|2:2,0:2:0:0:
166,87,72953,6,0,P|86:80|68:216,1,215.040002625,6|8,0:2|2:2,0:2:0:0:
182,334,73440,1,2,0:2:0:0:
269,144,73602,1,2,0:2:0:0:
143,249,73764,1,0,0:2:0:0:
348,167,73926,1,10,2:2:0:0:
390,262,74088,2,0,P|306:240|271:212,1,107.5200013125,2|0,0:2|0:2,0:2:0:0:
160,43,74413,1,2,0:2:0:0:
320,79,74575,1,8,2:2:0:0:
249,10,74737,2,0,P|226:92|223:132,1,107.5200013125,2|0,0:2|0:2,0:2:0:0:
284,321,75061,1,2,0:2:0:0:
348,167,75223,1,8,2:2:0:0:
423,237,75386,6,0,B|285:228|346:311|194:286,1,215.040002625,2|0,0:2|0:2,0:2:0:0:
39,183,75872,1,8,2:2:0:0:
240,207,76034,1,2,0:2:0:0:
17,258,76196,1,2,0:2:0:0:
88,309,76359,1,0,0:2:0:0:
88,309,76441,1,0,0:2:0:0:
88,309,76521,1,8,2:2:0:0:
188,125,76683,2,0,P|164:202|168:250,1,107.5200013125,2|0,0:2|0:2,0:2:0:0:
305,357,77007,1,2,0:2:0:0:
417,165,77169,1,8,2:2:0:0:
269,282,77332,1,2,0:2:0:0:
269,282,77413,1,0,0:2:0:0:
269,282,77494,2,0,P|197:266|185:267,1,53.76000065625,8|0,2:2|0:2,0:2:0:0:
348,106,77656,1,2,0:2:0:0:
348,106,77737,1,0,0:2:0:0:
348,106,77818,2,0,P|420:90|432:91,1,53.76000065625,8|0,2:2|0:2,0:2:0:0:
420,296,77980,6,0,P|341:290|276:181,1,215.040002625,6|0,0:2|0:2,0:2:0:0:
316,4,78467,1,10,2:2:0:0:
148,167,78629,1,0,0:2:0:0:
91,86,78791,1,10,2:2:0:0:
344,45,78953,1,0,0:2:0:0:
344,45,79034,1,0,0:2:0:0:
344,45,79115,1,10,2:2:0:0:
294,312,79277,1,2,0:2:0:0:
251,215,79440,1,8,2:2:0:0:
486,350,79602,1,2,0:2:0:0:
437,252,79764,1,10,2:2:0:0:
183,355,79926,1,0,0:2:0:0:
346,234,80088,1,10,2:2:0:0:
169,189,80250,1,4,0:3:0:0:
169,189,80332,1,4,0:3:0:0:
169,189,80413,2,0,L|154:111,1,53.76000065625,4|4,0:3|0:3,0:2:0:0:
245,9,80575,5,4,0:2:0:0:
245,9,80899,1,2,0:2:0:0:
144,81,81061,1,10,2:2:0:0:
39,51,81223,1,2,0:2:0:0:
237,131,81386,2,0,B|262:184|262:184|239:248,1,107.5200013125,2|0,0:2|0:2,0:2:0:0:
74,349,81710,1,8,2:2:0:0:
264,299,81872,1,2,0:2:0:0:
178,260,82034,5,2,0:2:0:0:
240,373,82196,1,2,0:2:0:0:
373,311,82359,1,10,2:2:0:0:
311,198,82521,1,0,0:2:0:0:
264,299,82683,1,10,2:2:0:0:
397,214,82845,1,0,0:2:0:0:
251,141,83007,1,2,0:2:0:0:
322,81,83169,1,2,0:2:0:0:
185,199,83332,6,0,B|106:228|51:154|51:154|70:115|119:109,1,215.040002625,6|0,0:0|0:0,0:0:0:0:
251,141,83818,1,2,0:0:0:0:
218,263,83980,2,0,P|108:279|3:206,1,215.040002625,10|0,2:0|0:0,0:0:0:0:
174,121,84467,1,2,0:0:0:0:
327,244,84629,5,2,0:0:0:0:
409,154,84791,1,8,0:0:0:0:
329,158,84953,1,2,0:0:0:0:
410,244,85115,1,0,0:0:0:0:
410,244,85196,1,0,0:0:0:0:
410,244,85277,1,10,0:0:0:0:
305,75,85440,1,0,0:0:0:0:
216,242,85602,1,10,0:0:0:0:
388,59,85764,6,0,P|327:-1|194:35,1,215.040002625,2|0,0:0|0:0,0:0:0:0:
138,149,86250,1,2,0:0:0:0:
167,124,86413,1,0,0:0:0:0:
94,89,86575,1,8,0:0:0:0:
143,232,86737,1,8,0:0:0:0:
245,94,86899,1,8,0:0:0:0:
266,141,86980,1,8,0:0:0:0:
248,181,87061,1,8,0:0:0:0:
258,210,87142,1,0,0:0:0:0:
258,210,87223,6,0,B|280:267|280:267|251:322,1,107.5200013125,10|0,0:0|0:0,0:0:0:0:
373,104,87548,1,2,0:0:0:0:
180,255,87710,1,10,0:0:0:0:
436,177,87872,1,10,0:3:0:0:
391,148,87953,1,8,0:3:0:0:
342,146,88034,1,10,0:3:0:0:
305,162,88115,1,4,0:3:0:0:
285,187,88196,1,4,0:3:0:0:
260,206,88277,1,4,0:3:0:0:
231,213,88349,6,0,P|151:218|133:82,1,215.040002625,6|0,1:2|0:2,0:2:0:0:
307,46,88835,1,0,1:2:0:0:
246,103,88997,1,0,1:2:0:0:
85,20,89159,1,8,0:2:0:0:
85,20,89321,2,0,P|34:104|45:224,2,215.040002625,0|0|8,1:2|1:2|0:2,0:2:0:0:
165,158,90132,1,0,1:2:0:0:
211,96,90294,1,0,1:2:0:0:
211,96,90376,1,0,1:2:0:0:
211,96,90457,5,8,0:2:0:0:
247,166,90619,2,0,P|310:211|435:148,2,215.040002625,0|0|8,1:2|1:2|0:2,0:2:0:0:
401,40,91430,1,0,1:2:0:0:
465,85,91592,1,0,1:2:0:0:
465,85,91673,1,0,1:2:0:0:
465,85,91754,1,8,0:2:0:0:
389,118,91916,2,0,P|323:98|273:100,1,107.5200013125,0|0,1:2|1:2,0:2:0:0:
101,219,92240,6,0,B|56:181|56:181|138:121|211:207,1,215.040002625,0|8,1:2|0:2,0:2:0:0:
303,325,92727,1,0,1:2:0:0:
373,312,92889,2,0,L|379:251,1,53.76000065625,0|0,1:2|1:2,0:2:0:0:
393,40,93051,1,8,0:2:0:0:
388,166,93213,2,0,P|320:97|243:125,1,161.28000196875,0|0,1:2|0:2,0:2:0:0:
225,170,93538,6,0,P|157:239|80:211,1,161.28000196875,0|0,1:2|0:2,0:2:0:0:
58,169,93862,1,0,1:2:0:0:
128,191,94024,1,0,1:2:0:0:
167,256,94186,1,0,1:2:0:0:
233,291,94349,2,0,P|317:262|453:250,1,215.040002625,8|0,0:2|1:2,0:2:0:0:
485,56,94835,2,0,B|362:50|422:142|295:149,1,215.040002625,0|8,1:2|0:2,0:2:0:0:
121,40,95321,1,0,1:2:0:0:
190,71,95484,2,0,L|200:137,1,53.76000065625,0|0,1:2|1:2,0:2:0:0:
219,348,95646,1,8,0:2:0:0:
110,283,95808,2,0,P|209:239|304:235,1,161.28000196875,0|0,1:2|0:2,0:2:0:0:
332,240,96132,6,0,P|431:284|526:288,1,161.28000196875,0|0,1:2|0:2,0:2:0:0:
482,290,96457,2,0,L|473:235,2,53.76000065625,0|0|0,1:2|1:2|1:2,0:2:0:0:
421,176,96781,1,0,1:2:0:0:
316,346,96943,1,8,0:2:0:0:
199,278,97105,2,0,P|136:274|192:303,1,161.28000196875,0|0,1:2|0:2,0:2:0:0:
199,278,97430,6,0,B|236:146|140:203|182:51,1,215.040002625,0|8,1:2|0:2,0:2:0:0:
195,45,97835,1,8,0:2:0:0:
213,66,97916,1,8,0:2:0:0:
157,158,98078,1,8,0:3:0:0:
88,55,98240,1,4,0:3:0:0:
272,136,98403,1,4,0:3:0:0:
64,323,98727,6,0,B|277:321|122:216|369:218,1,314.880004804688,4|0,1:2|0:0,0:0:0:0:
