osu file format v14

[General]
AudioFilename: audio.mp3
AudioLeadIn: 0
PreviewTime: 51851
Countdown: 0
SampleSet: Soft
StackLeniency: 0.7
Mode: 3
LetterboxInBreaks: 0
SpecialStyle: 0
WidescreenStoryboard: 1

[Editor]
Bookmarks: 13342,25729,31922,38116
DistanceSpacing: 0.8
BeatDivisor: 4
GridSize: 4
TimelineZoom: 2.5

[Metadata]
Title:Bibitto Love (TV Size)
TitleUnicode:ビビっとラブ (TV Size)
Artist:CHiCO with HoneyWorks meets mafumafu
ArtistUnicode:CHiCO with HoneyWorks meets まふまふ
Creator:FerdiXIA-
Version:Hard
Source:理系が恋に落ちたので証明してみた。r=1-sinθ
Tags:savageeeee darkebluu rikei ga koi ni ochita no de shoumei shite mita. ハート heart science fell in love so i tried to prove it rikekoi anime ending ed japanese pop jpop j-pop smcl-766 smcl-767 gom shito musicray'n yamamoto alfred alifred ari furredo 山本 アリフレッド shōmei
BeatmapID:3972205
BeatmapSetID:1922925

[Difficulty]
HPDrainRate:8
CircleSize:4
OverallDifficulty:8
ApproachRate:5
SliderMultiplier:1.4
SliderTickRate:1

[Events]
//Background and Video events
0,0,"3.jpg",0,0
Video,0,"ed.mp4"
//Break Periods
//Storyboard Layer 0 (Background)
//Storyboard Layer 1 (Fail)
//Storyboard Layer 2 (Pass)
//Storyboard Layer 3 (Foreground)
//Storyboard Layer 4 (Overlay)
//Storyboard Sound Samples
Sample,33277,0,"Hat Close.wav",15
Sample,43922,0,"Tom3.wav",30
Sample,45277,0,"Tom3.wav",30
Sample,56116,0,"Hat Open.wav",40
Sample,56503,0,"Hat Open.wav",40
Sample,77406,0,"Hat Open.wav",40
Sample,80503,0,"Hat Open.wav",40

[TimingPoints]
955,387.096774193548,4,2,1,50,1,0
52051,-100,4,2,1,50,0,1
64051,-100,4,2,1,50,0,0
64438,-100,4,2,1,50,0,1
76825,-100,4,2,1,50,0,0

[HitObjects]
64,192,954,128,2,1342:0:0:0:0:
320,192,954,1,4,0:0:0:0:
448,192,954,1,0,0:0:0:0:
192,192,1342,128,0,1729:0:0:0:0:
64,192,1729,1,2,0:0:0:0:
320,192,1729,1,4,0:0:0:0:
448,192,1729,128,0,2116:0:0:0:0:
320,192,2116,128,0,2503:0:0:0:0:
64,192,2503,128,2,2890:0:0:0:0:
192,192,2503,1,4,0:0:0:0:
448,192,2503,1,0,0:0:0:0:
192,192,2890,128,0,3277:0:0:0:0:
64,192,3277,1,2,0:0:0:0:
320,192,3277,1,4,0:0:0:0:
448,192,3277,128,0,3664:0:0:0:0:
64,192,3664,128,0,3858:0:0:0:0:
320,192,3858,1,8,0:0:0:0:
192,192,3954,1,8,0:0:0:0:
64,192,4051,1,2,0:0:0:0:
320,192,4051,1,4,0:0:0:0:
448,192,4051,1,0,0:0:0:0:
192,192,4245,1,0,0:0:0:0:
64,192,4438,1,2,0:0:0:0:
448,192,4438,1,0,0:0:0:0:
320,192,4632,1,0,0:0:0:25:Hat Open.wav
64,192,4825,1,2,0:0:0:0:
192,192,4825,1,0,0:0:0:0:
320,192,5019,1,0,0:0:0:25:Hat Open.wav
64,192,5213,1,2,0:0:0:0:
448,192,5213,1,0,0:0:0:0:
192,192,5406,128,0,5600:0:0:0:25:Hat Open.wav
320,192,5600,1,2,0:0:0:0:
448,192,5600,128,0,5987:0:0:0:0:
192,192,5793,1,0,0:0:0:25:Hat Open.wav
64,192,5987,128,2,6180:0:0:0:0:
320,192,5987,1,0,0:0:0:0:
192,192,6180,128,0,6374:0:0:0:25:Hat Open.wav
320,192,6374,1,2,0:0:0:0:
448,192,6374,1,0,0:0:0:0:
64,192,6471,1,8,0:0:0:0:
192,192,6567,1,0,0:0:0:30:Tom1.wav
448,192,6664,1,8,0:0:0:0:
320,192,6761,1,2,0:0:0:0:
192,192,6858,1,0,0:0:0:30:Tom1.wav
64,192,6954,1,0,0:0:0:30:Tom2.wav
448,192,7051,1,0,0:0:0:30:Tom3.wav
64,192,7148,128,2,7535:0:0:0:0:
192,192,7148,1,4,0:0:0:0:
320,192,7148,1,0,0:0:0:0:
448,192,7535,1,2,0:0:0:0:
320,192,7632,1,8,0:0:0:0:
192,192,7729,1,8,0:0:0:0:
64,192,7825,1,8,0:0:0:0:
320,192,7922,1,2,0:0:0:0:
448,192,7922,1,8,0:0:0:0:
192,192,8019,1,8,0:0:0:0:
320,192,8116,1,8,0:0:0:0:
64,192,8213,1,8,0:0:0:0:
192,192,8309,1,2,0:0:0:0:
448,192,8309,1,8,0:0:0:0:
320,192,8406,1,8,0:0:0:0:
192,192,8503,1,8,0:0:0:0:
64,192,8600,1,8,0:0:0:0:
320,192,8696,1,2,0:0:0:0:
448,192,8696,1,8,0:0:0:0:
192,192,8793,1,8,0:0:0:0:
64,192,8890,1,8,0:0:0:0:
320,192,8987,1,8,0:0:0:0:
192,192,9084,1,2,0:0:0:0:
448,192,9084,1,8,0:0:0:0:
64,192,9180,1,8,0:0:0:0:
320,192,9277,1,8,0:0:0:0:
448,192,9374,1,8,0:0:0:0:
64,192,9471,1,2,0:0:0:0:
192,192,9471,1,8,0:0:0:0:
320,192,9567,1,8,0:0:0:0:
448,192,9664,1,0,0:0:0:30:Tom1.wav
64,192,9761,1,0,0:0:0:30:Tom1.wav
192,192,9858,1,2,0:0:0:0:
448,192,9858,1,0,0:0:0:0:
320,192,9954,1,0,0:0:0:30:Tom2.wav
64,192,10051,1,0,0:0:0:30:Tom3.wav
192,192,10148,1,2,0:0:0:0:
320,192,10245,1,8,0:0:0:0:
448,192,10245,1,0,0:0:0:0:
320,192,10438,1,0,0:0:0:0:
192,192,10535,1,0,0:0:0:0:
320,192,10825,1,8,0:0:0:0:
448,192,10825,1,0,0:0:0:0:
64,192,11019,1,8,0:0:0:0:
192,192,11019,1,0,0:0:0:0:
192,192,11213,1,0,0:0:0:0:
320,192,11309,1,0,0:0:0:0:
64,192,11600,1,8,0:0:0:0:
192,192,11600,1,0,0:0:0:0:
64,192,11793,1,8,0:0:0:0:
448,192,11793,1,0,0:0:0:0:
320,192,11987,1,0,0:0:0:30:Tom1.wav
448,192,11987,1,0,0:0:0:0:
64,192,12180,1,2,0:0:0:0:
192,192,12180,1,0,0:0:0:0:
320,192,12374,1,0,0:0:0:30:Tom3.wav
448,192,12374,1,0,0:0:0:0:
64,192,12567,1,8,0:0:0:0:
192,192,12567,1,0,0:0:0:0:
192,192,12761,1,2,0:0:0:0:
320,192,12761,1,0,0:0:0:0:
64,192,12954,128,8,13342:0:0:0:0:
320,192,12954,1,4,0:0:0:0:
448,192,12954,1,0,0:0:0:0:
192,192,13342,1,2,0:0:0:0:
320,192,13342,1,4,0:0:0:0:
448,192,13342,1,0,0:0:0:0:
192,192,13535,1,0,0:0:0:40:Hat Open.wav
64,192,13729,1,2,0:0:0:0:
448,192,13729,1,8,0:0:0:0:
320,192,13922,1,0,0:0:0:40:Hat Open.wav
64,192,14116,1,2,0:0:0:0:
192,192,14116,1,0,0:0:0:0:
320,192,14213,1,8,0:0:0:0:
448,192,14309,1,0,0:0:0:40:Hat Open.wav
192,192,14503,1,2,0:0:0:0:
320,192,14503,1,8,0:0:0:0:
64,192,14696,1,0,0:0:0:40:Hat Open.wav
192,192,14793,1,8,0:0:0:0:
320,192,14890,1,2,0:0:0:0:
448,192,14890,1,0,0:0:0:0:
320,192,15084,1,0,0:0:0:40:Hat Open.wav
64,192,15277,1,2,0:0:0:0:
448,192,15277,1,8,0:0:0:0:
192,192,15471,1,0,0:0:0:40:Hat Open.wav
64,192,15664,1,2,0:0:0:0:
448,192,15664,1,0,0:0:0:0:
320,192,15761,1,8,0:0:0:0:
192,192,15858,1,0,0:0:0:40:Hat Open.wav
64,192,16051,1,2,0:0:0:0:
448,192,16051,1,8,0:0:0:0:
320,192,16245,1,0,0:0:0:40:Hat Open.wav
64,192,16438,1,2,0:0:0:0:
192,192,16438,1,0,0:0:0:0:
192,192,16632,1,0,0:0:0:40:Hat Open.wav
64,192,16825,1,2,0:0:0:0:
448,192,16825,1,8,0:0:0:0:
320,192,17019,1,0,0:0:0:40:Hat Open.wav
64,192,17213,1,2,0:0:0:0:
448,192,17213,1,0,0:0:0:0:
192,192,17309,1,8,0:0:0:0:
320,192,17406,1,0,0:0:0:40:Hat Open.wav
64,192,17600,1,2,0:0:0:0:
448,192,17600,1,8,0:0:0:0:
192,192,17793,1,0,0:0:0:40:Hat Open.wav
64,192,17890,1,8,0:0:0:0:
320,192,17987,1,2,0:0:0:0:
448,192,17987,1,0,0:0:0:0:
320,192,18180,1,0,0:0:0:40:Hat Open.wav
64,192,18374,1,2,0:0:0:0:
448,192,18374,1,8,0:0:0:0:
192,192,18567,1,0,0:0:0:40:Hat Open.wav
64,192,18761,1,2,0:0:0:0:
448,192,18761,1,0,0:0:0:0:
192,192,18858,1,8,0:0:0:0:
320,192,18954,1,0,0:0:0:40:Hat Open.wav
64,192,19148,1,10,0:0:0:0:
320,192,19245,1,8,0:0:0:0:
64,192,19342,1,8,0:0:0:0:
320,192,19438,1,8,0:0:0:0:
64,192,19535,1,2,0:0:0:0:
192,192,19535,1,4,0:0:0:0:
448,192,19535,1,0,0:0:0:0:
448,192,19729,1,0,0:0:0:40:Hat Open.wav
64,192,19922,1,2,0:0:0:0:
320,192,19922,1,8,0:0:0:0:
192,192,20116,1,0,0:0:0:40:Hat Open.wav
320,192,20309,1,2,0:0:0:0:
448,192,20309,1,0,0:0:0:0:
192,192,20406,1,8,0:0:0:0:
64,192,20503,1,0,0:0:0:40:Hat Open.wav
192,192,20696,1,2,0:0:0:0:
320,192,20696,1,8,0:0:0:0:
64,192,20890,1,0,0:0:0:40:Hat Open.wav
448,192,20987,1,8,0:0:0:0:
64,192,21084,1,2,0:0:0:0:
192,192,21084,1,0,0:0:0:0:
320,192,21277,1,0,0:0:0:40:Hat Open.wav
192,192,21471,1,2,0:0:0:0:
448,192,21471,1,8,0:0:0:0:
64,192,21664,1,0,0:0:0:40:Hat Open.wav
320,192,21858,1,2,0:0:0:0:
448,192,21858,1,0,0:0:0:0:
64,192,21954,1,8,0:0:0:0:
192,192,22051,1,0,0:0:0:40:Hat Open.wav
320,192,22245,1,2,0:0:0:0:
448,192,22245,1,8,0:0:0:0:
192,192,22438,1,0,0:0:0:40:Hat Open.wav
64,192,22632,1,2,0:0:0:0:
448,192,22632,1,0,0:0:0:0:
320,192,22825,1,0,0:0:0:40:Hat Open.wav
64,192,23019,1,2,0:0:0:0:
192,192,23019,1,8,0:0:0:0:
320,192,23213,1,0,0:0:0:40:Hat Open.wav
64,192,23406,1,2,0:0:0:0:
448,192,23406,1,0,0:0:0:0:
192,192,23503,1,8,0:0:0:0:
320,192,23600,1,0,0:0:0:40:Hat Open.wav
64,192,23793,1,10,0:0:0:0:
192,192,23793,1,4,0:0:0:0:
448,192,23987,1,8,0:0:0:0:
320,192,24084,1,8,0:0:0:0:
64,192,24180,1,2,0:0:0:0:
192,192,24180,1,0,0:0:0:0:
320,192,24374,1,8,0:0:0:0:
448,192,24374,1,0,0:0:0:0:
64,192,24567,1,2,0:0:0:0:
448,192,24567,1,8,0:0:0:0:
192,192,24664,1,0,0:0:0:30:Tom1.wav
320,192,24761,1,0,0:0:0:30:Tom2.wav
192,192,24858,1,2,0:0:0:0:
64,192,24954,1,8,0:0:0:0:
448,192,24954,1,0,0:0:0:0:
64,192,25148,1,2,0:0:0:0:
192,192,25148,1,0,0:0:0:0:
320,192,25342,1,8,0:0:0:0:
448,192,25342,128,4,25729:0:0:0:0:
64,192,25729,1,2,0:0:0:0:
192,192,25729,1,4,0:0:0:0:
320,192,25922,1,0,0:0:0:15:Hat Close.wav
64,192,26116,1,2,0:0:0:0:
192,192,26116,1,0,0:0:0:0:
448,192,26309,1,0,0:0:0:15:Hat Close.wav
192,192,26503,1,2,0:0:0:0:
320,192,26503,1,0,0:0:0:0:
64,192,26696,1,0,0:0:0:15:Hat Close.wav
192,192,26890,1,2,0:0:0:0:
320,192,26890,1,0,0:0:0:0:
448,192,27084,128,0,27277:0:0:0:15:Hat Close.wav
64,192,27277,128,2,27471:0:0:0:0:
320,192,27277,1,0,0:0:0:0:
192,192,27471,128,0,27664:0:0:0:15:Hat Close.wav
320,192,27664,128,2,27858:0:0:0:0:
448,192,27664,1,0,0:0:0:0:
64,192,27858,128,0,28051:0:0:0:15:Hat Close.wav
192,192,28051,1,2,0:0:0:0:
448,192,28051,1,0,0:0:0:0:
320,192,28245,1,0,0:0:0:15:Hat Close.wav
64,192,28438,1,2,0:0:0:0:
192,192,28438,1,0,0:0:0:0:
320,192,28632,1,0,0:0:0:15:Hat Close.wav
64,192,28825,1,2,0:0:0:0:
448,192,28825,1,0,0:0:0:0:
192,192,29019,1,0,0:0:0:15:Hat Close.wav
320,192,29213,1,2,0:0:0:0:
448,192,29213,1,0,0:0:0:0:
64,192,29406,1,0,0:0:0:40:Hat Open.wav
192,192,29600,1,2,0:0:0:0:
320,192,29600,1,0,0:0:0:0:
448,192,29793,1,0,0:0:0:15:Hat Close.wav
64,192,29987,1,2,0:0:0:0:
192,192,29987,1,0,0:0:0:0:
448,192,30180,1,0,0:0:0:15:Hat Close.wav
320,192,30277,1,0,0:0:0:15:Hat Close.wav
64,192,30374,1,2,0:0:0:0:
192,192,30374,1,0,0:0:0:0:
320,192,30567,1,0,0:0:0:15:Hat Close.wav
64,192,30761,1,2,0:0:0:0:
448,192,30761,1,0,0:0:0:0:
192,192,30954,1,0,0:0:0:40:Hat Open.wav
320,192,31148,1,2,0:0:0:0:
448,192,31148,1,8,0:0:0:0:
64,192,31245,1,8,0:0:0:0:
192,192,31245,1,0,0:0:0:0:
320,192,31342,1,8,0:0:0:0:
448,192,31342,1,0,0:0:0:0:
64,192,31438,1,2,0:0:0:0:
192,192,31438,1,0,0:0:0:40:Hat Open.wav
64,192,31632,1,8,0:0:0:0:
192,192,31632,1,0,0:0:0:0:
320,192,31729,1,0,0:0:0:30:Tom1.wav
448,192,31729,1,0,0:0:0:0:
64,192,31922,1,2,0:0:0:0:
192,192,31922,1,4,0:0:0:0:
448,192,31922,1,0,0:0:0:0:
192,192,32116,1,0,0:0:0:0:
64,192,32309,1,8,0:0:0:0:
448,192,32309,1,2,0:0:0:0:
320,192,32503,1,0,0:0:0:15:Hat Close.wav
64,192,32696,1,2,0:0:0:0:
192,192,32696,1,0,0:0:0:0:
64,192,32890,1,0,0:0:0:15:Hat Close.wav
192,192,33084,1,2,0:0:0:0:
448,192,33084,1,8,0:0:0:0:
448,192,33277,128,8,33471:0:0:0:0:
64,192,33471,128,2,33664:0:0:0:0:
320,192,33471,1,0,0:0:0:0:
192,192,33664,128,0,33858:0:0:0:15:Hat Close.wav
320,192,33858,1,8,0:0:0:0:
448,192,33858,128,2,34051:0:0:0:0:
64,192,34051,128,0,34245:0:0:0:15:Hat Close.wav
192,192,34245,1,2,0:0:0:0:
320,192,34342,1,8,0:0:0:0:
64,192,34438,1,0,0:0:0:15:Hat Close.wav
192,192,34535,1,8,0:0:0:0:
320,192,34632,1,2,0:0:0:0:
448,192,34632,1,0,0:0:0:0:
64,192,34825,1,8,0:0:0:0:
192,192,34825,1,0,0:0:0:40:Hat Open.wav
320,192,35019,1,2,0:0:0:0:
448,192,35019,1,0,0:0:0:0:
320,192,35213,1,0,0:0:0:15:Hat Close.wav
64,192,35406,1,8,0:0:0:0:
448,192,35406,1,2,0:0:0:0:
64,192,35600,1,0,0:0:0:15:Hat Close.wav
192,192,35793,1,2,0:0:0:0:
320,192,35793,1,0,0:0:0:0:
320,192,35987,1,0,0:0:0:15:Hat Close.wav
64,192,36180,1,2,0:0:0:0:
448,192,36180,1,8,0:0:0:0:
192,192,36374,1,0,0:0:0:15:Hat Close.wav
320,192,36471,1,0,0:0:0:15:Hat Close.wav
64,192,36567,1,2,0:0:0:0:
448,192,36567,1,0,0:0:0:40:Hat Open.wav
64,192,36761,1,0,0:0:0:30:Tom1.wav
192,192,36858,1,8,0:0:0:0:
448,192,36954,1,10,0:0:0:0:
320,192,37051,1,0,0:0:0:30:Tom1.wav
64,192,37148,1,0,0:0:0:30:Tom2.wav
192,192,37245,1,2,0:0:0:0:
320,192,37342,1,8,0:0:0:0:
448,192,37342,1,0,0:0:0:0:
64,192,37729,128,0,38116:0:0:0:0:
192,192,37922,128,0,38116:0:0:0:0:
320,192,38116,1,2,0:0:0:0:
448,192,38116,1,4,0:0:0:0:
64,192,38309,1,0,0:0:0:0:
320,192,38503,1,2,0:0:0:0:
448,192,38503,1,0,0:0:0:0:
192,192,38696,1,0,0:0:0:30:Tom2.wav
320,192,38890,1,2,0:0:0:0:
448,192,38890,1,0,0:0:0:30:Tom3.wav
64,192,39084,1,0,0:0:0:0:
192,192,39277,1,2,0:0:0:0:
320,192,39277,1,0,0:0:0:30:Tom3.wav
448,192,39471,1,0,0:0:0:0:
64,192,39664,1,2,0:0:0:0:
192,192,39664,1,0,0:0:0:30:Tom3.wav
320,192,39858,1,0,0:0:0:30:Tom2.wav
448,192,39858,1,0,0:0:0:0:
192,192,40051,1,2,0:0:0:0:
320,192,40051,1,0,0:0:0:0:
64,192,40245,1,0,0:0:0:30:Tom2.wav
192,192,40245,1,0,0:0:0:0:
64,192,40438,1,2,0:0:0:0:
320,192,40438,1,4,0:0:0:0:
448,192,40438,1,0,0:0:0:30:Tom3.wav
192,192,40825,1,2,0:0:0:0:
320,192,40825,1,0,0:0:0:0:
448,192,41019,1,0,0:0:0:30:Tom2.wav
64,192,41213,1,2,0:0:0:0:
192,192,41213,1,4,0:0:0:0:
320,192,41213,1,0,0:0:0:0:
448,192,41406,1,0,0:0:0:0:
64,192,41600,1,2,0:0:0:0:
192,192,41600,1,0,0:0:0:0:
320,192,41793,1,8,0:0:0:0:
448,192,41793,1,0,0:0:0:40:Hat Open.wav
64,192,41987,1,2,0:0:0:0:
192,192,41987,1,0,0:0:0:0:
320,192,42180,1,8,0:0:0:0:
448,192,42180,1,0,0:0:0:40:Hat Open.wav
64,192,42374,1,2,0:0:0:0:
192,192,42374,1,0,0:0:0:0:
320,192,42567,1,0,0:0:0:30:Tom3.wav
64,192,42761,1,2,0:0:0:0:
192,192,42761,1,4,0:0:0:0:
448,192,42761,128,0,43148:0:0:0:0:
320,192,42954,1,0,0:0:0:30:Tom2.wav
64,192,43148,128,2,43535:0:0:0:0:
192,192,43148,1,0,0:0:0:0:
448,192,43342,1,0,0:0:0:30:Tom2.wav
192,192,43535,1,2,0:0:0:0:
320,192,43535,128,0,43922:0:0:0:30:Tom3.wav
64,192,43729,1,0,0:0:0:30:Tom3.wav
448,192,43922,1,2,0:0:0:0:
192,192,44116,1,0,0:0:0:30:Tom2.wav
64,192,44309,1,2,0:0:0:0:
192,192,44309,1,4,0:0:0:0:
448,192,44309,1,0,0:0:0:0:
320,192,44503,1,0,0:0:0:0:
64,192,44696,1,2,0:0:0:0:
192,192,44696,1,0,0:0:0:0:
448,192,44890,1,0,0:0:0:30:Tom2.wav
192,192,45084,1,2,0:0:0:0:
320,192,45084,1,0,0:0:0:0:
64,192,45277,1,8,0:0:0:0:
320,192,45471,1,2,0:0:0:0:
448,192,45471,1,8,0:0:0:0:
192,192,45664,1,0,0:0:0:0:
320,192,45761,1,0,0:0:0:30:Tom3.wav
64,192,45858,1,2,0:0:0:0:
192,192,45858,1,4,0:0:0:0:
448,192,45858,1,0,0:0:0:0:
448,192,46051,1,0,0:0:0:30:Tom2.wav
64,192,46245,1,2,0:0:0:0:
192,192,46245,1,0,0:0:0:30:Tom3.wav
320,192,46438,1,0,0:0:0:30:Tom2.wav
192,192,46535,1,0,0:0:0:0:
64,192,46632,1,2,0:0:0:0:
448,192,46632,1,0,0:0:0:0:
192,192,46729,1,0,0:0:0:30:Tom2.wav
320,192,46825,1,0,0:0:0:30:Tom3.wav
64,192,47019,1,2,0:0:0:0:
448,192,47019,1,8,0:0:0:0:
320,192,47116,1,0,0:0:0:30:Tom3.wav
192,192,47213,1,0,0:0:0:30:Tom3.wav
64,192,47309,1,0,0:0:0:30:Tom3.wav
192,192,47406,1,4,0:0:0:0:
320,192,47406,1,2,0:0:0:0:
448,192,47406,1,0,0:0:0:0:
448,192,47600,1,0,0:0:0:30:Tom2.wav
64,192,47793,1,2,0:0:0:0:
192,192,47793,1,0,0:0:0:0:
320,192,47987,1,8,0:0:0:0:
448,192,47987,1,0,0:0:0:40:Hat Open.wav
64,192,48180,1,2,0:0:0:0:
192,192,48180,1,0,0:0:0:0:
320,192,48374,1,0,0:0:0:30:Tom3.wav
64,192,48567,1,2,0:0:0:0:
448,192,48567,1,8,0:0:0:0:
192,192,48761,1,0,0:0:0:0:
64,192,48954,1,2,0:0:0:0:
320,192,48954,1,4,0:0:0:0:
448,192,48954,1,0,0:0:0:0:
192,192,49148,1,8,0:0:0:0:
448,192,49148,1,0,0:0:0:0:
320,192,49245,1,0,0:0:0:0:
64,192,49342,1,2,0:0:0:0:
192,192,49438,1,8,0:0:0:0:
320,192,49535,1,8,0:0:0:0:
448,192,49632,1,0,0:0:0:30:Tom1.wav
64,192,49729,1,2,0:0:0:0:
192,192,49729,1,0,0:0:0:0:
320,192,49825,1,0,0:0:0:30:Tom2.wav
192,192,49922,1,0,0:0:0:30:Tom3.wav
448,192,50019,1,2,0:0:0:0:
64,192,50116,128,8,50503:0:0:0:0:
320,192,50116,1,0,0:0:0:0:
448,192,50503,128,0,51277:0:0:0:0:
64,192,50890,128,0,51277:0:0:0:0:
320,192,51277,128,0,51664:0:0:0:0:
64,192,51664,1,0,0:0:0:0:
192,192,51761,1,0,0:0:0:0:
320,192,51858,1,0,0:0:0:0:
448,192,51954,1,0,0:0:0:0:
64,192,52051,1,2,0:0:0:0:
192,192,52051,1,4,0:0:0:0:
320,192,52051,1,0,0:0:0:0:
64,192,52245,1,0,0:0:0:40:Hat Open.wav
320,192,52438,1,8,0:0:0:0:
448,192,52438,1,2,0:0:0:0:
192,192,52632,1,0,0:0:0:40:Hat Open.wav
64,192,52825,1,2,0:0:0:0:
448,192,52825,1,0,0:0:0:0:
320,192,53019,1,0,0:0:0:40:Hat Open.wav
64,192,53213,1,2,0:0:0:0:
192,192,53213,1,8,0:0:0:0:
320,192,53406,1,0,0:0:0:40:Hat Open.wav
448,192,53503,1,8,0:0:0:0:
64,192,53600,1,2,0:0:0:0:
192,192,53600,1,0,0:0:0:0:
64,192,53793,1,0,0:0:0:40:Hat Open.wav
320,192,53987,1,8,0:0:0:0:
448,192,53987,1,2,0:0:0:0:
192,192,54180,1,0,0:0:0:40:Hat Open.wav
320,192,54277,1,8,0:0:0:0:
64,192,54374,1,2,0:0:0:0:
448,192,54374,1,0,0:0:0:0:
192,192,54471,1,8,0:0:0:0:
320,192,54567,1,0,0:0:0:40:Hat Open.wav
64,192,54761,1,2,0:0:0:0:
448,192,54761,1,8,0:0:0:0:
320,192,54954,1,0,0:0:0:40:Hat Open.wav
192,192,55051,1,0,0:0:0:0:
64,192,55148,128,2,55342:0:0:0:0:
448,192,55148,1,0,0:0:0:0:
192,192,55342,1,0,0:0:0:40:Hat Open.wav
448,192,55438,128,0,55729:0:0:0:0:
192,192,55535,1,8,0:0:0:0:
320,192,55535,1,2,0:0:0:0:
64,192,55729,128,0,55922:0:0:0:40:Hat Open.wav
192,192,55825,1,8,0:0:0:0:
320,192,55922,1,2,0:0:0:0:
448,192,55922,128,0,56116:0:0:0:0:
192,192,56116,1,8,0:0:0:0:
64,192,56213,128,0,56503:0:0:0:0:
320,192,56309,1,2,0:0:0:0:
448,192,56309,1,8,0:0:0:0:
192,192,56503,1,8,0:0:0:0:
320,192,56600,1,8,0:0:0:0:
64,192,56696,1,2,0:0:0:0:
448,192,56696,128,0,57084:0:0:0:0:
192,192,56890,1,0,0:0:0:40:Hat Open.wav
64,192,57084,1,8,0:0:0:0:
320,192,57084,1,2,0:0:0:0:
448,192,57277,1,0,0:0:0:40:Hat Open.wav
320,192,57374,1,8,0:0:0:0:
64,192,57471,1,2,0:0:0:0:
192,192,57471,1,0,0:0:0:0:
448,192,57567,1,8,0:0:0:0:
320,192,57664,1,0,0:0:0:40:Hat Open.wav
64,192,57858,1,2,0:0:0:0:
448,192,57858,1,8,0:0:0:0:
320,192,58051,1,8,0:0:0:0:
192,192,58148,1,8,0:0:0:0:
64,192,58245,1,2,0:0:0:0:
320,192,58245,1,4,0:0:0:0:
448,192,58245,1,0,0:0:0:0:
192,192,58438,1,0,0:0:0:40:Hat Open.wav
64,192,58632,1,8,0:0:0:0:
448,192,58632,1,2,0:0:0:0:
320,192,58825,1,0,0:0:0:40:Hat Open.wav
64,192,59019,1,2,0:0:0:0:
448,192,59019,1,0,0:0:0:0:
192,192,59213,1,0,0:0:0:40:Hat Open.wav
320,192,59406,1,2,0:0:0:0:
448,192,59406,1,8,0:0:0:0:
192,192,59600,1,0,0:0:0:40:Hat Open.wav
64,192,59696,1,8,0:0:0:0:
320,192,59793,1,2,0:0:0:0:
448,192,59793,1,0,0:0:0:0:
192,192,59987,1,0,0:0:0:40:Hat Open.wav
64,192,60180,1,8,0:0:0:0:
448,192,60180,1,2,0:0:0:0:
320,192,60374,1,0,0:0:0:40:Hat Open.wav
192,192,60471,1,8,0:0:0:0:
64,192,60567,1,2,0:0:0:0:
448,192,60567,1,0,0:0:0:0:
320,192,60664,1,8,0:0:0:0:
192,192,60761,1,0,0:0:0:40:Hat Open.wav
64,192,60954,1,2,0:0:0:0:
448,192,60954,1,8,0:0:0:0:
192,192,61148,1,0,0:0:0:40:Hat Open.wav
320,192,61245,1,0,0:0:0:0:
64,192,61342,1,2,0:0:0:0:
448,192,61342,128,0,61535:0:0:0:0:
192,192,61535,1,0,0:0:0:40:Hat Open.wav
64,192,61632,128,0,61922:0:0:0:0:
320,192,61729,1,8,0:0:0:0:
448,192,61729,1,2,0:0:0:0:
448,192,61922,128,0,62116:0:0:0:40:Hat Open.wav
320,192,62019,1,8,0:0:0:0:
64,192,62116,128,2,62309:0:0:0:0:
192,192,62116,1,0,0:0:0:0:
320,192,62309,1,0,0:0:0:40:Hat Open.wav
448,192,62406,128,0,62696:0:0:0:0:
64,192,62503,1,2,0:0:0:0:
192,192,62503,1,8,0:0:0:0:
320,192,62696,1,0,0:0:0:40:Hat Open.wav
192,192,62793,1,8,0:0:0:0:
64,192,62890,128,2,63084:0:0:0:0:
448,192,62890,1,0,0:0:0:0:
320,192,63084,128,8,63277:0:0:0:0:
448,192,63084,1,0,0:0:0:0:
64,192,63277,1,2,0:0:0:0:
192,192,63277,128,0,63471:0:0:0:0:
320,192,63471,1,0,0:0:0:30:Tom2.wav
448,192,63471,128,0,63664:0:0:0:0:
64,192,63664,128,8,63858:0:0:0:0:
192,192,63664,1,0,0:0:0:0:
320,192,63858,1,2,0:0:0:0:
448,192,63858,1,0,0:0:0:0:
64,192,64051,1,8,0:0:0:0:
448,192,64051,1,0,0:0:0:0:
192,192,64148,1,8,0:0:0:0:
320,192,64245,1,8,0:0:0:0:
192,192,64342,1,8,0:0:0:0:
64,192,64438,1,2,0:0:0:0:
320,192,64438,1,4,0:0:0:0:
448,192,64438,1,0,0:0:0:0:
448,192,64632,1,0,0:0:0:40:Hat Open.wav
64,192,64825,1,8,0:0:0:0:
192,192,64825,1,2,0:0:0:0:
320,192,65019,1,0,0:0:0:40:Hat Open.wav
64,192,65213,1,2,0:0:0:0:
448,192,65213,1,0,0:0:0:0:
192,192,65406,1,0,0:0:0:40:Hat Open.wav
320,192,65600,1,2,0:0:0:0:
448,192,65600,1,8,0:0:0:0:
192,192,65793,1,0,0:0:0:40:Hat Open.wav
64,192,65890,1,8,0:0:0:0:
320,192,65987,1,2,0:0:0:0:
448,192,65987,1,0,0:0:0:0:
448,192,66180,1,0,0:0:0:40:Hat Open.wav
64,192,66374,1,8,0:0:0:0:
192,192,66374,1,2,0:0:0:0:
320,192,66567,1,0,0:0:0:40:Hat Open.wav
192,192,66664,1,8,0:0:0:0:
64,192,66761,1,2,0:0:0:0:
448,192,66761,1,0,0:0:0:0:
320,192,66858,1,8,0:0:0:0:
192,192,66954,1,0,0:0:0:40:Hat Open.wav
64,192,67148,1,2,0:0:0:0:
448,192,67148,1,8,0:0:0:0:
192,192,67342,1,0,0:0:0:40:Hat Open.wav
320,192,67438,1,0,0:0:0:0:
64,192,67535,1,2,0:0:0:0:
448,192,67535,128,0,67729:0:0:0:0:
320,192,67729,1,0,0:0:0:40:Hat Open.wav
64,192,67825,128,0,68116:0:0:0:0:
192,192,67922,1,8,0:0:0:0:
320,192,67922,1,2,0:0:0:0:
448,192,68116,128,0,68309:0:0:0:40:Hat Open.wav
320,192,68213,1,8,0:0:0:0:
64,192,68309,128,2,68503:0:0:0:0:
192,192,68309,1,0,0:0:0:0:
320,192,68503,1,0,0:0:0:40:Hat Open.wav
448,192,68600,128,0,68890:0:0:0:0:
64,192,68696,1,2,0:0:0:0:
192,192,68696,1,8,0:0:0:0:
320,192,68890,1,0,0:0:0:40:Hat Open.wav
192,192,68987,1,8,0:0:0:0:
64,192,69084,128,2,69471:0:0:0:0:
448,192,69084,1,0,0:0:0:0:
320,192,69277,1,0,0:0:0:40:Hat Open.wav
192,192,69471,1,8,0:0:0:0:
448,192,69471,1,2,0:0:0:0:
64,192,69664,1,0,0:0:0:40:Hat Open.wav
192,192,69761,1,8,0:0:0:0:
320,192,69858,1,2,0:0:0:0:
448,192,69858,1,0,0:0:0:0:
64,192,69954,1,8,0:0:0:0:
192,192,70051,1,0,0:0:0:40:Hat Open.wav
64,192,70245,1,2,0:0:0:0:
448,192,70245,1,8,0:0:0:0:
320,192,70342,1,8,0:0:0:0:
192,192,70438,1,8,0:0:0:0:
320,192,70535,1,8,0:0:0:0:
64,192,70632,1,2,0:0:0:0:
192,192,70632,1,4,0:0:0:0:
448,192,70632,1,0,0:0:0:0:
64,192,70825,1,0,0:0:0:40:Hat Open.wav
320,192,71019,1,8,0:0:0:0:
448,192,71019,1,2,0:0:0:0:
192,192,71213,1,0,0:0:0:40:Hat Open.wav
64,192,71406,1,2,0:0:0:0:
448,192,71406,1,0,0:0:0:0:
320,192,71600,1,0,0:0:0:40:Hat Open.wav
64,192,71793,1,2,0:0:0:0:
192,192,71793,1,8,0:0:0:0:
320,192,71987,1,0,0:0:0:40:Hat Open.wav
448,192,72084,1,8,0:0:0:0:
64,192,72180,1,2,0:0:0:0:
192,192,72180,1,0,0:0:0:0:
320,192,72374,1,0,0:0:0:40:Hat Open.wav
64,192,72567,1,8,0:0:0:0:
448,192,72567,1,2,0:0:0:0:
192,192,72761,1,0,0:0:0:40:Hat Open.wav
320,192,72858,1,8,0:0:0:0:
64,192,72954,1,2,0:0:0:0:
448,192,72954,1,0,0:0:0:0:
192,192,73051,1,8,0:0:0:0:
320,192,73148,1,0,0:0:0:40:Hat Open.wav
64,192,73342,1,2,0:0:0:0:
448,192,73342,1,8,0:0:0:0:
192,192,73438,1,8,0:0:0:0:
320,192,73535,1,8,0:0:0:0:
192,192,73632,1,8,0:0:0:0:
64,192,73729,1,2,0:0:0:0:
448,192,73729,1,4,0:0:0:0:
320,192,73825,1,8,0:0:0:0:
64,192,73922,1,8,0:0:0:0:
192,192,74019,1,8,0:0:0:0:
448,192,74116,1,2,0:0:0:0:
320,192,74213,1,8,0:0:0:0:
64,192,74309,1,8,0:0:0:0:
192,192,74309,1,0,0:0:0:0:
64,192,74503,1,2,0:0:0:0:
192,192,74503,1,4,0:0:0:0:
448,192,74600,1,8,0:0:0:0:
320,192,74696,1,0,0:0:0:30:Tom1.wav
192,192,74793,1,0,0:0:0:0:
448,192,74890,1,2,0:0:0:0:
320,192,74987,1,0,0:0:0:30:Tom1.wav
64,192,75084,1,8,0:0:0:0:
192,192,75084,1,0,0:0:0:0:
192,192,75277,1,2,0:0:0:0:
448,192,75277,1,4,0:0:0:0:
64,192,75471,1,0,0:0:0:30:Tom2.wav
320,192,75471,1,0,0:0:0:0:
64,192,75664,1,2,0:0:0:0:
192,192,75664,1,0,0:0:0:0:
320,192,75858,1,0,0:0:0:30:Tom2.wav
448,192,75858,1,0,0:0:0:0:
64,192,76051,1,8,0:0:0:0:
192,192,76051,1,0,0:0:0:0:
320,192,76245,1,2,0:0:0:0:
192,192,76342,1,2,0:0:0:0:
64,192,76438,1,8,0:0:0:0:
448,192,76438,128,4,76825:0:0:0:0:
64,192,76825,1,2,0:0:0:0:
192,192,76825,1,4,0:0:0:0:
320,192,76825,1,0,0:0:0:0:
64,192,77213,128,8,77600:0:0:0:0:
448,192,77213,1,2,0:0:0:0:
192,192,77406,1,8,0:0:0:0:
448,192,77503,1,8,0:0:0:0:
192,192,77600,128,2,77987:0:0:0:0:
320,192,77600,1,0,0:0:0:0:
64,192,77793,1,0,0:0:0:40:Hat Open.wav
320,192,77987,1,8,0:0:0:0:
448,192,77987,128,2,78374:0:0:0:0:
64,192,78180,1,0,0:0:0:40:Hat Open.wav
192,192,78277,1,8,0:0:0:0:
64,192,78374,1,2,0:0:0:0:
320,192,78374,128,0,78761:0:0:0:0:
448,192,78567,1,0,0:0:0:40:Hat Open.wav
64,192,78761,1,8,0:0:0:0:
192,192,78761,128,2,79148:0:0:0:0:
448,192,78954,1,0,0:0:0:40:Hat Open.wav
320,192,79051,1,8,0:0:0:0:
64,192,79148,128,2,79535:0:0:0:0:
448,192,79148,1,0,0:0:0:0:
192,192,79342,1,0,0:0:0:40:Hat Open.wav
320,192,79535,128,2,79922:0:0:0:0:
448,192,79535,1,8,0:0:0:0:
64,192,79729,1,0,0:0:0:40:Hat Open.wav
192,192,79825,1,0,0:0:0:0:
64,192,79922,1,2,0:0:0:0:
448,192,79922,128,0,80309:0:0:0:0:
192,192,80116,1,0,0:0:0:40:Hat Open.wav
64,192,80309,1,8,0:0:0:0:
320,192,80309,1,2,0:0:0:0:
192,192,80503,1,8,0:0:0:0:
320,192,80600,1,8,0:0:0:0:
64,192,80696,1,2,0:0:0:0:
448,192,80696,1,0,0:0:0:0:
192,192,80793,1,8,0:0:0:0:
320,192,80890,1,0,0:0:0:40:Hat Open.wav
64,192,81084,1,2,0:0:0:0:
448,192,81084,1,8,0:0:0:0:
320,192,81277,1,0,0:0:0:40:Hat Open.wav
192,192,81374,1,8,0:0:0:0:
64,192,81471,1,2,0:0:0:0:
448,192,81471,128,0,81664:0:0:0:0:
192,192,81664,128,0,81858:0:0:0:40:Hat Open.wav
320,192,81858,128,8,82051:0:0:0:0:
448,192,81858,1,2,0:0:0:0:
64,192,82051,1,0,0:0:0:40:Hat Open.wav
192,192,82148,1,8,0:0:0:0:
320,192,82245,1,2,0:0:0:0:
448,192,82245,1,0,0:0:0:0:
192,192,82342,1,8,0:0:0:0:
64,192,82438,1,0,0:0:0:40:Hat Open.wav
192,192,82632,1,2,0:0:0:0:
448,192,82632,1,8,0:0:0:0:
320,192,82729,1,8,0:0:0:0:
64,192,82825,1,8,0:0:0:0:
192,192,82922,1,8,0:0:0:0:
64,192,83019,1,2,0:0:0:0:
320,192,83019,1,4,0:0:0:0:
448,192,83019,1,0,0:0:0:0:
64,192,83406,128,8,83793:0:0:0:0:
192,192,83406,1,2,0:0:0:0:
448,192,83600,1,0,0:0:0:40:Hat Open.wav
192,192,83696,1,8,0:0:0:0:
320,192,83793,128,2,84180:0:0:0:0:
448,192,83793,1,0,0:0:0:0:
64,192,83987,1,0,0:0:0:40:Hat Open.wav
192,192,84180,128,2,84567:0:0:0:0:
448,192,84180,1,8,0:0:0:0:
64,192,84374,1,0,0:0:0:40:Hat Open.wav
320,192,84471,1,8,0:0:0:0:
64,192,84567,1,2,0:0:0:0:
448,192,84567,128,0,84954:0:0:0:0:
192,192,84761,1,0,0:0:0:40:Hat Open.wav
64,192,84954,1,2,0:0:0:0:
320,192,84954,128,8,85342:0:0:0:0:
192,192,85148,1,0,0:0:0:40:Hat Open.wav
448,192,85245,1,8,0:0:0:0:
64,192,85342,128,2,85729:0:0:0:0:
192,192,85342,1,0,0:0:0:0:
320,192,85535,1,0,0:0:0:40:Hat Open.wav
192,192,85729,128,2,86116:0:0:0:0:
448,192,85729,1,8,0:0:0:0:
320,192,85922,1,0,0:0:0:40:Hat Open.wav
64,192,86116,1,2,0:0:0:0:
320,192,86116,1,4,0:0:0:0:
448,192,86116,1,0,0:0:0:0:
192,192,86309,1,0,0:0:0:0:
320,192,86406,1,8,0:0:0:0:
64,192,86503,1,2,0:0:0:0:
448,192,86503,1,0,0:0:0:40:Hat Open.wav
320,192,86696,1,8,0:0:0:0:
192,192,86793,1,8,0:0:0:0:
64,192,86890,1,2,0:0:0:0:
448,192,86890,1,4,0:0:0:0:
192,192,87084,1,8,0:0:0:0:
320,192,87180,1,8,0:0:0:0:
64,192,87277,1,2,0:0:0:0:
448,192,87277,1,8,0:0:0:0:
192,192,87374,1,8,0:0:0:0:
320,192,87471,1,8,0:0:0:0:
192,192,87567,1,8,0:0:0:0:
64,192,87664,1,2,0:0:0:0:
320,192,87664,1,4,0:0:0:0:
448,192,87664,1,0,0:0:0:0:
192,192,87858,1,0,0:0:0:30:Tom1.wav
320,192,87954,1,8,0:0:0:0:
64,192,88051,1,2,0:0:0:0:
192,192,88051,1,0,0:0:0:0:
448,192,88148,1,0,0:0:0:30:Tom1.wav
320,192,88245,1,0,0:0:0:30:Tom2.wav
192,192,88342,1,2,0:0:0:0:
64,192,88438,128,8,88825:0:0:0:0:
448,192,88438,128,4,88825:0:0:0:0:
