osu file format v14

[General]
AudioFilename: audio.mp3
AudioLeadIn: 0
PreviewTime: 129657
Countdown: 0
SampleSet: Soft
StackLeniency: 0.7
Mode: 0
LetterboxInBreaks: 0
WidescreenStoryboard: 0

[Editor]
Bookmarks: 5310,10499,20877,26066,31255,36445,41796,52174,62391,72941,83310,88337,93536,98715,109255,119634,129860,140391,150769,155796,156617,157914,159211,160509,160995,163742,166174,176553,183201,187093,197472,202499,223418,228445,237526,239482
DistanceSpacing: 0.5
BeatDivisor: 4
GridSize: 32
TimelineZoom: 2.699999

[Metadata]
Title:identity
TitleUnicode:identity
Artist:CHiCO with HoneyWorks
ArtistUnicode:CHiCO with HoneyWorks
Creator:Lasse
Version:Resolve
Source:
Tags:japanese pop rock 世界はiに満ちている Sekai wa i ni Michiteiru
BeatmapID:2608770
BeatmapSetID:1255260

[Difficulty]
HPDrainRate:6
CircleSize:4.2
OverallDifficulty:8.6
ApproachRate:9.2
SliderMultiplier:1.92
SliderTickRate:1

[Events]
//Background and Video events
0,0,"bg1.jpg",0,0
//Break Periods
2,161195,163182
2,194844,196912
2,199752,201452
//Storyboard Layer 0 (Background)
//Storyboard Layer 1 (Fail)
//Storyboard Layer 2 (Pass)
//Storyboard Layer 3 (Foreground)
//Storyboard Layer 4 (Overlay)
//Storyboard Sound Samples

[TimingPoints]
293,324.324324324324,4,2,35,62,1,0
293,-100,4,2,35,62,0,0
1752,-100,4,2,36,62,0,0
1914,-100,4,2,35,62,0,0
2887,-100,4,2,35,65,0,0
3374,-100,4,2,37,65,0,0
3536,-100,4,2,35,65,0,0
4347,-100,4,2,36,65,0,0
4509,-100,4,2,35,65,0,0
5320,-133.333333333333,4,2,35,56,0,0
10022,-133.333333333333,4,2,36,60,0,0
10184,-200,4,2,36,60,0,0
10428,-200,4,2,36,5,0,0
10509,-100,4,2,34,70,0,0
10671,-100,4,2,35,70,0,0
15698,-100,4,2,34,70,0,0
15860,-100,4,2,35,70,0,0
20887,-133.333333333333,4,2,35,60,0,0
22022,-133.333333333333,4,2,35,58,0,0
22184,-133.333333333333,4,2,35,56,0,0
22347,-133.333333333333,4,2,35,54,0,0
22509,-133.333333333333,4,2,36,52,0,0
22671,-133.333333333333,4,2,35,50,0,0
22833,-133.333333333333,4,2,36,48,0,0
22995,-133.333333333333,4,2,35,50,0,0
23157,-133.333333333333,4,2,36,52,0,0
23320,-133.333333333333,4,2,36,54,0,0
23482,-133.333333333333,4,2,35,54,0,0
23968,-133.333333333333,4,2,36,54,0,0
24130,-133.333333333333,4,2,35,54,0,0
24617,-133.333333333333,4,2,35,56,0,0
24941,-133.333333333333,4,2,35,58,0,0
25265,-133.333333333333,4,2,35,60,0,0
25590,-133.333333333333,4,2,37,60,0,0
25752,-133.333333333333,4,2,35,62,0,0
26076,-108.695652173913,4,2,35,65,0,0
31265,-117.647058823529,4,2,35,60,0,0
36292,-117.647058823529,4,2,36,60,0,0
36455,-105.263157894737,4,2,35,65,0,0
41157,-80.0000000000001,4,2,35,67,0,0
41644,-80.0000000000001,4,2,35,50,0,0
41806,-133.333333333333,4,2,35,54,0,0
46347,-133.333333333333,4,2,37,54,0,0
46671,-133.333333333333,4,2,36,54,0,0
46995,-133.333333333333,4,2,35,54,0,0
50401,-133.333333333333,4,2,35,55,0,0
50725,-133.333333333333,4,2,35,57,0,0
51049,-90.9090909090909,4,2,35,60,0,0
51374,-90.9090909090909,4,2,37,60,0,0
52022,-90.9090909090909,4,2,34,60,0,0
52184,-100,4,2,35,62,0,0
57860,-90.9090909090909,4,2,37,64,0,0
58022,-90.9090909090909,4,2,34,64,0,0
58347,-82.6446280991736,4,2,35,66,0,0
58833,-75.187969924812,4,2,37,68,0,0
58995,-75.187969924812,4,2,34,68,0,0
59320,-68.4931506849315,4,2,36,70,0,0
59482,-68.4931506849315,4,2,35,70,0,0
59644,-273.972602739726,4,2,35,70,0,0
59968,-273.972602739726,4,2,35,30,0,0
61428,-273.972602739726,4,2,36,65,0,0
62401,-83.3333333333333,4,2,34,72,0,1
62563,-83.3333333333333,4,2,35,72,0,1
69374,-83.3333333333333,4,2,36,72,0,1
69536,-83.3333333333333,4,2,35,72,0,1
70184,-100,4,2,34,72,0,1
70671,-83.3333333333333,4,2,35,72,0,1
71482,-71.4285714285714,4,2,35,72,0,1
71806,-83.3333333333333,4,2,35,72,0,1
72617,-83.3333333333333,4,2,36,72,0,0
72941,-83.3333333333333,4,2,34,72,0,1
73103,-83.3333333333333,4,2,35,72,0,1
79752,-83.3333333333333,4,2,37,72,0,1
79914,-83.3333333333333,4,2,35,72,0,1
80401,-83.3333333333333,4,2,36,72,0,1
80563,-83.3333333333333,4,2,35,72,0,1
82671,-83.3333333333333,4,2,35,70,0,1
82995,-83.3333333333333,4,2,35,68,0,1
83320,-125,4,2,35,64,0,0
83968,-125,4,2,36,64,0,0
84292,-125,4,2,35,64,0,0
85265,-125,4,2,37,64,0,0
85428,-125,4,2,35,64,0,0
85752,-90.9090909090909,4,2,34,67,0,0
86076,-90.9090909090909,4,2,35,60,0,0
86238,-90.9090909090909,4,2,35,62,0,0
86563,-90.9090909090909,4,2,35,64,0,0
86887,-90.9090909090909,4,2,35,66,0,0
87536,-90.9090909090909,4,2,98,56,0,0
87617,-90.9090909090909,4,2,35,5,0,0
88022,-111.111111111111,4,2,98,52,0,0
88103,-111.111111111111,4,2,35,5,0,0
88347,-100,4,2,34,70,0,0
88509,-100,4,2,35,70,0,0
92887,-100,4,2,36,70,0,0
93049,-133.333333333333,4,2,35,70,0,0
93130,-133.333333333333,4,2,35,50,0,0
93211,-133.333333333333,4,2,35,65,0,0
93292,-133.333333333333,4,2,35,50,0,0
93374,-133.333333333333,4,2,35,60,0,0
93455,-133.333333333333,4,2,35,50,0,0
93536,-100,4,2,34,70,0,0
93698,-100,4,2,35,70,0,0
98279,-100,4,2,35,60,0,0
98320,-100,4,2,35,58,0,0
98360,-100,4,2,35,56,0,0
98401,-100,4,2,35,54,0,0
98441,-100,4,2,35,52,0,0
98482,-100,4,2,35,50,0,0
98522,-100,4,2,35,48,0,0
98563,-100,4,2,35,46,0,0
98725,-125,4,2,51,60,0,0
101320,-125,4,2,35,60,0,0
102617,-100,4,2,35,58,0,0
102698,-100,4,2,35,5,0,0
102941,-83.3333333333333,4,2,35,62,0,0
103022,-83.3333333333333,4,2,35,5,0,0
103265,-71.4285714285714,4,2,35,64,0,0
103347,-71.4285714285714,4,2,35,5,0,0
103590,-83.3333333333333,4,2,35,50,0,0
103914,-108.695652173913,4,2,35,65,0,0
109103,-117.647058823529,4,2,51,60,0,0
109590,-133.333333333333,4,2,51,60,0,0
114292,-105.263157894737,4,2,35,65,0,0
118509,-71.4285714285714,4,2,35,65,0,0
118752,-71.4285714285714,4,2,35,40,0,0
118833,-71.4285714285714,4,2,35,65,0,0
119076,-71.4285714285714,4,2,35,40,0,0
119157,-71.4285714285714,4,2,35,65,0,0
119401,-71.4285714285714,4,2,35,40,0,0
119482,-71.4285714285714,4,2,35,60,0,0
119644,-100,4,2,35,65,0,0
124833,-100,4,2,35,62,0,0
125320,-90.9090909090909,4,2,37,64,0,0
125482,-90.9090909090909,4,2,34,64,0,0
125806,-83.3333333333333,4,2,35,66,0,0
126292,-76.9230769230769,4,2,37,68,0,0
126455,-76.9230769230769,4,2,34,68,0,0
126779,-71.4285714285714,4,2,36,70,0,0
126941,-71.4285714285714,4,2,35,70,0,0
127103,-285.714285714286,4,2,35,70,0,0
127428,-285.714285714286,4,2,35,30,0,0
128887,-285.714285714286,4,2,36,65,0,0
129860,-83.3333333333333,4,2,34,72,0,1
130022,-83.3333333333333,4,2,35,72,0,1
137644,-100,4,2,34,72,0,1
138130,-83.3333333333333,4,2,35,72,0,1
138941,-71.4285714285714,4,2,35,72,0,1
139265,-83.3333333333333,4,2,35,72,0,1
140076,-83.3333333333333,4,2,36,72,0,0
140401,-83.3333333333333,4,2,34,72,0,1
140563,-83.3333333333333,4,2,35,72,0,1
147211,-83.3333333333333,4,2,37,72,0,1
147373,-83.3333333333333,4,2,35,72,0,1
147860,-83.3333333333333,4,2,36,72,0,1
148022,-83.3333333333333,4,2,34,72,0,1
149320,-83.3333333333333,4,2,35,72,0,1
150130,-83.3333333333333,4,2,34,72,0,1
150374,-83.3333333333333,4,2,36,32,0,1
150455,-83.3333333333333,4,2,37,60,0,1
150779,-125,4,2,35,64,0,0
151428,-125,4,2,36,64,0,0
151752,-125,4,2,35,64,0,0
152725,-125,4,2,37,64,0,0
152887,-125,4,2,35,64,0,0
153211,-90.9090909090909,4,2,34,67,0,0
153536,-90.9090909090909,4,2,35,60,0,0
153698,-90.9090909090909,4,2,35,62,0,0
154022,-90.9090909090909,4,2,35,64,0,0
154347,-90.9090909090909,4,2,35,66,0,0
155157,-90.9090909090909,4,2,36,64,0,0
155806,-200,4,2,35,56,0,0
155887,-200,4,2,35,5,0,0
160995,-200,4,2,98,20,0,0
163752,-76.9230769230769,4,2,35,70,0,0
164887,-76.9230769230769,4,2,35,65,0,0
165049,-76.9230769230769,4,2,35,68,0,0
166184,-71.4285714285714,4,2,38,72,0,0
166509,-71.4285714285714,4,2,35,72,0,0
166671,-71.4285714285714,4,2,36,72,0,0
166995,-71.4285714285714,4,2,35,72,0,0
167157,-71.4285714285714,4,2,38,72,0,0
167320,-71.4285714285714,4,2,35,72,0,0
167644,-71.4285714285714,4,2,38,72,0,0
167806,-71.4285714285714,4,2,35,72,0,0
168779,-71.4285714285714,4,2,39,72,0,0
169103,-71.4285714285714,4,2,35,72,0,0
169265,-71.4285714285714,4,2,36,72,0,0
169590,-71.4285714285714,4,2,35,72,0,0
170076,-90.9090909090909,4,2,35,72,0,0
171374,-71.4285714285714,4,2,35,72,0,0
171698,-100,4,2,35,72,0,0
172671,-83.3333333333333,4,2,35,72,0,0
172995,-100,4,2,35,72,0,0
173968,-66.6666666666667,4,2,35,72,0,0
174455,-76.9230769230769,4,2,35,72,0,0
176238,-76.9230769230769,4,2,35,70,0,0
176401,-76.9230769230769,4,2,36,68,0,0
176563,-71.4285714285714,4,2,34,70,0,0
176887,-71.4285714285714,4,2,35,70,0,0
177049,-76.9230769230769,4,2,35,70,0,0
181914,-71.4285714285714,4,2,35,72,0,0
182887,-66.6666666666667,4,2,35,72,0,0
183211,-71.4285714285714,4,2,35,72,0,0
184509,-66.6666666666667,4,2,35,72,0,0
185482,-62.5,4,2,35,72,0,0
185806,-76.9230769230769,4,2,35,72,0,0
187103,-90.9090909090909,4,2,35,72,0,0
187428,-100,4,2,35,64,0,0
190995,-90.9090909090909,4,2,35,65,0,0
192292,-83.3333333333333,4,2,35,66,0,0
192779,-75.7575757575758,4,2,37,67,0,0
192941,-75.7575757575758,4,2,34,67,0,0
193265,-68.870523415978,4,2,35,68,0,0
193752,-62.6095667417981,4,2,37,69,0,0
193914,-62.6095667417981,4,2,34,69,0,0
194238,-56.9151963574274,4,2,36,70,0,0
194401,-56.9151963574274,4,2,35,70,0,0
194887,-500,4,2,35,30,0,0
196346,-500,4,2,36,65,0,0
197482,-200,4,2,35,40,0,0
202022,-200,4,2,36,68,0,0
202509,-74.0740740740741,4,2,34,75,0,1
202671,-74.0740740740741,4,2,35,75,0,1
209482,-74.0740740740741,4,2,37,75,0,1
209644,-74.0740740740741,4,2,35,75,0,1
210130,-74.0740740740741,4,2,36,75,0,1
210292,-86.9565217391304,4,2,34,75,0,1
210617,-86.9565217391304,4,2,35,75,0,1
211590,-66.6666666666667,4,2,35,75,0,1
211914,-83.3333333333333,4,2,35,75,0,1
211995,-83.3333333333333,4,2,35,68,0,1
212076,-83.3333333333333,4,2,35,75,0,1
212157,-83.3333333333333,4,2,35,68,0,1
212238,-83.3333333333333,4,2,35,75,0,1
212725,-100,4,2,36,75,0,0
213049,-74.0740740740741,4,2,34,75,0,1
213211,-74.0740740740741,4,2,35,75,0,1
220184,-74.0740740740741,4,2,37,75,0,1
220265,-74.0740740740741,4,2,35,75,0,1
220671,-74.0740740740741,4,2,34,75,0,1
220995,-74.0740740740741,4,2,35,75,0,1
221157,-74.0740740740741,4,2,37,75,0,1
221320,-74.0740740740741,4,2,35,75,0,1
222455,-80,4,2,35,75,0,1
222779,-68.9655172413793,4,2,34,75,0,1
222941,-68.9655172413793,4,2,34,68,0,1
223103,-100,4,2,36,70,0,1
223265,-100,4,2,36,60,0,1
223428,-125,4,2,35,64,0,0
224076,-125,4,2,37,64,0,0
224401,-125,4,2,35,64,0,0
225698,-125,4,2,35,66,0,0
225860,-76.9230769230769,4,2,34,68,0,0
226184,-76.9230769230769,4,2,34,64,0,0
226347,-76.9230769230769,4,2,34,66,0,0
226671,-76.9230769230769,4,2,34,68,0,0
226995,-76.9230769230769,4,2,34,70,0,0
227320,-76.9230769230769,4,2,35,72,0,0
227968,-76.9230769230769,4,2,35,70,0,0
228049,-76.9230769230769,4,2,35,69,0,0
228130,-76.9230769230769,4,2,35,68,0,0
228211,-76.9230769230769,4,2,35,67,0,0
228292,-76.9230769230769,4,2,36,66,0,0
228374,-76.9230769230769,4,2,36,65,0,0
228455,-125,4,2,35,64,0,0
228779,-125,4,2,35,62,0,0
233320,-125,4,2,37,62,0,0
233644,-111.111111111111,4,2,35,64,0,0
236238,-100,4,2,34,65,0,0
236401,-100,4,2,34,54,0,0
236563,-133.333333333333,4,2,35,60,0,0
237536,-90.9090909090909,4,2,35,62,0,0
238509,-90.9090909090909,4,2,37,62,0,0
238833,-133.333333333333,4,2,35,64,0,0
238914,-133.333333333333,4,2,35,5,0,0
239482,-133.333333333333,4,2,98,20,0,0

[Colours]
Combo1 : 250,180,240
Combo2 : 120,200,230
Combo3 : 255,230,130
Combo4 : 160,230,150

[HitObjects]
123,28,293,5,8,0:0:0:0:
146,143,455,1,8,0:1:0:0:
142,152,617,1,8,0:1:0:0:
217,48,779,5,8,0:3:0:0:
138,161,941,1,8,0:1:0:0:
134,170,1103,1,8,0:1:0:0:
275,118,1265,5,4,0:3:0:0:
130,179,1428,1,8,0:1:0:0:
126,188,1590,1,8,0:1:0:0:
304,204,1752,5,8,0:3:0:0:
122,197,1914,1,8,0:1:0:0:
118,206,2076,1,8,0:1:0:0:
152,341,2238,5,8,0:3:0:0:
175,336,2320,1,8,0:3:0:0:
198,340,2401,1,8,0:3:0:0:
218,353,2482,1,8,0:3:0:0:
292,318,2563,5,4,0:3:0:0:
319,336,2644,1,4,0:3:0:0:
353,342,2725,1,4,0:3:0:0:
386,335,2806,1,4,0:3:0:0:
415,316,2887,5,12,0:0:0:0:
373,191,3049,1,8,0:1:0:0:
367,177,3211,1,8,0:1:0:0:
221,200,3374,5,12,0:0:0:0:
358,165,3536,1,8,0:1:0:0:
347,154,3698,1,8,0:1:0:0:
296,20,3860,5,12,0:0:0:0:
335,145,4022,1,8,0:1:0:0:
321,139,4184,1,8,0:1:0:0:
459,116,4347,5,12,0:0:0:0:
307,134,4509,1,8,0:1:0:0:
292,131,4671,1,8,0:1:0:0:
397,295,4833,5,8,2:2:0:0:
278,127,4995,1,8,0:1:0:0:
222,357,5157,1,8,2:2:0:0:
143,308,5320,6,0,B|101:285|101:285|-11:307,1,144.000005493164,14|0,0:1|0:0,0:1:0:0:
61,201,5806,2,0,P|66:169|56:116,1,72.0000027465821
149,14,6130,2,0,P|145:49|155:85,1,72.0000027465821
252,40,6455,1,0,0:0:0:0:
252,40,6617,2,0,B|294:63|294:63|388:44,1,144.000005493164
494,5,7103,2,0,P|477:33|473:79,1,72.0000027465821
504,151,7428,1,0,0:0:0:0:
469,231,7590,1,0,0:0:0:0:
387,262,7752,1,0,0:0:0:0:
387,262,7914,2,0,P|379:180|351:122,1,144.000005493164
269,50,8401,2,0,P|262:88|240:126,1,72.0000027465821
152,198,8725,2,0,P|135:165|129:130,1,72.0000027465821
147,26,9049,5,8,0:0:0:0:
246,117,9211,2,0,P|317:121|380:85,1,144.000005493164,8|0,0:1|0:0,0:0:0:0:
490,183,9698,2,0,P|474:150|467:115,1,72.0000027465821
323,255,10022,5,10,0:1:0:0:
470,304,10184,2,2,B|446:299|446:299|428:303|428:303|382:294,1,72,10|0,0:1|0:0,0:1:0:0:
310,356,10509,6,0,B|326:376|359:376|359:376|296:330|323:256,1,192,14|8,0:1|0:1,0:1:0:0:
490,55,10995,2,0,B|506:108|462:140|462:140|466:166|500:167,1,144,10|0,0:0|0:0,0:0:0:0:
419,75,11320,1,10,0:1:0:0:
264,174,11482,2,0,B|298:167|298:167|313:177|313:177|355:169,1,96,10|8,0:1|0:0,0:0:0:0:
133,88,11806,6,0,B|133:37|100:7|64:5|64:5|76:19|85:38,1,144,10|0,0:1|0:0,0:0:0:0:
20,74,12130,2,0,P|1:104|4:173,1,96,10|8,0:1|0:0,0:0:0:0:
67,293,12455,1,2,0:0:0:0:
264,174,12617,1,8,0:1:0:0:
259,199,12698,1,8,0:1:0:0:
256,225,12779,1,8,0:1:0:0:
252,252,12860,1,8,0:1:0:0:
249,278,12941,1,8,0:0:0:0:
378,361,13103,6,0,B|438:335|488:374|488:374|534:346|503:297,1,192,10|8,0:1|0:1,0:0:0:0:
433,127,13590,2,0,B|424:163|424:163|429:180|429:180|411:239,1,96,10|0,0:0|0:0,0:0:0:0:
297,338,13914,1,10,0:1:0:0:
263,310,13995,1,8,0:1:0:0:
220,303,14076,1,8,0:1:0:0:
180,320,14157,1,8,0:1:0:0:
159,357,14238,1,8,0:0:0:0:
263,230,14401,6,0,B|311:192|276:122|276:122|257:133|248:151,1,144,10|0,0:1|0:0,0:0:0:0:
370,175,14725,2,0,P|416:169|432:126,1,96,10|8,0:1|0:0,0:0:0:0:
274,0,15049,5,10,0:1:0:0:
257,36,15130,1,8,0:1:0:0:
227,63,15211,1,8,0:0:0:0:
191,78,15292,1,8,0:3:0:0:
151,80,15374,1,8,0:1:0:0:
113,67,15455,1,8,0:3:0:0:
81,42,15536,1,8,0:0:0:0:
25,172,15698,6,0,B|-14:219|-14:219|39:357,1,192,14|8,0:1|0:1,0:0:0:0:
207,384,16184,2,0,B|218:345|218:345|215:330|215:330|228:289,1,96,10|0,0:0|0:0,0:0:0:0:
361,225,16509,1,10,0:1:0:0:
386,249,16590,1,8,0:1:0:0:
421,256,16671,1,8,0:1:0:0:
454,243,16752,1,8,0:1:0:0:
475,214,16833,1,8,0:2:0:0:
349,125,16995,6,0,B|388:100|378:35|378:35|310:1,1,144,10|0,0:1|0:0,0:0:0:0:
266,0,17320,2,0,B|256:31|277:59|277:59|259:36|235:33,1,96,10|8,0:1|0:0,0:0:0:0:
120,7,17644,1,2,0:0:0:0:
9,147,17806,1,10,0:1:0:0:
30,117,17887,1,8,0:1:0:0:
60,99,17968,1,8,0:1:0:0:
96,94,18049,1,8,0:1:0:0:
130,105,18130,1,8,0:2:0:0:
188,230,18292,6,0,B|123:273|141:352|141:352|149:318|175:300,1,192,10|8,0:1|0:1,0:0:0:0:
373,379,18779,2,0,P|379:327|360:277,1,96,10|0,0:0|0:0,0:0:0:0:
260,140,19103,1,10,0:1:0:0:
225,146,19184,1,8,0:1:0:0:
193,131,19265,1,8,0:1:0:0:
179,99,19347,1,8,0:1:0:0:
187,64,19428,1,8,0:2:0:0:
342,0,19590,6,0,B|305:62|351:114|351:114|359:90|380:74,1,144,10|0,0:1|0:0,0:0:0:0:
421,51,19914,2,0,B|446:39|449:11|449:11|428:16|419:42,1,96,10|8,0:1|0:0,0:0:0:0:
300,202,20238,1,10,0:1:0:0:
512,171,20401,1,8,0:0:0:0:
438,351,20563,1,10,0:1:0:0:
438,351,20644,1,8,0:1:0:0:
438,351,20725,1,8,0:0:0:0:
512,272,20887,6,0,B|458:263|458:263|441:271|441:271|369:257,1,144.000005493164,14|8,0:1|0:1,0:0:0:0:
371,257,21374,2,0,B|457:243|435:289|523:270,1,144.000005493164,10|0,0:0|0:0,0:0:0:0:
424,182,21860,5,8,0:3:0:0:
412,105,22022,1,8,0:1:0:0:
437,30,22184,1,8,0:3:0:0:
458,8,22347,1,4,0:3:0:0:
474,6,22509,1,8,0:3:0:0:
483,9,22671,1,2,0:2:0:0:
488,16,22833,1,4,0:3:0:0:
453,79,22995,1,8,0:2:0:0:
365,96,23157,1,8,0:3:0:0:
299,28,23320,1,4,0:3:0:0:
214,50,23482,6,0,B|181:22|181:22|53:33,1,144.000005493164,14|8,0:1|0:1,0:0:0:0:
10,178,23968,2,0,P|9:142|22:108,1,72.0000027465821,14|0,0:0|0:0,0:0:0:0:
153,200,24292,2,2,B|171:220|171:220|165:269,1,72.0000027465821,2|0,0:0|0:0,0:1:0:0:
72,299,24617,5,8,0:0:0:0:
80,310,24698,1,8,0:0:0:0:
86,322,24779,1,8,0:1:0:0:
90,335,24860,1,8,0:1:0:0:
93,348,24941,1,8,0:3:0:0:
78,345,25022,1,4,0:3:0:0:
67,334,25103,1,8,0:1:0:0:
61,320,25184,1,8,0:1:0:0:
58,305,25265,1,8,0:3:0:0:
80,310,25347,1,4,0:3:0:0:
101,310,25428,1,8,0:1:0:0:
120,301,25509,1,8,0:1:0:0:
138,289,25590,1,12,0:0:0:0:
76,173,25752,5,8,0:1:0:0:
50,171,25833,1,8,0:1:0:0:
24,168,25914,1,8,0:0:0:0:
155,83,26076,6,0,B|214:84|260:41|260:41|355:62,1,176.639994070313,14|8,0:1|0:1,0:0:0:0:
452,137,26563,2,0,B|472:81|426:32|426:32|434:69|421:99,1,176.639994070313,10|8,0:0|0:1,0:0:0:0:
321,174,27049,1,10,0:1:0:0:
424,247,27211,2,0,P|472:233|538:222,1,88.3199970351563,10|8,0:0|0:1,0:0:0:0:
440,363,27536,5,2,0:0:0:0:
366,318,27698,2,0,L|258:291,1,88.3199970351563,10|8,0:1|0:0,0:0:0:0:
134,381,28022,2,0,L|211:300,1,88.3199970351563,2|8,0:0|0:1,0:0:0:0:
231,281,28265,1,8,0:1:0:0:
219,233,28347,2,0,L|195:149,1,88.3199970351563,10|8,0:1|0:0,0:0:0:0:
105,32,28671,6,0,B|45:54|45:54|64:128|64:128|115:107,1,176.639994070313,10|8,0:1|0:1,0:1:0:0:
290,128,29157,2,0,B|327:118|376:129|376:129|403:97|448:77,1,176.639994070313,10|8,0:0|0:1,0:0:0:0:
408,207,29644,1,10,0:1:0:0:
365,91,29806,2,0,L|337:7,1,88.3199970351563,10|8,0:0|0:1,0:0:0:0:
408,207,30130,5,2,0:0:0:0:
316,236,30292,2,0,L|207:225,1,88.3199970351563,10|8,0:1|0:0,0:0:0:0:
429,358,30617,2,0,L|320:347,1,88.3199970351563,2|8,0:0|0:1,0:0:0:0:
495,215,30941,2,0,L|386:204,1,88.3199970351563,10|8,0:1|0:0,0:0:0:0:
308,148,31265,6,0,B|333:78|268:24|268:24|250:66,1,163.200003112793,14|8,0:1|0:1,0:0:0:0:
259,45,31752,2,0,B|291:64|327:60|327:60|303:97|308:149,1,163.200003112793,10|8,0:0|0:1,0:0:0:0:
342,219,32238,1,8,0:1:0:0:
234,254,32401,6,0,L|215:166,1,81.6000015563965,10|8,0:0|0:1,0:0:0:0:
160,100,32725,5,10,0:1:0:0:
131,167,32887,1,8,0:1:0:0:
58,175,33049,1,8,0:0:0:0:
5,124,33211,1,10,0:1:0:0:
8,116,33292,1,8,0:1:0:0:
11,108,33374,1,8,0:1:0:0:
41,41,33536,2,0,P|83:38|144:8,1,81.6000015563965,10|8,0:1|0:0,0:0:0:0:
265,35,33860,6,0,P|235:106|159:99,1,163.200003112793,2|8,0:0|0:1,0:1:0:0:
288,217,34347,2,0,P|248:206|208:203,1,81.6000015563965,10|8,0:0|0:1,0:0:0:0:
200,206,34590,1,8,0:1:0:0:
193,210,34671,2,0,P|168:259|166:307,1,81.6000015563965,10|8,0:1|0:1,0:0:0:0:
288,369,34995,5,10,0:0:0:0:
382,308,35157,2,0,L|367:196,1,81.6000015563965,2|8,0:0|0:1,0:0:0:0:
490,158,35482,2,0,L|479:238,1,81.6000015563965,10|8,0:1|0:0,0:0:0:0:
302,144,35806,2,0,L|395:135,1,81.6000015563965,10|8,0:1|0:3,0:0:0:0:
394,131,36049,1,8,0:3:0:0:
404,124,36130,2,0,P|406:97|402:66,1,40.8000007781983,4|4,0:3|0:3,0:0:0:0:
359,28,36292,2,8,P|334:20|300:18,1,40.8000007781983,8|8,0:3|0:3,0:3:0:0:
252,50,36455,6,0,B|228:97|171:92|171:92|144:56|92:50,1,182.399995129395,14|0,0:1|0:1,0:0:0:0:
231,176,36941,2,0,B|265:174|299:145|299:145|293:208|339:245,1,182.399995129395,10|8,0:0|0:1,0:0:0:0:
498,315,37428,1,10,0:1:0:0:
405,384,37590,2,0,L|413:283,1,91.1999975646973,10|8,0:0|0:1,0:0:0:0:
231,176,37914,5,2,0:0:0:0:
327,228,38076,2,0,P|377:217|417:182,1,91.1999975646973,10|8,0:1|0:0,0:0:0:0:
221,158,38401,2,0,P|186:120|136:103,1,91.1999975646973,2|8,0:0|0:1,0:0:0:0:
85,147,38644,1,8,0:1:0:0:
85,147,38725,2,0,P|43:165|14:199,1,91.1999975646973,10|8,0:1|0:0,0:0:0:0:
80,327,39049,6,0,L|263:285,1,182.399995129395,10|8,0:1|0:1,0:0:0:0:
396,353,39536,2,0,B|389:302|408:264|408:264|374:238|361:185,1,182.399995129395,10|8,0:0|0:1,0:0:0:0:
257,286,40022,1,10,0:1:0:0:
408,264,40184,2,0,L|517:249,1,91.1999975646973,10|8,0:0|0:1,0:0:0:0:
393,114,40509,5,2,0:0:0:0:
361,187,40671,1,8,0:1:0:0:
285,203,40833,1,8,0:0:0:0:
285,203,40995,1,0,0:0:0:0:
224,65,41157,5,10,0:0:0:0:
169,202,41320,2,0,B|140:240|140:287|140:287|152:325|181:335|181:335|201:323|200:298|200:298|191:280|171:271,1,240,14|0,0:1|0:0,0:0:0:0:
156,266,41806,6,0,P|96:289|28:244,1,144.000005493164,14|0,0:1|0:0,0:0:0:0:
100,210,42292,1,8,0:3:0:0:
123,29,42617,5,8,0:1:0:0:
87,94,42779,1,8,0:0:0:0:
152,130,42941,1,0,0:0:0:0:
192,69,43103,1,2,0:0:0:0:
192,69,43265,2,0,P|261:40|343:53,1,144.000005493164,8|8,0:3|0:1,0:1:0:0:
463,131,43752,5,8,0:3:0:0:
450,156,43860,1,8,0:3:0:0:
453,184,43968,1,8,0:3:0:0:
469,189,44076,5,4,0:3:0:0:
481,215,44184,1,4,0:3:0:0:
473,242,44292,1,4,0:3:0:0:
480,263,44401,6,0,P|420:240|352:285,1,144.000005493164,14|0,0:1|0:0,0:0:0:0:
424,319,44887,1,8,0:0:0:0:
211,368,45211,5,8,0:1:0:0:
285,339,45374,1,8,0:0:0:0:
222,289,45536,2,0,P|202:253|206:205,1,72.0000027465821,2|0,0:0|0:0,0:0:0:0:
108,215,45860,2,0,P|119:175|156:144,1,72.0000027465821,2|0,0:0|0:0,0:0:0:0:
115,71,46184,5,8,0:1:0:0:
200,222,46347,1,12,0:2:0:0:
363,21,46671,1,8,0:3:0:0:
512,190,46995,6,0,B|450:153|450:153|358:175,2,144.000005493164,10|0|0,0:1|0:0|0:0,0:0:0:0:
512,190,47806,1,8,0:1:0:0:
506,268,47968,1,8,0:0:0:0:
431,295,48130,1,0,0:0:0:0:
368,245,48292,1,2,0:0:0:0:
380,169,48455,2,0,P|394:109|340:21,1,144.000005493164,8|8,0:3|0:1,0:0:0:0:
276,0,48941,5,8,0:3:0:0:
269,32,49049,1,8,0:3:0:0:
261,64,49157,1,8,0:3:0:0:
268,84,49265,5,4,0:3:0:0:
237,68,49374,1,4,0:3:0:0:
207,51,49482,1,4,0:3:0:0:
191,62,49590,6,0,B|187:116|187:116|197:137|197:137|193:204,1,144.000005493164,14|0,0:1|0:0,0:0:0:0:
189,282,50076,1,8,0:0:0:0:
29,384,50401,5,8,0:1:0:0:
0,261,50563,1,8,0:0:0:0:
116,230,50725,1,8,0:1:0:0:
149,354,50887,1,8,0:0:0:0:
272,238,51049,6,0,B|284:197|284:197|249:146|268:86,1,158.400004833985,14|0,0:1|0:0,0:0:0:0:
321,30,51374,2,0,L|445:20,1,105.600003222656,14|0,0:1|0:0,0:0:0:0:
165,138,51698,2,0,L|41:128,1,105.600003222656,14|0,0:1|0:0,0:0:0:0:
300,276,52022,5,8,0:0:0:0:
300,276,52103,1,8,0:0:0:0:
300,276,52184,2,0,B|347:283|347:283|395:261,1,96,14|0,0:1|0:0,0:0:0:0:
246,112,52509,2,0,B|259:66|259:66|231:17,1,96,10|0,0:0|0:0,0:0:0:0:
101,157,52833,5,10,0:1:0:0:
7,123,52995,1,2,0:0:0:0:
75,259,53157,2,0,L|191:234,1,96,10|0,0:0|0:0,0:0:0:0:
271,368,53482,2,0,L|387:343,1,96,10|0,0:1|0:0,0:0:0:0:
511,231,53806,6,0,B|397:221|463:159|327:148,1,192,10|8,0:0|0:1,0:0:0:0:
428,298,54292,1,2,0:0:0:0:
288,231,54455,1,10,0:0:0:0:
153,296,54617,1,2,0:0:0:0:
153,296,54698,1,2,0:0:0:0:
153,296,54779,1,12,0:1:0:0:
212,344,54941,5,2,0:0:0:0:
218,187,55103,1,10,0:0:0:0:
224,30,55265,2,0,B|202:86|134:84|134:84|105:49|50:32,1,192,2|0,0:0|0:0,0:0:0:0:
131,171,55752,5,10,0:0:0:0:
0,125,55914,1,2,0:0:0:0:
74,256,56076,5,10,0:1:0:0:
234,192,56238,1,2,0:0:0:0:
346,281,56401,6,0,B|354:319|354:319|357:323|357:323|357:331|357:331|372:412,1,96,10|0,0:0|0:0,0:0:0:0:
393,159,56725,2,0,B|431:151|431:151|435:147|435:147|443:148|443:148|524:133,1,96,10|0,0:1|0:0,0:0:0:0:
259,107,57049,2,0,B|251:69|251:69|248:65|248:65|248:57|248:57|233:-24,1,96,10|0,0:0|0:0,0:0:0:0:
69,236,57374,6,0,L|2:228,1,48,14|0,0:0|0:0,0:0:0:0:
142,215,57536,2,0,L|181:161,1,48,10|0,0:1|0:0,0:0:0:0:
122,289,57698,2,0,L|148:350,1,48,10|0,0:1|0:0,0:0:0:0:
69,204,57860,6,0,L|19:184,1,52.8000016113282,14|0,0:0|0:0,0:0:0:0:
152,202,58022,2,0,L|193:169,1,52.8000016113282,10|0,0:1|0:0,0:0:0:0:
110,275,58184,2,0,L|117:327,1,52.8000016113282,10|0,0:1|0:0,0:0:0:0:
79,169,58347,6,0,L|32:134,1,58.0799983604737,14|0,0:0|0:0,0:0:0:0:
168,189,58509,2,0,L|221:165,1,58.0799983604737,10|0,0:1|0:0,0:0:0:0:
103,255,58671,2,0,L|96:312,1,58.0799983604737,10|0,0:1|0:0,0:0:0:0:
100,135,58833,6,0,L|60:85,1,63.8399973698732,14|0,0:0|0:0,0:0:0:0:
187,182,58995,2,0,L|250:172,1,63.8399973698732,10|0,0:1|0:0,0:0:0:0:
100,234,59157,2,0,L|76:293,1,63.8399973698732,10|0,0:1|0:0,0:0:0:0:
129,105,59320,6,0,L|102:40,1,70.0800019248047,14|0,0:0|0:0,0:0:0:0:
209,178,59482,2,0,L|278:185,1,70.0800019248047,10|0,0:1|0:0,0:0:0:0:
102,208,59644,2,0,L|60:264,1,70.0800019248047,14|2,0:2|0:0,0:0:0:0:
342,150,61428,5,10,0:1:0:0:
451,337,61590,1,10,0:1:0:0:
170,150,61914,5,10,0:1:0:0:
61,337,62076,1,10,0:1:0:0:
72,213,62401,6,0,B|81:245|115:262|115:262|116:331|68:374|68:374|61:337,1,230.39999296875,14|8,0:1|0:1,0:0:0:0:
170,150,62887,1,10,0:0:0:0:
312,347,63049,1,10,0:1:0:0:
429,262,63211,2,0,P|443:195|406:129,1,115.199996484375,10|8,0:1|0:1,0:0:0:0:
197,11,63536,5,10,0:0:0:0:
262,112,63698,2,0,B|286:152|340:140|340:140|345:92|386:73,1,172.799994726563,10|0,0:1|0:0,0:0:0:0:
459,44,64022,2,0,B|477:71|512:73|512:73|500:43|470:40,1,115.199996484375,10|8,0:1|0:0,0:0:0:0:
425,255,64347,2,0,B|427:287|456:306|456:306|461:274|436:257,1,115.199996484375,10|8,0:1|0:1,0:0:0:0:
215,318,64671,2,0,B|200:347|216:378|216:378|236:353|223:325,1,115.199996484375,10|8,0:1|0:0,0:0:0:0:
150,151,64995,6,0,B|122:161|103:190|103:190|112:116|54:92,1,172.799994726563,10|0,0:1|0:0,0:0:0:0:
21,34,65320,2,0,P|-8:69|19:155,1,115.199996484375,10|8,0:1|0:0,0:0:0:0:
174,229,65644,5,10,0:1:0:0:
0,292,65806,1,10,0:1:0:0:
98,384,65968,1,10,0:1:0:0:
98,384,66049,1,8,0:1:0:0:
98,384,66130,1,8,0:0:0:0:
174,229,66292,6,0,B|176:200|202:177|202:177|156:132|175:66,1,172.799994726563,10|0,0:1|0:0,0:0:0:0:
212,6,66617,1,10,0:1:0:0:
291,179,66779,1,8,0:0:0:0:
471,82,66941,5,10,0:1:0:0:
477,65,67022,1,8,0:1:0:0:
480,48,67103,1,8,0:0:0:0:
411,258,67265,5,10,0:1:0:0:
406,274,67347,1,8,0:1:0:0:
406,291,67428,1,8,0:0:0:0:
266,104,67590,6,0,B|275:176|370:173|383:124|383:124|356:84|382:35,1,230.39999296875,14|8,0:1|0:1,0:0:0:0:
193,0,68076,5,10,0:0:0:0:
128,225,68238,1,8,0:1:0:0:
332,342,68401,6,0,P|259:316|188:320,1,115.199996484375,10|8,0:0|0:1,0:0:0:0:
152,332,68644,1,8,0:1:0:0:
152,332,68725,1,10,0:0:0:0:
226,182,68887,1,10,0:1:0:0:
25,216,69049,1,8,0:0:0:0:
148,136,69211,1,8,0:1:0:0:
27,99,69374,1,14,0:0:0:0:
27,99,69536,1,8,0:1:0:0:
194,0,69698,5,10,0:0:0:0:
192,37,69779,1,8,0:0:0:0:
209,71,69860,1,8,0:3:0:0:
240,93,69941,1,8,0:3:0:0:
278,96,70022,1,4,0:3:0:0:
313,81,70103,1,4,0:3:0:0:
376,37,70184,6,0,B|361:-21|289:5|332:104|387:44|428:107,1,192,14|8,0:1|0:1,0:0:0:0:
512,281,70671,5,10,0:0:0:0:
305,181,70833,1,2,0:0:0:0:
425,103,70995,1,10,0:1:0:0:
392,347,71157,1,10,0:1:0:0:
392,347,71238,1,8,0:1:0:0:
392,347,71320,1,8,0:0:0:0:
228,120,71482,6,0,B|233:174|195:204|195:204|184:225|197:255|197:255|226:249|236:214,1,201.599993847656,14|0,0:1|0:0,0:0:0:0:
147,139,71806,5,10,0:1:0:0:
173,349,71968,1,10,0:0:0:0:
30,191,72130,5,8,0:1:0:0:
15,181,72211,1,8,0:1:0:0:
0,171,72292,1,8,0:0:0:0:
172,29,72455,5,8,0:1:0:0:
187,19,72536,1,8,0:1:0:0:
202,9,72617,1,12,0:0:0:0:
7,376,72941,6,0,P|88:345|174:349,1,172.799994726563,14|0,0:1|0:0,0:0:0:0:
246,374,73265,1,10,0:0:0:0:
119,228,73428,1,10,0:1:0:0:
242,74,73590,2,0,B|283:41|264:-10|264:-10|235:5,1,115.199996484375,10|8,0:1|0:1,0:0:0:0:
74,85,73914,5,10,0:0:0:0:
248,163,74076,2,0,B|292:156|330:181|330:181|345:132|387:110,1,172.799994726563,10|0,0:1|0:0,0:0:0:0:
429,49,74401,2,0,B|466:82|455:134|455:134|482:97,1,115.199996484375,10|8,0:1|0:0,0:0:0:0:
264,264,74725,2,0,B|226:297|238:349|238:349|211:312,1,115.199996484375,10|8,0:1|0:1,0:0:0:0:
81,101,75049,2,0,B|42:64|55:16|55:16|42:33,1,115.199996484375,10|8,0:1|0:0,0:0:0:0:
306,137,75374,6,0,B|331:130|355:104|355:104|331:172|362:220,1,172.799994726563,10|0,0:1|0:0,0:0:0:0:
388,287,75698,2,0,B|355:301|355:301|281:256,1,115.199996484375,10|8,0:1|0:0,0:0:0:0:
77,183,76022,5,10,0:1:0:0:
254,60,76184,1,10,0:1:0:0:
53,10,76347,1,10,0:1:0:0:
53,10,76428,1,8,0:1:0:0:
53,10,76509,1,8,0:0:0:0:
272,70,76671,6,0,B|317:45|369:61|388:107|388:107|393:82|380:65,1,172.799994726563,10|0,0:1|0:0,0:0:0:0:
316,137,76995,2,0,P|287:204|301:258,1,115.199996484375,10|8,0:1|0:0,0:1:0:0:
438,372,77320,5,10,0:1:0:0:
438,372,77401,1,8,0:1:0:0:
438,372,77482,2,0,L|495:358,1,57.5999982421876,8|8,0:0|0:3,0:0:0:0:
400,241,77644,5,10,0:1:0:0:
400,241,77725,1,8,0:1:0:0:
400,241,77806,2,0,L|386:185,1,57.5999982421876,8|8,0:0|0:3,0:0:0:0:
205,329,77968,6,0,B|203:358|165:371|165:371|202:326|200:259|158:218,1,230.39999296875,14|8,0:1|0:1,0:0:0:0:
1,106,78455,5,10,0:0:0:0:
87,299,78617,1,8,0:1:0:0:
260,149,78779,6,0,P|194:150|149:90,1,115.199996484375,10|8,0:0|0:1,0:0:0:0:
125,54,79022,1,8,0:1:0:0:
125,54,79103,1,10,0:0:0:0:
157,217,79265,1,10,0:1:0:0:
339,95,79428,1,8,0:0:0:0:
310,228,79590,1,10,0:1:0:0:
487,180,79752,1,14,0:0:0:0:
487,180,79914,1,8,0:1:0:0:
388,6,80076,5,8,0:3:0:0:
388,41,80157,1,8,0:3:0:0:
370,73,80238,1,4,0:3:0:0:
339,95,80320,1,4,0:3:0:0:
302,97,80401,1,8,0:3:0:0:
268,82,80482,1,8,0:3:0:0:
205,31,80563,6,0,B|224:8|255:22|255:22|242:95|177:109,1,172.799994726563,14|0,0:1|0:1,0:1:0:0:
107,136,80887,5,10,0:1:0:0:
281,254,81049,1,10,0:0:0:0:
91,345,81211,1,2,0:0:0:0:
194,193,81374,5,10,0:1:0:0:
186,301,81536,1,8,0:1:0:0:
97,240,81698,1,8,0:0:0:0:
289,261,81860,5,10,0:1:0:0:
289,261,81941,1,2,0:1:0:0:
289,261,82022,2,0,B|330:258|330:258|345:269|345:269|417:259,1,115.199996484375,2|8,0:0|0:1,0:0:0:0:
512,110,82347,5,10,0:0:0:0:
267,60,82509,1,8,0:1:0:0:
448,165,82671,5,10,0:0:0:0:
330,4,82833,1,8,0:3:0:0:
370,139,82995,5,6,0:3:0:0:
408,30,83157,1,4,0:3:0:0:
278,222,83320,6,0,P|285:152|245:74,1,153.6,14|0,0:1|0:0,0:0:0:0:
184,191,83806,2,8,P|182:212|198:228,1,38.4,10|8,0:1|0:1,0:1:0:0:
271,224,83968,2,0,P|278:154|238:76,1,153.6,14|0,0:0|0:0,0:0:0:0:
82,0,84455,5,2,0:0:0:0:
23,49,84617,1,10,0:1:0:0:
82,95,84779,2,0,L|170:75,1,76.8,8|0,0:0|0:0,0:0:0:0:
60,208,85103,5,8,0:1:0:0:
60,208,85184,1,8,0:1:0:0:
60,208,85265,1,14,0:0:0:0:
146,174,85428,1,8,0:1:0:0:
185,310,85590,1,10,0:0:0:0:
344,239,85752,6,0,B|402:240|439:282|439:282|507:269|500:212,1,211.200006445313,14|0,0:1|0:0,0:0:0:0:
437,77,86238,5,8,0:1:0:0:
391,167,86401,1,8,0:1:0:0:
259,222,86563,5,8,0:0:0:0:
220,36,86725,1,8,0:0:0:0:
32,12,86887,5,8,0:0:0:0:
62,41,86968,1,8,0:0:0:0:
77,80,87049,1,8,0:0:0:0:
75,122,87130,1,8,0:0:0:0:
53,158,87211,1,14,0:1:0:0:
130,333,87536,6,0,L|182:326,1,52.8000016113282,8|0,1:2|2:0,2:0:0:0:
137,342,88022,6,0,L|189:335,1,43.1999986816407,8|0,1:2|0:0,0:0:0:0:
282,374,88347,6,0,B|298:325|269:276|269:276|293:175,1,192,14|8,0:1|0:1,0:0:0:0:
419,332,88833,2,0,P|466:344|519:307,1,96,10|8,0:0|0:1,0:1:0:0:
391,206,89157,1,10,0:1:0:0:
461,138,89320,2,0,P|482:90|470:50,1,96,10|8,0:1|0:0,0:0:0:0:
254,5,89644,6,0,B|223:32|212:75|237:118|237:118|255:99|249:66,1,144,10|0,0:1|0:0,0:1:0:0:
240,0,89968,2,0,P|214:43|218:96,1,96,10|8,0:1|0:0,0:0:0:0:
288,247,90292,1,10,0:1:0:0:
141,308,90455,1,10,0:1:0:0:
113,285,90536,1,8,0:1:0:0:
79,272,90617,1,8,0:1:0:0:
44,270,90698,1,8,0:1:0:0:
9,279,90779,1,8,0:0:0:0:
99,157,90941,6,0,B|148:95|110:7|110:7|102:39,1,192,10|8,0:1|0:1,0:0:0:0:
230,170,91428,2,0,B|254:180|275:182|275:182|297:173|315:152,1,96,10|8,0:0|0:1,0:0:0:0:
232,291,91752,1,10,0:1:0:0:
360,249,91914,1,10,0:1:0:0:
402,377,92076,1,8,0:0:0:0:
492,234,92238,6,0,B|502:198|502:198|458:148|491:75|491:75|506:113,1,192,14|8,0:1|0:3,0:0:0:0:
441,141,92644,1,8,0:3:0:0:
413,148,92725,1,8,0:3:0:0:
384,148,92806,1,8,0:3:0:0:
355,141,92887,1,4,0:3:0:0:
329,127,92968,1,8,0:3:0:0:
307,107,93049,6,0,L|297:44,1,36.0000013732911,8|0,0:0|0:0,0:1:0:0:
232,84,93211,2,0,L|222:21,1,36.0000013732911,2|0,0:0|0:0,0:0:0:0:
157,61,93374,2,0,L|147:-2,1,36.0000013732911,2|0,0:0|0:0,0:0:0:0:
77,43,93536,6,0,B|54:23|18:28|18:28|-19:88|33:145,1,192,14|8,0:1|0:1,0:0:0:0:
155,292,94022,2,0,B|159:264|159:264|162:257|162:257|160:250|160:250|167:190,1,96,10|8,0:0|0:1,0:1:0:0:
317,76,94347,1,10,0:1:0:0:
372,227,94509,1,10,0:1:0:0:
481,190,94671,1,8,0:0:0:0:
512,355,94833,6,0,B|479:347|457:341|457:341|440:346|425:356|425:356|405:348|337:337,1,144,10|0,0:1|0:0,0:0:0:0:
306,377,95157,2,0,P|304:318|332:286,1,96,10|8,0:1|0:0,0:0:0:0:
481,190,95482,1,10,0:1:0:0:
361,121,95644,1,10,0:1:0:0:
389,138,95725,1,8,0:1:0:0:
398,170,95806,1,8,0:1:0:0:
395,203,95887,1,8,0:1:0:0:
372,227,95968,1,8,0:0:0:0:
237,158,96130,6,0,B|156:113|76:151|76:151|137:173,1,192,10|8,0:1|0:1,0:1:0:0:
278,246,96617,2,0,L|387:223,1,96,10|8,0:0|0:1,0:0:0:0:
299,367,96941,1,10,0:1:0:0:
176,310,97103,1,10,0:1:0:0:
44,334,97265,1,8,0:0:0:0:
189,225,97428,6,0,B|226:163|180:111|180:111|151:151,1,144,10|0,0:1|0:0,0:0:0:0:
115,177,97752,2,0,B|89:156|91:119|91:119|106:92,1,96,10|8,0:1|0:2,0:0:0:0:
224,17,98076,5,10,0:1:0:0:
245,27,98157,1,10,0:1:0:0:
268,27,98238,2,0,P|285:18|303:10,8,24,10|0|0|0|0|0|0|0|0,0:1|0:0|0:0|0:0|0:0|0:0|0:0|0:0|0:0,0:0:0:0:
268,27,98725,6,0,B|288:72|334:67|334:67|356:34|405:27,1,153.6,14|8,0:1|0:1,0:0:0:0:
467,18,99211,1,2,0:0:0:0:
512,90,99374,1,8,0:1:0:0:
512,90,99455,1,8,0:1:0:0:
512,90,99536,2,0,B|502:125|502:125|502:137|502:137|483:198,1,76.8,8|8,0:1|0:1,0:0:0:0:
424,220,99860,5,10,0:0:0:0:
424,220,100022,1,8,0:1:0:0:
351,194,100184,1,2,0:0:0:0:
365,271,100347,1,8,0:1:0:0:
409,143,100509,1,10,0:1:0:0:
281,99,100671,1,10,0:1:0:0:
281,99,100752,1,8,0:1:0:0:
281,99,100833,1,8,0:1:0:0:
225,151,100995,1,8,0:1:0:0:
156,115,101157,1,8,0:1:0:0:
207,22,101320,5,14,0:1:0:0:
443,384,102455,1,10,0:0:0:0:
496,327,102617,6,2,L|487:277,1,48,10|0,1:1|2:0,2:1:0:0:
505,312,102941,6,2,B|499:301|499:301|489:251,1,57.5999982421876,10|0,1:1|2:0,2:1:0:0:
512,297,103265,6,2,B|499:281|499:281|484:239|483:225,1,67.1999979492188,10|0,1:1|2:0,2:1:0:0:
512,116,103590,6,2,L|502:79,6,28.7999991210938,0|0|0|0|0|0|0,0:0|0:0|0:0|0:0|0:0|0:0|0:0,0:1:0:0:
436,58,103914,6,0,B|423:128|344:123|344:123|287:89,1,176.639994070313,14|8,0:1|0:1,0:0:0:0:
121,16,104401,2,0,B|58:67|101:147|101:147|148:109,1,176.639994070313,10|8,0:0|0:1,0:0:0:0:
305,13,104887,1,10,0:1:0:0:
374,122,105049,2,0,P|389:160|371:223,1,88.3199970351563,10|8,0:0|0:1,0:0:0:0:
268,340,105374,5,2,0:0:0:0:
196,291,105536,2,0,B|172:287|153:292|153:292|139:284|110:279,1,88.3199970351563,10|8,0:1|0:2,0:0:0:0:
295,216,105860,2,0,B|318:212|337:217|337:217|351:209|380:204,1,88.3199970351563,10|0,0:1|0:0,0:0:0:0:
185,112,106184,2,0,B|161:106|142:108|142:108|129:99|100:90,1,88.3199970351563,10|8,0:1|0:0,0:0:0:0:
301,0,106509,6,0,B|268:65|342:104|342:104|360:82|392:76,1,176.639994070313,10|8,0:1|0:1,0:0:0:0:
485,213,106995,2,0,B|512:241|512:241|522:312|471:353|471:353|464:342,1,176.639994070313,10|8,0:0|0:1,0:0:0:0:
368,234,107482,1,10,0:1:0:0:
439,147,107644,2,0,P|459:117|461:58,1,88.3199970351563,10|8,0:0|0:1,0:0:0:0:
337,151,107968,5,2,0:0:0:0:
255,111,108130,2,0,B|223:107|223:107|219:104|219:104|213:105|213:105|168:99,1,88.3199970351563,10|8,0:1|0:0,0:0:0:0:
285,218,108455,2,0,B|253:214|253:214|249:211|249:211|243:212|243:212|198:206,1,88.3199970351563,10|0,0:1|0:0,0:0:0:0:
370,40,108779,2,0,B|338:36|338:36|334:33|334:33|328:34|328:34|283:28,1,88.3199970351563,10|8,0:1|0:0,0:0:0:0:
432,132,109103,6,0,B|449:155|449:179|449:179|482:190|500:246|523:233|538:193|494:178,1,163.200003112793,14|8,0:1|0:1,0:0:0:0:
416,259,109590,1,2,0:0:0:0:
342,312,109752,1,8,0:1:0:0:
342,312,109833,1,8,0:1:0:0:
342,312,109914,2,0,B|316:309|316:309|303:314|303:314|250:303,1,72.0000027465821,10|8,0:1|0:1,0:0:0:0:
163,294,110238,5,10,0:0:0:0:
163,294,110401,1,8,0:1:0:0:
119,351,110563,5,2,0:0:0:0:
91,284,110725,1,8,0:1:0:0:
136,227,110887,1,8,0:1:0:0:
163,294,111049,1,10,0:1:0:0:
167,299,111130,1,8,0:1:0:0:
171,304,111211,1,8,0:1:0:0:
240,323,111374,2,0,L|332:312,1,72.0000027465821,10|0,0:1|0:0,0:0:0:0:
401,246,111698,6,0,B|434:189|379:131|379:131|345:152,1,144.000005493164,10|8,0:1|0:1,0:0:0:0:
292,178,112184,2,0,L|212:164,1,72.0000027465821,2|8,0:0|0:1,0:0:0:0:
216,171,112428,1,8,0:1:0:0:
211,176,112509,2,0,L|131:162,1,72.0000027465821,10|8,0:1|0:1,0:0:0:0:
40,214,112833,5,2,0:0:0:0:
0,134,112995,2,0,P|1:98|23:65,1,72.0000027465821,10|0,0:1|0:0,0:0:0:0:
110,26,113320,2,0,B|128:34|144:34|144:34|161:17|192:6,1,72.0000027465821,10|0,0:1|0:0,0:0:0:0:
267,41,113644,1,8,0:1:0:0:
270,47,113725,1,8,0:1:0:0:
273,53,113806,1,8,0:1:0:0:
330,96,113968,1,8,0:1:0:0:
382,46,114130,1,8,0:3:0:0:
483,139,114292,6,0,B|515:187|515:187|519:228|470:317,1,182.399995129395,14|8,0:1|0:1,0:0:0:0:
328,364,114779,2,0,B|317:293|258:275|258:275|254:316|289:340,1,182.399995129395,10|8,0:0|0:1,0:0:0:0:
339,384,115265,1,10,0:1:0:0:
390,273,115428,2,0,P|399:222|378:176,1,91.1999975646973,10|8,0:0|0:1,0:0:0:0:
295,90,115752,5,2,0:0:0:0:
206,162,115914,2,0,B|203:189|174:194|174:194|176:169|203:158,1,91.1999975646973,8|8,0:1|0:0,0:0:0:0:
295,90,116238,2,0,B|319:79|338:101|338:101|316:112|293:94,1,91.1999975646973,10|0,0:1|0:0,0:0:0:0:
189,49,116563,2,0,B|167:32|177:5|177:5|197:19|193:48,1,91.1999975646973,10|8,0:1|0:0,0:0:0:0:
297,97,116887,6,0,B|361:138|430:91|430:91|423:68|371:69,1,182.399995129395,10|8,0:1|0:1,0:0:0:0:
297,198,117374,2,0,B|280:251|309:287|309:287|318:339|262:366,1,182.399995129395,10|8,0:0|0:1,0:0:0:0:
178,266,117860,1,10,0:1:0:0:
118,335,118022,1,8,0:0:0:0:
21,295,118184,1,8,0:1:0:0:
18,177,118347,1,8,0:0:0:0:
133,108,118509,6,0,B|160:171|244:143|244:143|253:101|299:78,1,201.599993847656,14|0,0:1|0:0,0:0:0:0:
388,71,118833,6,0,B|401:150|496:152|496:152|485:124|448:111,1,201.599993847656,14|0,0:1|0:0,0:0:0:0:
294,64,119157,6,0,B|218:37|218:37|194:43|194:43|100:13,1,201.599993847656,14|0,0:1|0:0,0:0:0:0:
24,54,119482,5,8,0:0:0:0:
24,54,119563,1,8,0:0:0:0:
24,54,119644,2,0,B|0:75|-12:106|-12:106|-9:160|25:235,1,192,14|8,0:1|0:0,0:1:0:0:
121,359,120130,5,2,0:0:0:0:
174,244,120292,1,10,0:1:0:0:
245,347,120455,1,2,0:0:0:0:
48,255,120617,1,10,0:0:0:0:
227,129,120779,1,2,0:0:0:0:
331,223,120941,6,0,B|376:239|376:239|419:205,1,96,10|0,0:1|0:0,0:0:0:0:
282,32,121265,2,0,B|243:2|243:2|198:18,1,96,10|0,0:0|0:0,0:0:0:0:
70,179,121590,5,10,0:1:0:0:
233,145,121752,1,2,0:0:0:0:
49,50,121914,1,10,0:0:0:0:
207,22,122076,1,10,0:0:0:0:
207,22,122157,1,8,0:0:0:0:
207,22,122238,1,12,0:1:0:0:
81,201,122401,5,2,0:0:0:0:
256,128,122563,1,10,0:0:0:0:
431,201,122725,2,0,B|477:229|477:229|543:172|490:108,1,192,2|0,0:0|0:0,0:0:0:0:
369,29,123211,5,10,0:0:0:0:
331,237,123374,1,2,0:0:0:0:
160,160,123536,6,0,B|124:154|124:154|105:159|105:159|62:150,1,96,10|0,0:1|0:0,0:0:0:0:
352,224,123860,2,0,B|388:230|388:230|407:225|407:225|450:234,1,96,10|0,0:0|0:0,0:0:0:0:
288,96,124184,6,0,B|294:60|294:60|289:41|289:41|298:-2,1,96,10|0,0:1|0:0,0:0:0:0:
224,288,124509,2,0,B|218:324|218:324|223:343|223:343|214:386,1,96,10|0,0:0|0:0,0:0:0:0:
77,188,124833,6,0,P|57:175|33:172,1,48,14|0,0:0|0:0,0:0:0:0:
110,262,124995,2,0,P|108:286|118:308,1,48,10|0,0:1|0:0,0:0:0:0:
159,197,125157,2,0,P|180:186|194:167,1,48,10|0,0:1|0:0,0:0:0:0:
67,237,125320,6,0,P|44:248|28:269,1,52.8000016113282,14|0,0:0|0:0,0:0:0:0:
157,246,125482,2,0,P|179:261|205:264,1,52.8000016113282,10|0,0:1|0:0,0:0:0:0:
121,163,125644,2,0,P|122:137|112:113,1,52.8000016113282,10|0,0:1|0:0,0:0:0:0:
109,273,125806,6,0,P|107:301|119:328,1,57.5999982421876,14|0,0:0|0:0,0:0:0:0:
167,193,125968,2,0,P|193:180|210:157,1,57.5999982421876,10|0,0:1|0:0,0:0:0:0:
69,181,126130,2,0,P|44:166|16:162,1,57.5999982421876,10|0,0:1|0:0,0:0:0:0:
165,252,126292,6,0,P|191:269|222:273,1,62.3999971435548,14|0,0:0|0:0,0:0:0:0:
122,154,126455,2,0,P|123:123|111:94,1,62.3999971435548,10|0,0:1|0:0,0:0:0:0:
58,240,126617,2,0,P|30:255|11:280,1,62.3999971435548,10|0,0:1|0:0,0:0:0:0:
176,189,126779,6,0,P|206:173|226:147,1,67.1999979492188,14|0,0:0|0:0,0:0:0:0:
61,176,126941,2,0,P|33:158|0:154,1,67.1999979492188,10|0,0:1|0:0,0:0:0:0:
107,282,127103,2,0,P|105:315|119:346,1,67.1999979492188,14|2,0:2|0:0,0:0:0:0:
418,133,128887,5,10,0:1:0:0:
386,367,129049,1,10,0:1:0:0:
94,133,129374,5,10,0:1:0:0:
126,367,129536,1,10,0:1:0:0:
359,209,129860,6,0,B|387:305|482:287|482:287|491:247|452:209,1,230.39999296875,14|8,0:1|0:1,0:0:0:0:
263,31,130347,1,10,0:0:0:0:
197,244,130509,1,10,0:1:0:0:
81,148,130671,2,0,B|122:141|122:141|131:136|131:136|140:138|140:138|203:128,1,115.199996484375,10|8,0:1|0:1,0:0:0:0:
56,37,130995,5,10,0:0:0:0:
193,129,131157,2,0,B|255:110|292:158|292:158|297:126|251:97,1,172.799994726563,10|0,0:1|0:0,0:0:0:0:
224,201,131482,2,0,B|191:234|199:284|199:284|241:315,1,115.199996484375,10|8,0:1|0:0,0:0:0:0:
379,111,131806,2,0,B|399:96|399:96|407:46|374:13,1,115.199996484375,10|8,0:1|0:1,0:0:0:0:
445,289,132130,2,0,B|469:285|469:285|510:314|510:361,1,115.199996484375,10|8,0:1|0:0,0:0:0:0:
220,299,132455,6,0,B|215:334|173:338|173:338|187:265|124:240,1,172.799994726563,10|0,0:1|0:0,0:0:0:0:
66,217,132779,2,0,P|58:272|96:314,1,115.199996484375,10|8,0:1|0:0,0:0:0:0:
204,137,133103,5,10,0:1:0:0:
14,72,133265,1,10,0:1:0:0:
171,9,133428,1,10,0:1:0:0:
171,9,133509,1,8,0:1:0:0:
171,9,133590,1,8,0:0:0:0:
223,155,133752,6,0,B|236:171|255:173|255:173|282:154|315:159|315:159|320:115|366:92,1,172.799994726563,10|0,0:1|0:0,0:0:0:0:
416,53,134076,1,10,0:1:0:0:
303,237,134238,1,8,0:0:0:0:
284,27,134401,1,10,0:1:0:0:
424,208,134563,1,8,0:0:0:0:
460,231,134644,1,8,0:0:0:0:
497,214,134725,1,8,0:1:0:0:
504,173,134806,1,8,0:1:0:0:
473,145,134887,1,8,0:0:0:0:
297,217,135049,6,0,B|286:263|228:278|192:263|166:227|166:227|180:201|167:160,1,230.39999296875,14|8,0:1|0:1,0:0:0:0:
65,41,135536,5,10,0:0:0:0:
0,261,135698,1,8,0:1:0:0:
168,163,135860,6,0,B|179:131|179:131|156:92|178:45,1,115.199996484375,10|0,0:0|0:0,0:0:0:0:
280,211,136184,1,10,0:0:0:0:
364,7,136347,1,10,0:1:0:0:
364,7,136428,1,8,0:1:0:0:
364,7,136509,1,8,0:0:0:0:
256,81,136671,1,8,0:1:0:0:
409,224,136833,1,10,0:0:0:0:
409,224,136995,1,8,0:1:0:0:
512,44,137157,5,8,0:0:0:0:
509,80,137238,1,8,0:0:0:0:
489,112,137320,1,8,0:3:0:0:
455,131,137401,1,8,0:3:0:0:
417,130,137482,1,4,0:3:0:0:
384,111,137563,1,4,0:3:0:0:
333,54,137644,6,0,B|349:29|383:37|383:37|384:76|343:96|348:82|315:88|294:130,1,192,14|8,0:1|0:1,0:0:0:0:
254,367,138130,5,10,0:0:0:0:
398,237,138292,1,2,0:0:0:0:
189,184,138455,1,10,0:1:0:0:
189,184,138617,1,8,0:1:0:0:
333,54,138779,1,8,0:0:0:0:
398,237,138941,6,0,B|416:273|504:271|484:153|389:151,1,201.599993847656,14|0,0:1|0:0,0:0:0:0:
327,178,139265,5,8,0:0:0:0:
322,188,139347,1,8,0:0:0:0:
317,198,139428,1,10,0:0:0:0:
226,82,139590,5,8,0:1:0:0:
218,66,139671,1,8,0:1:0:0:
211,49,139752,1,14,0:0:0:0:
78,213,139914,5,8,0:1:0:0:
70,234,139995,1,8,0:1:0:0:
61,255,140076,1,14,0:0:0:0:
306,30,140401,5,14,0:1:0:0:
411,143,140563,2,0,B|433:156|466:153|466:153|487:129|487:100,1,115.199996484375,2|8,0:1|0:0,0:0:0:0:
292,45,140887,1,8,0:1:0:0:
270,226,141049,2,0,B|278:278|331:287|331:287|333:254,1,115.199996484375,10|8,0:1|0:1,0:0:0:0:
111,113,141374,5,10,0:0:0:0:
264,137,141536,2,0,B|225:130|202:94|202:94|213:145|172:183,1,172.799994726563,10|0,0:1|0:0,0:0:0:0:
115,235,141860,2,0,B|93:256|97:299|97:299|83:282|90:256,1,115.199996484375,10|8,0:1|0:0,0:0:0:0:
264,137,142184,2,0,B|293:144|328:119|328:119|320:141|294:148,1,115.199996484375,10|8,0:1|0:1,0:0:0:0:
105,57,142509,2,0,B|97:27|57:9|57:9|80:6|99:24,1,115.199996484375,10|8,0:1|0:0,0:0:0:0:
313,160,142833,6,0,B|361:157|395:182|395:182|424:144|468:141,1,172.799994726563,10|0,0:1|0:0,0:0:0:0:
381,85,143157,2,0,B|386:39|350:21|350:21|367:39|367:82,1,115.199996484375,10|8,0:1|0:0,0:0:0:0:
312,253,143482,5,10,0:1:0:0:
261,88,143644,1,10,0:1:0:0:
204,312,143806,1,10,0:1:0:0:
204,312,143887,1,8,0:1:0:0:
204,312,143968,1,8,0:0:0:0:
94,158,144130,6,0,B|69:119|15:116|15:116|45:103|80:114|91:128,1,172.799994726563,10|0,0:1|0:0,0:0:0:0:
164,189,144455,2,0,B|204:205|204:205|238:202|267:169,1,115.199996484375,10|8,0:1|0:0,0:0:0:0:
491,30,144779,6,0,B|464:61|429:64|429:64|389:48,1,115.199996484375,10|8,0:1|0:0,0:0:0:0:
331,93,145022,1,8,0:3:0:0:
315,55,145103,1,8,0:1:0:0:
284,29,145184,1,8,0:1:0:0:
244,20,145265,1,8,0:0:0:0:
91,128,145428,6,0,B|64:176|78:218|78:218|73:254|40:275|40:275|-12:259|5:204,1,230.39999296875,14|8,0:1|0:1,0:0:0:0:
65,13,145914,5,10,0:0:0:0:
186,188,146076,1,8,0:1:0:0:
357,29,146238,6,0,B|302:22|302:22|296:26|296:26|242:19,1,115.199996484375,10|8,0:0|0:1,0:0:0:0:
353,209,146563,1,10,0:0:0:0:
468,10,146725,1,10,0:1:0:0:
468,10,146806,1,8,0:1:0:0:
468,10,146887,1,8,0:0:0:0:
472,232,147049,1,8,0:1:0:0:
360,32,147211,1,14,0:0:0:0:
360,32,147374,1,8,0:1:0:0:
282,246,147536,5,8,0:3:0:0:
274,211,147617,1,8,0:3:0:0:
250,183,147698,1,4,0:3:0:0:
215,168,147779,1,4,0:3:0:0:
178,174,147860,1,8,0:3:0:0:
148,196,147941,1,8,0:3:0:0:
94,256,148022,6,0,B|121:286|181:238|120:158|52:181,1,172.799994726563,14|0,0:1|0:0,0:0:0:0:
0,221,148347,5,10,0:1:0:0:
149,54,148509,1,10,0:0:0:0:
209,322,148671,1,2,0:0:0:0:
298,204,148833,5,10,0:1:0:0:
204,344,148995,1,8,0:1:0:0:
158,151,149157,1,8,0:0:0:0:
78,369,149320,5,14,0:1:0:0:
152,173,149482,1,2,0:0:0:0:
300,226,149644,1,8,0:1:0:0:
365,146,149806,6,0,P|352:94|395:33,1,115.199996484375,10|8,0:0|0:1,0:0:0:0:
450,7,150049,1,8,0:1:0:0:
450,7,150130,2,0,B|457:47|500:64|500:64|491:119|439:112|416:98,1,172.799994726563,14|0,0:0|0:0,0:0:0:0:
380,42,150455,5,14,0:1:0:0:
365,146,150617,1,2,0:0:0:0:
256,75,150779,6,0,P|171:47|89:76,1,153.6,14|0,0:1|0:0,0:0:0:0:
201,163,151265,2,8,B|218:170|218:170|250:151,1,38.4,8|8,0:1|0:1,0:1:0:0:
254,85,151428,2,0,P|184:58|109:72,1,153.6,14|0,0:0|0:0,0:0:0:0:
0,197,151914,5,2,0:0:0:0:
68,266,152076,2,0,P|104:258|156:256,1,76.8,10|8,0:1|0:0,0:0:0:0:
227,368,152401,2,0,P|264:376|302:378,1,76.8,2|8,0:0|0:1,0:0:0:0:
380,356,152644,1,8,0:1:0:0:
380,356,152725,1,12,0:0:0:0:
281,244,152887,1,8,0:1:0:0:
281,244,152968,1,8,0:1:0:0:
281,244,153049,1,8,0:0:0:0:
495,139,153211,6,0,B|493:174|514:198|514:198|520:241|486:276|486:276|494:246|477:216,1,211.200006445313,14|8,0:1|0:1,0:0:0:0:
328,96,153698,5,8,0:0:0:0:
380,261,153860,1,8,0:0:0:0:
310,74,154022,5,8,0:0:0:0:
234,301,154184,1,8,0:0:0:0:
142,129,154347,5,8,0:0:0:0:
115,161,154428,1,8,0:0:0:0:
74,174,154509,1,8,0:0:0:0:
32,164,154590,1,8,0:0:0:0:
0,135,154671,5,14,0:0:0:0:
207,4,154833,1,8,0:1:0:0:
216,248,154995,1,8,0:1:0:0:
142,129,155157,5,14,0:0:0:0:
64,259,155806,6,0,B|71:327|154:377|241:358|241:358|239:364|239:364|300:353|456:275|297:93|175:222|175:222|257:126|423:189|450:355|450:355|370:280|362:248|345:105|439:127|467:93|442:14|442:14|423:82|375:57|387:141,1,1536,14|4,0:1|0:0,0:0:0:0:
108,124,163752,5,12,0:0:0:0:
404,260,163914,1,8,0:1:0:0:
404,260,164076,1,8,0:1:0:0:
108,260,164238,5,14,0:0:0:0:
404,124,164401,1,8,0:1:0:0:
404,124,164563,1,8,0:1:0:0:
256,384,164725,6,0,B|259:338|259:338|252:316|252:316|256:256,1,124.79999428711,10|8,0:0|0:1,0:0:0:0:
306,109,165049,5,8,2:1:0:0:
313,154,165130,1,8,2:1:0:0:
342,191,165211,1,8,2:3:0:0:
384,209,165292,1,8,2:3:0:0:
431,205,165374,1,4,2:3:0:0:
469,179,165455,1,4,2:3:0:0:
491,138,165536,1,8,2:1:0:0:
490,92,165617,1,8,2:1:0:0:
468,51,165698,1,8,2:0:0:0:
228,282,166022,5,8,0:0:0:0:
228,282,166103,1,8,0:0:0:0:
228,282,166184,2,0,B|193:261|193:261|129:299|129:299|121:329|121:329|51:368|51:368|14:339,1,268.799991796875,14|8,0:1|0:1,0:1:0:0:
141,172,166671,2,0,B|87:201|87:201|76:121|76:121|44:62|44:62|86:20,1,268.799991796875,10|8,0:1|0:1,0:1:0:0:
347,21,167157,5,10,0:1:0:0:
159,164,167320,1,8,0:0:0:0:
213,21,167482,1,8,0:1:0:0:
327,240,167644,5,10,0:1:0:0:
176,173,167806,1,8,0:1:0:0:
333,35,167968,1,8,0:0:0:0:
421,123,168130,5,10,0:1:0:0:
421,123,168211,1,8,0:1:0:0:
421,123,168292,1,8,0:1:0:0:
313,152,168455,1,8,0:1:0:0:
456,241,168617,1,8,0:0:0:0:
356,368,168779,6,0,B|332:347|332:347|278:343|278:343|245:362|245:362|160:338|160:338|214:281,1,268.799991796875,14|8,0:1|0:1,0:1:0:0:
342,81,169265,2,0,B|323:151|323:151|424:230|424:230|488:185,2,268.799991796875,10|8|8,0:0|0:1|0:0,0:1:0:0:
212,101,170076,6,0,B|121:61|121:61|6:80,1,211.200006445313,10|8,0:1|0:1,0:1:0:0:
162,179,170563,1,10,0:0:0:0:
49,214,170725,1,8,0:1:0:0:
243,235,170887,1,10,0:0:0:0:
156,350,171049,1,8,0:1:0:0:
156,350,171130,1,8,0:1:0:0:
156,350,171211,1,8,0:0:0:0:
329,262,171374,6,2,B|338:298|338:298|397:316|397:316|450:348|450:348|483:322,1,201.599993847656,14|0,0:1|0:0,0:1:0:0:
512,254,171698,2,0,L|496:204,1,48,10|0,0:1|0:0,0:1:0:0:
471,132,171860,5,10,0:2:0:0:
302,235,172022,1,10,0:1:0:0:
295,42,172184,1,10,0:1:0:0:
295,42,172347,1,8,0:1:0:0:
376,15,172509,5,10,0:0:0:0:
250,117,172671,2,2,B|214:134|214:134|169:118|169:118|153:98|153:98|85:75,1,172.799994726563,10|0,0:1|0:0,0:1:0:0:
19,110,172995,2,0,L|15:50,1,48,10|0,0:1|0:0,0:0:0:0:
144,9,173157,5,10,0:0:0:0:
171,209,173320,1,8,0:1:0:0:
295,42,173482,5,10,0:1:0:0:
164,234,173644,1,8,0:1:0:0:
324,154,173806,5,10,0:0:0:0:
416,336,173968,2,2,B|455:383|455:383|535:235|535:235|457:205,1,288.000010986329,14|8,0:1|0:1,0:1:0:0:
301,264,174455,5,10,0:0:0:0:
301,264,174617,1,8,0:1:0:0:
442,78,174779,1,10,0:1:0:0:
480,213,174941,1,8,0:1:0:0:
259,129,175103,1,10,0:0:0:0:
170,314,175265,5,10,0:1:0:0:
187,288,175347,1,2,0:0:0:0:
192,258,175428,1,2,0:0:0:0:
182,228,175509,1,2,0:0:0:0:
161,206,175590,1,10,0:1:0:0:
131,196,175671,1,2,0:0:0:0:
101,200,175752,5,14,0:0:0:0:
78,239,175833,1,2,0:0:0:0:
33,246,175914,1,2,0:0:0:0:
0,215,175995,1,2,0:0:0:0:
3,170,176076,2,8,L|21:97,1,62.3999971435548,10|8,0:3|0:3,0:3:0:0:
129,17,176238,5,4,0:3:0:0:
141,61,176320,1,4,0:3:0:0:
177,90,176401,1,8,0:3:0:0:
223,94,176482,1,8,0:3:0:0:
263,70,176563,6,2,B|311:33|311:33|375:57|375:57|448:51|448:51|497:114,1,268.799991796875,14|8,0:1|0:1,0:1:0:0:
399,282,177049,2,2,B|392:251|392:251|394:240|394:240|389:231|389:231|372:146,1,124.79999428711,10|0,0:2|0:0,0:1:0:0:
153,74,177374,1,10,0:1:0:0:
62,144,177536,2,2,B|38:200|38:200|56:262,1,124.79999428711,10|8,0:1|0:0,0:1:0:0:
215,360,177860,6,2,B|326:325|326:325|345:356|385:368,1,187.199991430664,10|0,0:1|0:0,0:1:0:0:
460,374,178184,2,2,B|487:350|487:350|461:315|492:240,1,124.79999428711,10|8,0:1|0:0,0:1:0:0:
243,268,178509,2,2,B|216:244|216:244|242:209|220:159,1,124.79999428711,10|8,0:1|0:1,0:1:0:0:
461,127,178833,2,2,B|487:103|487:103|461:68|483:18,1,124.79999428711,10|8,0:1|0:0,0:1:0:0:
274,48,179157,6,2,B|238:44|214:33|214:33|183:42|159:56|159:56|132:38|91:29,1,187.199991430664,10|0,0:1|0:0,0:1:0:0:
24,11,179482,1,10,0:1:0:0:
125,152,179644,1,10,0:0:0:0:
125,152,179806,1,8,0:1:0:0:
0,241,179968,1,10,0:1:0:0:
92,62,180130,1,10,0:1:0:0:
139,271,180292,1,8,0:0:0:0:
286,170,180455,6,2,B|344:141|344:141|361:206|433:220,1,187.199991430664,10|0,0:1|0:0,0:1:0:0:
494,179,180779,2,2,B|511:149|514:121|514:121|503:89|479:68,1,124.79999428711,10|8,0:1|0:0,0:1:0:0:
308,255,181103,2,2,B|284:275|273:307|273:307|276:335|293:365,1,124.79999428711,10|8,0:1|0:1,0:1:0:0:
184,104,181428,1,10,0:1:0:0:
184,104,181509,1,8,0:1:0:0:
184,104,181590,2,0,B|149:100|125:86|125:86|105:58|103:27,1,124.79999428711,8|0,0:0|0:0,0:0:0:0:
0,213,181914,6,2,B|90:150|200:213|200:213|286:175,1,268.799991796875,14|8,0:1|0:0,0:1:0:0:
512,25,182401,2,2,B|422:88|312:25|312:25|226:63,1,268.799991796875,14|8,0:1|0:1,0:1:0:0:
394,296,182887,6,10,B|410:335|467:333|467:333|496:267|450:212,1,216.000008239746,10|0,0:0|0:0,0:1:0:0:
400,154,183211,5,10,0:1:0:0:
330,358,183374,1,10,0:1:0:0:
212,177,183536,1,8,0:0:0:0:
319,241,183698,5,10,0:3:0:0:
319,241,183779,1,8,0:3:0:0:
319,241,183860,1,8,0:1:0:0:
102,347,184022,1,8,0:1:0:0:
8,124,184184,1,8,0:0:0:0:
135,11,184347,5,8,0:3:0:0:
135,11,184428,1,8,0:3:0:0:
135,11,184509,2,2,B|151:104|270:95|270:95|286:39|340:17,1,288.000010986329,14|8,0:1|0:0,0:1:0:0:
512,232,184995,2,2,B|495:325|376:316|376:316|360:260|306:238,1,288.000010986329,14|8,0:1|0:1,0:1:0:0:
0,264,185482,6,0,B|48:304|114:262|114:262|104:201|168:167,1,230.4,14|0,0:0|0:0,0:0:0:0:
233,136,185806,6,8,L|320:157,1,62.3999971435548,10|8,0:3|0:3,0:3:0:0:
366,121,185968,1,8,0:1:0:0:
237,30,186130,5,8,0:1:0:0:
225,44,186211,1,8,0:1:0:0:
209,55,186292,1,8,0:1:0:0:
191,62,186374,1,8,0:1:0:0:
172,64,186455,5,8,0:0:0:0:
134,43,186536,1,8,0:0:0:0:
90,41,186617,1,8,0:0:0:0:
51,59,186698,1,8,0:0:0:0:
24,92,186779,1,8,0:0:0:0:
14,134,186860,1,8,0:0:0:0:
25,176,186941,1,8,0:0:0:0:
53,209,187022,1,8,0:0:0:0:
93,225,187103,6,0,B|139:203|179:213|179:213|199:234|199:234|257:254|294:209,1,211.200006445313,14|8,0:1|0:0,0:1:0:0:
184,317,187590,1,2,0:0:0:0:
286,218,187752,2,0,P|297:170|270:110,1,96,10|0,0:1|0:0,0:0:0:0:
133,0,188076,5,10,0:0:0:0:
76,148,188238,1,2,0:0:0:0:
259,46,188401,6,0,L|376:22,1,96,10|0,0:1|0:0,0:0:0:0:
508,175,188725,2,0,B|472:75,1,96,10|0,0:0|0:0,0:0:0:0:
336,178,189049,5,10,0:1:0:0:
493,266,189211,1,2,0:0:0:0:
339,360,189374,1,10,0:0:0:0:
343,185,189536,1,2,0:0:0:0:
343,185,189617,1,2,0:0:0:0:
343,185,189698,1,14,0:1:0:0:
398,95,189860,5,2,0:0:0:0:
256,224,190022,1,10,0:0:0:0:
114,95,190184,2,0,B|97:132|97:132|39:151|5:71|72:25,1,192,2|0,0:0|0:0,0:0:0:0:
318,14,190671,5,10,0:0:0:0:
133,82,190833,1,2,0:0:0:0:
354,178,190995,6,0,B|410:118|490:153|490:153|494:193|452:220,1,211.200006445313,10|8,0:1|0:0,0:0:0:0:
308,101,191482,1,2,0:0:0:0:
251,277,191644,6,0,B|246:317|273:347|273:347|268:376,1,105.600003222656,10|0,0:1|0:0,0:0:0:0:
100,224,191968,2,0,B|64:204|26:219|26:219|0:204,1,105.600003222656,10|0,0:0|0:0,0:0:0:0:
223,60,192292,6,0,B|198:34|198:34|204:54,1,57.5999982421876,14|0,0:0|0:0,0:0:0:0:
212,147,192455,2,0,B|201:181|201:181|216:165,1,57.5999982421876,10|0,0:1|0:0,0:0:0:0:
294,113,192617,2,0,B|329:104|329:104|307:100,1,57.5999982421876,10|0,0:1|0:0,0:0:0:0:
185,97,192779,6,0,B|147:107|147:107|169:111,1,63.3599998066406,14|0,0:0|0:0,0:0:0:0:
262,156,192941,2,0,B|290:184|290:184|282:161,1,63.3599998066406,10|0,0:1|0:0,0:0:0:0:
274,59,193103,2,0,B|285:20|285:20|270:39,1,63.3599998066406,10|0,0:1|0:0,0:0:0:0:
205,155,193265,6,0,B|193:197|193:197|210:179,1,69.6960018929883,14|0,0:0|0:0,0:0:0:0:
303,114,193428,2,0,B|345:105|345:105|319:99,1,69.6960018929883,10|0,0:1|0:0,0:0:0:0:
218,49,193590,2,0,B|187:17|187:17|196:43,1,69.6960018929883,10|0,0:1|0:0,0:0:0:0:
267,167,193752,6,0,B|301:200|301:200|292:174,1,76.6656012329947,14|0,0:0|0:0,0:0:0:0:
282,49,193914,2,0,B|296:3|296:3|276:25,1,76.6656012329947,10|0,0:1|0:0,0:0:0:0:
173,96,194076,2,0,B|125:108|125:108|153:111,1,76.6656012329947,10|0,0:1|0:0,0:0:0:0:
315,114,194238,6,0,B|366:102|366:102|337:94,1,84.336001322254,14|0,0:0|0:0,0:0:0:0:
213,37,194401,2,0,B|178:-1|178:-1|187:28,1,84.336001322254,10|0,0:1|0:0,0:0:0:0:
197,166,194563,2,0,B|182:216|182:216|204:192,1,84.336001322254,14|2,0:2|0:0,0:0:0:0:
66,279,197482,6,0,L|-1:272,1,48
176,205,197968,6,0,L|109:198,1,48
211,352,198455,6,0,L|144:345,1,48
232,95,202022,5,10,0:1:0:0:
196,371,202184,1,10,0:1:0:0:
0,153,202509,6,0,B|70:193|46:289|46:289|106:321|139:269,1,259.20000098877,14|8,0:1|0:1,0:0:0:0:
310,118,202995,1,10,0:0:0:0:
369,365,203157,1,10,0:1:0:0:
478,276,203320,2,0,B|493:261|500:241|500:241|497:188|465:160,1,129.600000494385,10|8,0:1|0:1,0:0:0:0:
300,15,203644,5,10,0:0:0:0:
217,108,203806,2,0,B|193:148|139:136|139:136|137:103|116:66|66:61,1,194.400000741577,10|0,0:1|0:0,0:0:0:0:
0,75,204130,2,0,B|-9:134|52:160|52:160|66:130,1,129.600000494385,10|8,0:1|0:0,0:1:0:0:
208,290,204455,2,0,B|217:349|156:375|156:375|142:345,1,129.600000494385,10|8,0:1|0:1,0:0:0:0:
312,111,204779,2,0,B|303:52|364:26|364:26|378:56,1,129.600000494385,10|8,0:1|0:0,0:0:0:0:
510,224,205103,6,0,B|469:212|450:170|450:170|466:228|424:272,1,194.400000741577,10|0,0:1|0:0,0:0:0:0:
350,261,205428,2,0,B|318:282|318:282|280:291|215:268,1,129.600000494385,10|8,0:1|0:0,0:0:0:0:
27,195,205752,5,10,0:1:0:0:
162,360,205914,1,10,0:1:0:0:
130,138,206076,1,10,0:1:0:0:
130,138,206157,1,8,0:1:0:0:
130,138,206238,1,8,0:0:0:0:
228,272,206401,5,10,0:1:0:0:
208,275,206563,1,8,0:1:0:0:
280,81,206725,5,10,0:1:0:0:
262,73,206887,1,8,0:0:0:0:
381,211,207049,5,10,0:1:0:0:
362,206,207211,1,8,0:1:0:0:
444,41,207374,5,10,0:1:0:0:
428,29,207536,1,8,0:0:0:0:
512,232,207698,6,0,B|476:205|476:205|399:224|399:224|373:315|279:298,1,259.20000098877,14|8,0:1|0:1,0:0:0:0:
87,177,208184,5,10,0:0:0:0:
306,207,208347,1,8,0:1:0:0:
146,52,208509,1,10,0:0:0:0:
185,271,208671,1,8,0:1:0:0:
282,71,208833,1,8,0:0:0:0:
205,161,208995,5,10,0:1:0:0:
205,161,209076,1,8,0:1:0:0:
205,161,209157,1,8,0:0:0:0:
386,96,209320,1,2,0:0:0:0:
130,38,209482,1,14,0:0:0:0:
130,38,209644,1,8,0:1:0:0:
167,224,209806,5,8,0:3:0:0:
177,187,209887,1,8,0:3:0:0:
205,161,209968,1,4,0:3:0:0:
242,152,210049,1,4,0:3:0:0:
278,163,210130,1,8,0:3:0:0:
306,189,210211,1,8,0:3:0:0:
352,250,210292,6,0,B|348:291|298:290|263:227|353:178|352:224|401:191|389:112,1,220.800004211426,14|8,0:1|0:1,0:0:0:0:
230,9,210779,5,10,0:0:0:0:
133,249,210941,1,10,0:1:0:0:
79,18,211103,1,10,0:1:0:0:
79,18,211265,1,8,0:1:0:0:
242,210,211428,1,10,0:0:0:0:
419,44,211590,6,0,B|423:100|470:121|470:121|485:147|469:186|416:201|398:156,1,216.000008239746,14|0,0:1|0:0,0:0:0:0:
333,132,211914,6,0,P|327:103|313:78,1,57.5999982421876,10|8,0:0|0:3,0:0:0:0:
253,28,212076,2,0,P|225:18|197:17,1,57.5999982421876,10|8,0:0|0:3,0:0:0:0:
116,46,212238,5,10,0:1:0:0:
99,52,212320,1,10,0:1:0:0:
83,58,212401,1,14,0:0:0:0:
311,156,212563,5,8,0:1:0:0:
337,167,212644,1,8,0:1:0:0:
359,174,212725,1,14,0:0:0:0:
0,235,213049,5,14,0:1:0:0:
112,357,213211,2,0,B|73:374|73:374|15:371|-2:304,1,129.600000494385,2|8,0:0|0:0,0:0:0:0:
211,143,213536,1,10,0:1:0:0:
258,285,213698,2,0,B|274:335|325:332|325:332|361:313,1,129.600000494385,10|8,0:1|0:1,0:0:0:0:
451,163,214022,5,10,0:0:0:0:
512,342,214184,2,0,B|473:293|502:227|502:227|469:252|435:242,1,194.400000741577,10|0,0:1|0:0,0:1:0:0:
376,193,214509,2,0,B|362:154|382:115|382:115|359:125|358:155,1,129.600000494385,10|8,0:1|0:0,0:0:0:0:
217,348,214833,2,0,B|216:378|193:388|193:388|213:349|199:310,1,129.600000494385,10|8,0:1|0:1,0:0:0:0:
98,104,215157,2,0,B|70:72|75:29|75:29|57:46|68:75,1,129.600000494385,10|8,0:1|0:0,0:0:0:0:
338,168,215482,6,0,B|413:162|450:222|450:222|481:199|474:158,1,194.400000741577,10|0,0:1|0:0,0:0:0:0:
512,98,215806,2,0,B|470:79|429:103|429:103|422:78|397:59,1,129.600000494385,10|8,0:1|0:0,0:0:0:0:
239,0,216130,5,10,0:1:0:0:
185,233,216292,1,10,0:1:0:0:
115,36,216455,1,10,0:1:0:0:
115,36,216536,1,8,0:1:0:0:
115,36,216617,1,8,0:0:0:0:
14,237,216779,6,0,B|-19:270|-21:325|10:351|10:351|0:318|22:283,1,194.400000741577,10|0,0:1|0:0,0:0:0:0:
90,252,217103,2,0,B|123:279|123:279|178:283|186:225,1,129.600000494385,10|8,0:1|0:0,0:0:0:0:
289,33,217428,5,10,0:1:0:0:
257,27,217509,1,8,0:1:0:0:
225,19,217590,1,8,0:2:0:0:
362,240,217752,5,10,0:1:0:0:
330,246,217833,1,8,0:1:0:0:
299,255,217914,1,8,0:2:0:0:
512,106,218076,6,0,B|488:77|434:71|434:71|402:108|353:100|353:100|399:124|411:179,1,259.20000098877,14|8,0:1|0:1,0:0:0:0:
193,271,218563,5,10,0:0:0:0:
367,339,218725,1,8,0:1:0:0:
167,276,218887,5,10,0:0:0:0:
417,256,219049,1,8,0:1:0:0:
141,281,219211,5,10,0:0:0:0:
413,166,219374,1,10,0:1:0:0:
413,166,219455,1,8,0:1:0:0:
413,166,219536,1,8,0:0:0:0:
329,31,219698,5,10,0:1:0:0:
259,254,219860,1,10,0:0:0:0:
142,66,220022,1,8,0:1:0:0:
35,254,220184,5,14,0:0:0:0:
51,222,220265,1,8,0:0:0:0:
82,201,220347,1,8,0:3:0:0:
119,195,220428,1,8,0:3:0:0:
154,211,220509,1,4,0:3:0:0:
177,240,220590,1,4,0:3:0:0:
214,315,220671,6,0,B|210:333|185:338|185:338|149:268|211:222|243:221,1,194.400000741577,14|0,0:1|0:0,0:0:0:0:
322,186,220995,5,10,0:1:0:0:
460,339,221157,1,14,0:0:0:0:
493,134,221320,1,2,0:0:0:0:
310,67,221482,5,10,0:1:0:0:
243,221,221644,1,8,0:1:0:0:
159,74,221806,1,8,0:0:0:0:
0,254,221968,5,14,0:1:0:0:
157,99,222130,1,2,0:0:0:0:
203,314,222292,1,10,0:1:0:0:
347,189,222455,6,0,B|302:112|391:68|391:68|427:108,1,180,10|0,0:0|0:0,0:0:0:0:
434,162,222779,6,0,B|434:200|458:225|458:225|459:263|411:291,1,139.200004248047,14|0,0:1|0:0,0:0:0:0:
244,128,223103,6,0,P|204:102|156:98,1,96,14|0,0:0|0:0,0:0:0:0:
13,205,223428,6,0,L|178:191,1,153.6,14|0,0:1|0:0,0:0:0:0:
15,100,223914,2,8,P|3:116|-1:134,1,38.4,10|8,0:1|0:1,0:1:0:0:
17,212,224076,2,0,L|182:198,1,153.6,14|0,0:0|0:0,0:0:0:0:
220,253,224563,1,0,0:0:0:0:
311,138,224725,6,0,P|302:106|318:53,1,76.8,10|8,0:1|0:0,0:1:0:0:
437,176,225049,2,0,P|446:212|436:249,1,76.8,2|8,0:0|0:1,0:0:0:0:
395,310,225292,1,8,0:1:0:0:
395,310,225374,2,0,L|290:297,1,76.8,14|8,0:0|0:1,0:0:0:0:
92,172,225698,5,10,0:0:0:0:
0,350,225860,2,0,B|31:348|57:363|57:363|68:320|99:300|136:297|136:297|134:256|173:225,1,249.599988574219,14|8,0:1|0:1,0:0:0:0:
284,143,226347,5,10,0:1:0:0:
230,297,226509,1,8,0:0:0:0:
293,112,226671,1,8,0:0:0:0:
315,336,226833,1,8,0:0:0:0:
302,81,226995,1,8,0:0:0:0:
404,359,227157,1,8,0:0:0:0:
447,141,227320,5,14,0:1:0:0:
315,336,227482,1,8,0:1:0:0:
120,204,227644,1,8,0:1:0:0:
252,9,227806,1,10,0:0:0:0:
359,85,227968,5,8,0:3:0:0:
341,110,228049,1,8,0:3:0:0:
333,140,228130,1,4,0:3:0:0:
337,171,228211,1,4,0:3:0:0:
351,199,228292,1,8,0:3:0:0:
373,220,228374,1,8,0:3:0:0:
402,232,228455,6,0,B|507:204|507:204|452:166,1,153.6,14|8,0:1|0:1,0:0:0:0:
345,114,228941,1,10,0:1:0:0:
345,114,229103,1,8,0:1:0:0:
267,237,229265,1,10,0:0:0:0:
248,164,229428,1,8,0:1:0:0:
76,335,229752,6,0,L|-21:328,1,76.8,10|0,0:1|0:0,0:0:0:0:
127,245,230076,2,0,L|30:238,1,76.8,10|0,0:0|0:0,0:0:0:0:
185,370,230401,1,10,0:1:0:0:
185,370,230482,1,8,0:1:0:0:
185,370,230563,1,8,0:0:0:0:
239,283,230725,1,8,0:1:0:0:
81,123,231049,6,0,L|70:42,1,76.8,10|0,0:1|0:0,0:0:0:0:
177,140,231374,2,0,L|166:59,1,76.8,10|0,0:0|0:0,0:0:0:0:
269,165,231698,1,0,0:1:0:0:
269,165,231779,1,8,0:1:0:0:
269,165,231860,1,8,0:0:0:0:
328,59,232022,1,8,0:1:0:0:
479,294,232347,6,0,B|507:257|507:257|457:134,1,153.6,10|8,0:1|0:0,0:0:0:0:
424,94,232833,1,2,0:0:0:0:
365,222,232995,1,8,0:1:0:0:
365,222,233076,1,8,0:1:0:0:
365,222,233157,1,8,0:0:0:0:
316,34,233320,1,14,0:1:0:0:
154,218,233644,6,0,B|80:262|80:262|-12:225,1,172.799994726563,14|8,0:1|0:1,0:0:0:0:
123,138,234130,1,8,0:1:0:0:
123,138,234292,1,8,0:1:0:0:
204,288,234455,2,0,B|278:332|278:332|370:295,1,172.799994726563,10|0,0:0|0:0,0:0:0:0:
479,172,234941,6,0,L|463:75,1,86.3999973632813,10|0,0:1|0:0,0:1:0:0:
380,210,235265,2,0,L|364:113,1,86.3999973632813,10|0,0:0|0:0,0:0:0:0:
223,173,235590,2,0,P|206:173|177:163,1,43.1999986816407,10|8,0:1|0:1,0:0:0:0:
154,146,235752,2,0,P|161:92|142:50,1,86.3999973632813,10|8,0:0|0:1,0:0:0:0:
0,286,236238,6,0,P|-1:345|12:382,1,96,14|0,0:1|0:0,0:0:0:0:
152,284,236563,1,8,0:3:0:0:
152,284,236644,1,8,0:3:0:0:
152,284,236725,2,0,L|248:273,1,72.0000027465821,4|8,0:3|0:1,0:0:0:0:
333,348,237049,5,8,0:0:0:0:
342,203,237211,1,8,0:1:0:0:
143,304,237536,6,0,B|94:324|94:324|25:272,1,105.600003222656,14|0,0:1|0:0,0:0:0:0:
191,181,237860,1,8,0:0:0:0:
172,162,237941,1,8,0:0:0:0:
158,139,238022,1,8,0:0:0:0:
295,24,238184,1,8,0:3:0:0:
335,229,238347,1,4,0:3:0:0:
164,7,238509,1,14,0:1:0:0:
409,287,238833,6,0,B|453:309|514:283|542:209|447:170|377:242|458:348|525:350,1,288.000010986329,14|4,0:1|0:2,0:0:0:0:
