osu file format v14

[General]
AudioFilename: audio.mp3
AudioLeadIn: 0
PreviewTime: 129657
Countdown: 0
SampleSet: Soft
StackLeniency: 0.7
Mode: 0
LetterboxInBreaks: 0
WidescreenStoryboard: 1

[Editor]
DistanceSpacing: 1
BeatDivisor: 4
GridSize: 32
TimelineZoom: 1.5

[Metadata]
Title:identity
TitleUnicode:identity
Artist:CHiCO with HoneyWorks
ArtistUnicode:CHiCO with HoneyWorks
Creator:Lasse
Version:Normal
Source:
Tags:japanese pop rock 世界はiに満ちている Sekai wa i ni Michiteiru
BeatmapID:2612424
BeatmapSetID:1255260

[Difficulty]
HPDrainRate:4
CircleSize:3.4
OverallDifficulty:5
ApproachRate:6
SliderMultiplier:1
SliderTickRate:1

[Events]
//Background and Video events
0,0,"bg1.jpg",0,0
//Break Periods
2,5519,7999
2,88347,97675
2,156006,162702
2,194887,200972
//Storyboard Layer 0 (Background)
//Storyboard Layer 1 (Fail)
//Storyboard Layer 2 (Pass)
//Storyboard Layer 3 (Foreground)
//Storyboard Layer 4 (Overlay)
//Storyboard Sound Samples

[TimingPoints]
293,324.324324324324,4,2,35,62,1,0
293,-111.111111111111,4,2,35,62,0,0
1752,-111.111111111111,4,2,36,62,0,0
1914,-111.111111111111,4,2,35,62,0,0
2887,-111.111111111111,4,2,35,65,0,0
3374,-111.111111111111,4,2,37,65,0,0
3536,-111.111111111111,4,2,35,65,0,0
4347,-111.111111111111,4,2,36,65,0,0
4509,-111.111111111111,4,2,35,65,0,0
5320,-111.111111111111,4,2,35,56,0,0
10022,-111.111111111111,4,2,36,60,0,0
10184,-111.111111111111,4,2,36,60,0,0
10428,-111.111111111111,4,2,36,5,0,0
10509,-100,4,2,34,70,0,0
10671,-100,4,2,35,70,0,0
15698,-100,4,2,34,70,0,0
15860,-100,4,2,35,70,0,0
20887,-111.111111111111,4,2,35,60,0,0
22022,-111.111111111111,4,2,35,58,0,0
22184,-111.111111111111,4,2,35,56,0,0
22347,-111.111111111111,4,2,35,54,0,0
22509,-111.111111111111,4,2,36,52,0,0
22671,-111.111111111111,4,2,35,50,0,0
22833,-111.111111111111,4,2,36,48,0,0
22995,-111.111111111111,4,2,35,50,0,0
23157,-111.111111111111,4,2,36,52,0,0
23320,-111.111111111111,4,2,36,54,0,0
23482,-111.111111111111,4,2,35,54,0,0
23968,-111.111111111111,4,2,36,54,0,0
24130,-111.111111111111,4,2,35,54,0,0
24617,-111.111111111111,4,2,35,56,0,0
24941,-111.111111111111,4,2,35,58,0,0
25265,-111.111111111111,4,2,35,60,0,0
25590,-111.111111111111,4,2,37,60,0,0
25752,-111.111111111111,4,2,35,62,0,0
26076,-100,4,2,35,65,0,0
31265,-111.111111111111,4,2,35,60,0,0
36292,-111.111111111111,4,2,36,60,0,0
36455,-100,4,2,35,65,0,0
41157,-100,4,2,35,67,0,0
41644,-100,4,2,35,50,0,0
41806,-125,4,2,35,54,0,0
46347,-125,4,2,37,54,0,0
46671,-125,4,2,36,54,0,0
46995,-125,4,2,35,54,0,0
50401,-125,4,2,35,55,0,0
50725,-125,4,2,35,57,0,0
51049,-111.111111111111,4,2,35,60,0,0
51374,-111.111111111111,4,2,37,60,0,0
52022,-111.111111111111,4,2,34,60,0,0
52184,-100,4,2,35,62,0,0
57860,-100,4,2,37,64,0,0
58022,-100,4,2,34,64,0,0
58347,-100,4,2,35,66,0,0
58833,-100,4,2,37,68,0,0
58995,-100,4,2,34,68,0,0
59320,-100,4,2,36,70,0,0
59482,-100,4,2,35,70,0,0
59644,-100,4,2,35,70,0,0
59968,-133.333333333333,4,2,35,30,0,0
61428,-100,4,2,36,65,0,0
62401,-90.9090909090909,4,2,34,72,0,1
62563,-90.9090909090909,4,2,35,72,0,1
69374,-90.9090909090909,4,2,36,72,0,1
69536,-90.9090909090909,4,2,35,72,0,1
70184,-90.9090909090909,4,2,34,72,0,1
70671,-90.9090909090909,4,2,35,72,0,1
72617,-100,4,2,36,72,0,0
72941,-90.9090909090909,4,2,34,72,0,1
73103,-90.9090909090909,4,2,35,72,0,1
79752,-90.9090909090909,4,2,37,72,0,1
79914,-90.9090909090909,4,2,35,72,0,1
80401,-90.9090909090909,4,2,36,72,0,1
80563,-90.9090909090909,4,2,35,72,0,1
82671,-90.9090909090909,4,2,35,70,0,1
82995,-90.9090909090909,4,2,35,68,0,1
83320,-111.111111111111,4,2,35,64,0,0
83968,-111.111111111111,4,2,36,64,0,0
84292,-111.111111111111,4,2,35,64,0,0
85265,-111.111111111111,4,2,37,64,0,0
85428,-111.111111111111,4,2,35,64,0,0
85752,-100,4,2,34,67,0,0
86076,-100,4,2,35,60,0,0
86238,-100,4,2,35,62,0,0
86563,-100,4,2,35,64,0,0
86887,-100,4,2,35,66,0,0
87536,-100,4,2,98,56,0,0
87617,-100,4,2,35,5,0,0
88022,-100,4,2,98,52,0,0
88103,-100,4,2,35,5,0,0
88347,-100,4,2,34,70,0,0
88509,-100,4,2,35,70,0,0
92887,-100,4,2,36,70,0,0
93049,-117.647058823529,4,2,35,70,0,0
93130,-117.647058823529,4,2,35,50,0,0
93211,-117.647058823529,4,2,35,65,0,0
93292,-117.647058823529,4,2,35,50,0,0
93374,-117.647058823529,4,2,35,60,0,0
93455,-117.647058823529,4,2,35,50,0,0
93536,-100,4,2,34,70,0,0
93698,-100,4,2,35,70,0,0
98076,-125,4,2,35,70,0,0
98279,-125,4,2,35,60,0,0
98320,-125,4,2,35,58,0,0
98360,-125,4,2,35,56,0,0
98401,-125,4,2,35,54,0,0
98441,-125,4,2,35,52,0,0
98482,-125,4,2,35,50,0,0
98522,-125,4,2,35,48,0,0
98563,-125,4,2,35,46,0,0
98725,-111.111111111111,4,2,51,60,0,0
101320,-111.111111111111,4,2,35,60,0,0
102617,-111.111111111111,4,2,35,58,0,0
102698,-111.111111111111,4,2,35,5,0,0
102941,-111.111111111111,4,2,35,62,0,0
103022,-111.111111111111,4,2,35,5,0,0
103265,-111.111111111111,4,2,35,64,0,0
103347,-111.111111111111,4,2,35,5,0,0
103590,-142.857142857143,4,2,35,50,0,0
103914,-100,4,2,35,65,0,0
109103,-111.111111111111,4,2,51,60,0,0
114292,-100,4,2,35,65,0,0
118752,-100,4,2,35,40,0,0
118833,-100,4,2,35,65,0,0
119076,-100,4,2,35,40,0,0
119157,-100,4,2,35,65,0,0
119401,-100,4,2,35,40,0,0
119482,-100,4,2,35,60,0,0
119644,-100,4,2,35,65,0,0
124833,-100,4,2,35,62,0,0
125320,-100,4,2,37,64,0,0
125482,-100,4,2,34,64,0,0
125806,-100,4,2,35,66,0,0
126292,-100,4,2,37,68,0,0
126455,-100,4,2,34,68,0,0
126779,-100,4,2,36,70,0,0
126941,-100,4,2,35,70,0,0
127103,-133.333333333333,4,2,35,70,0,0
127428,-133.333333333333,4,2,35,30,0,0
128887,-100,4,2,36,65,0,0
129860,-90.9090909090909,4,2,34,72,0,1
130022,-90.9090909090909,4,2,35,72,0,1
137644,-90.9090909090909,4,2,34,72,0,1
138130,-90.9090909090909,4,2,35,72,0,1
140076,-100,4,2,36,72,0,0
140401,-90.9090909090909,4,2,34,72,0,1
140563,-90.9090909090909,4,2,35,72,0,1
147211,-90.9090909090909,4,2,37,72,0,1
147373,-90.9090909090909,4,2,35,72,0,1
147860,-90.9090909090909,4,2,36,72,0,1
148022,-90.9090909090909,4,2,34,72,0,1
149320,-90.9090909090909,4,2,35,72,0,1
150130,-90.9090909090909,4,2,34,72,0,1
150374,-90.9090909090909,4,2,36,32,0,1
150455,-90.9090909090909,4,2,37,60,0,1
150779,-111.111111111111,4,2,35,64,0,0
151428,-111.111111111111,4,2,36,64,0,0
151752,-111.111111111111,4,2,35,64,0,0
152725,-111.111111111111,4,2,37,64,0,0
152887,-111.111111111111,4,2,35,64,0,0
153211,-100,4,2,34,67,0,0
153536,-100,4,2,35,60,0,0
153698,-100,4,2,35,62,0,0
154022,-100,4,2,35,64,0,0
154347,-100,4,2,35,66,0,0
155157,-100,4,2,36,64,0,0
155806,-100,4,2,35,56,0,0
155887,-384.615384615385,4,2,35,5,0,0
160995,-384.615384615385,4,2,98,20,0,0
163752,-100,4,2,35,70,0,0
164887,-100,4,2,35,65,0,0
165049,-100,4,2,35,68,0,0
166184,-90.9090909090909,4,2,38,72,0,0
166509,-90.9090909090909,4,2,35,72,0,0
166671,-90.9090909090909,4,2,36,72,0,0
166995,-90.9090909090909,4,2,35,72,0,0
167157,-90.9090909090909,4,2,38,72,0,0
167320,-90.9090909090909,4,2,35,72,0,0
167644,-90.9090909090909,4,2,38,72,0,0
167806,-90.9090909090909,4,2,35,72,0,0
168779,-90.9090909090909,4,2,39,72,0,0
169103,-90.9090909090909,4,2,35,72,0,0
169265,-90.9090909090909,4,2,36,72,0,0
169590,-90.9090909090909,4,2,35,72,0,0
176238,-90.9090909090909,4,2,35,70,0,0
176401,-90.9090909090909,4,2,36,68,0,0
176563,-90.9090909090909,4,2,34,70,0,0
176887,-90.9090909090909,4,2,35,70,0,0
181914,-90.9090909090909,4,2,35,72,0,0
183211,-90.9090909090909,4,2,35,72,0,0
184509,-90.9090909090909,4,2,35,72,0,0
185806,-90.9090909090909,4,2,35,72,0,0
187103,-100,4,2,35,72,0,0
187428,-100,4,2,35,64,0,0
190995,-100,4,2,35,65,0,0
192292,-100,4,2,35,66,0,0
192779,-100,4,2,37,67,0,0
192941,-100,4,2,34,67,0,0
193265,-100,4,2,35,68,0,0
193752,-100,4,2,37,69,0,0
193914,-100,4,2,34,69,0,0
194238,-100,4,2,36,70,0,0
194401,-100,4,2,35,70,0,0
194887,-100,4,2,35,30,0,0
196346,-100,4,2,36,65,0,0
197482,-200,4,2,35,40,0,0
202022,-100,4,2,36,68,0,0
202509,-90.9090909090909,4,2,34,75,0,1
202671,-90.9090909090909,4,2,35,75,0,1
209482,-90.9090909090909,4,2,37,75,0,1
209644,-90.9090909090909,4,2,35,75,0,1
210130,-90.9090909090909,4,2,36,75,0,1
210292,-90.9090909090909,4,2,34,75,0,1
210617,-90.9090909090909,4,2,35,75,0,1
211995,-90.9090909090909,4,2,35,68,0,1
212076,-90.9090909090909,4,2,35,75,0,1
212157,-90.9090909090909,4,2,35,68,0,1
212238,-90.9090909090909,4,2,35,75,0,1
212725,-100,4,2,36,75,0,0
213049,-90.9090909090909,4,2,34,75,0,1
213211,-90.9090909090909,4,2,35,75,0,1
220184,-90.9090909090909,4,2,37,75,0,1
220265,-90.9090909090909,4,2,35,75,0,1
220671,-90.9090909090909,4,2,34,75,0,1
220995,-90.9090909090909,4,2,35,75,0,1
221157,-90.9090909090909,4,2,37,75,0,1
221320,-90.9090909090909,4,2,35,75,0,1
222779,-90.9090909090909,4,2,34,75,0,1
222941,-90.9090909090909,4,2,34,68,0,1
223103,-90.9090909090909,4,2,36,70,0,1
223265,-90.9090909090909,4,2,36,60,0,1
223428,-111.111111111111,4,2,35,64,0,0
224076,-111.111111111111,4,2,37,64,0,0
224401,-111.111111111111,4,2,35,64,0,0
225698,-111.111111111111,4,2,35,66,0,0
225860,-100,4,2,34,68,0,0
226184,-100,4,2,34,64,0,0
226347,-100,4,2,34,66,0,0
226671,-100,4,2,34,68,0,0
226995,-100,4,2,34,70,0,0
227320,-100,4,2,35,72,0,0
227968,-100,4,2,35,70,0,0
228049,-100,4,2,35,69,0,0
228130,-100,4,2,35,68,0,0
228211,-100,4,2,35,67,0,0
228292,-100,4,2,36,66,0,0
228374,-100,4,2,36,65,0,0
228455,-111.111111111111,4,2,35,64,0,0
228779,-111.111111111111,4,2,35,62,0,0
233320,-111.111111111111,4,2,37,62,0,0
233644,-111.111111111111,4,2,35,64,0,0
236238,-100,4,2,34,65,0,0
236401,-100,4,2,34,54,0,0
236563,-100,4,2,35,60,0,0
237536,-100,4,2,35,62,0,0
238509,-100,4,2,37,62,0,0
238833,-116.279069767442,4,2,35,64,0,0
238914,-133.333333333333,4,2,35,5,0,0
239482,-133.333333333333,4,2,98,20,0,0

[Colours]
Combo1 : 250,180,240
Combo2 : 120,200,230
Combo3 : 255,230,130
Combo4 : 160,230,150

[HitObjects]
1,214,293,6,0,P|46:186|100:192,1,89.999997253418,8|8,0:0|0:1,0:0:0:0:
121,206,779,1,8,0:3:0:0:
242,148,1265,2,0,L|254:56,1,89.999997253418,4|8,0:3|0:1,0:0:0:0:
295,41,1752,1,8,0:3:0:0:
428,57,2238,2,0,P|446:117|437:147,1,89.999997253418,8|4,0:3|0:3,0:0:0:0:
364,206,2887,6,0,P|331:195|275:195,1,89.999997253418,12|8,0:0|0:1,0:0:0:0:
236,216,3374,1,12,0:0:0:0:
298,335,3860,2,0,P|342:336|385:323,1,89.999997253418,12|8,0:0|0:1,0:0:0:0:
427,306,4347,1,12,0:0:0:0:
507,197,4833,2,0,L|495:144,1,44.999998626709,8|8,2:2|0:1,0:0:0:0:
466,119,5157,2,0,L|454:66,1,44.999998626709,8|14,2:2|0:1,0:0:0:0:
16,365,9049,6,0,L|29:303,1,44.999998626709,8|8,0:0|0:1,0:0:0:0:
62,140,10022,5,10,0:1:0:0:
62,140,10184,1,10,0:1:0:0:
139,202,10509,6,0,P|190:208|230:165,1,100,14|8,0:1|0:1,0:1:0:0:
260,142,10995,1,10,0:0:0:0:
322,63,11320,1,10,0:1:0:0:
322,63,11482,1,10,0:1:0:0:
411,106,11806,2,0,P|437:145|439:204,1,100,10|10,0:1|0:1,0:0:0:0:
409,292,12455,1,2,0:0:0:0:
409,292,12617,2,0,L|297:303,1,100,8|8,0:1|0:0,0:0:0:0:
284,345,13103,6,0,L|179:331,1,100,10|8,0:1|0:1,0:0:0:0:
148,366,13590,1,10,0:0:0:0:
56,340,13914,1,10,0:1:0:0:
56,340,14076,1,8,0:1:0:0:
95,247,14401,2,0,B|105:217|105:217|101:189|101:189|119:134,1,100,10|10,0:1|0:1,0:0:0:0:
214,130,15049,1,10,0:1:0:0:
214,130,15211,2,0,B|223:170|251:184|251:184|289:174,1,100,8|8,0:0|0:0,0:0:0:0:
331,167,15698,6,0,P|346:112|322:55,1,100,14|8,0:1|0:1,0:0:0:0:
303,32,16184,1,10,0:0:0:0:
208,17,16509,1,10,0:1:0:0:
208,17,16671,1,8,0:1:0:0:
130,79,16995,2,0,P|118:126|133:174,1,100,10|10,0:1|0:1,0:0:0:0:
208,240,17644,1,2,0:0:0:0:
207,240,17806,2,0,P|255:223|304:227,1,100,10|8,0:1|0:2,0:0:0:0:
344,257,18292,6,0,P|338:307|362:364,1,100,10|8,0:1|0:1,0:0:0:0:
397,378,18779,1,10,0:0:0:0:
489,339,19103,1,10,0:1:0:0:
489,339,19265,1,8,0:1:0:0:
474,239,19590,2,0,L|462:134,1,100,10|10,0:1|0:1,0:0:0:0:
392,76,20238,1,10,0:1:0:0:
392,76,20401,2,0,P|363:107|306:96,1,100,8|8,0:0|0:0,0:0:0:0:
272,73,20887,6,0,B|245:57|245:57|177:73,1,89.9999972534181,14|8,0:1|0:1,0:0:0:0:
145,87,21374,1,10,0:0:0:0:
90,158,21698,1,0,0:0:0:0:
130,238,22022,2,0,P|141:281|128:328,2,89.9999972534181,8|4|2,0:1|0:3|0:2,0:0:0:0:
111,196,22833,1,4,0:3:0:0:
42,137,23157,1,8,0:3:0:0:
84,57,23482,6,0,P|121:40|178:45,1,89.9999972534181,14|8,0:1|0:1,0:0:0:0:
209,61,23968,2,0,P|246:78|303:73,1,89.9999972534181,14|2,0:0|0:0,0:0:0:0:
384,52,24617,1,8,0:0:0:0:
384,52,24779,2,0,B|411:70|411:70|418:140,1,89.9999972534181,8|8,0:1|0:1,0:0:0:0:
434,215,25428,1,8,0:1:0:0:
446,304,25752,1,8,0:1:0:0:
360,356,26076,6,0,P|313:342|253:344,1,100,14|8,0:1|0:1,0:0:0:0:
212,347,26563,2,0,P|162:356|113:351,1,100,10|8,0:0|0:1,0:0:0:0:
68,329,27049,2,0,L|51:271,1,50,10|10,0:1|0:0,0:0:0:0:
93,189,27536,2,0,P|148:172|206:172,1,100,2|8,0:0|0:0,0:0:0:0:
229,201,28022,1,2,0:0:0:0:
318,245,28347,1,10,0:1:0:0:
401,189,28671,6,0,B|419:156|419:156|400:80,1,100,10|8,0:1|0:1,0:1:0:0:
373,56,29157,2,0,B|339:51|339:51|321:68|321:68|259:70,1,100,10|8,0:0|0:1,0:0:0:0:
229,66,29644,2,0,P|223:37|208:5,1,50,10|10,0:1|0:0,0:0:0:0:
115,23,30130,2,0,P|96:57|97:126,1,100,2|8,0:0|0:0,0:0:0:0:
109,164,30617,1,2,0:0:0:0:
201,202,30941,1,10,0:1:0:0:
291,157,31265,6,0,P|345:142|386:150,1,89.9999972534181,14|8,0:1|0:1,0:0:0:0:
419,164,31752,1,10,0:0:0:0:
464,241,32076,1,8,0:1:0:0:
405,309,32401,2,0,L|304:322,2,89.9999972534181,10|10|8,0:0|0:1|0:0,0:0:0:0:
440,336,33211,1,10,0:1:0:0:
500,269,33536,1,10,0:1:0:0:
499,179,33860,6,0,L|469:80,1,89.9999972534181,2|8,0:0|0:1,0:1:0:0:
456,50,34347,1,10,0:0:0:0:
369,25,34671,1,10,0:1:0:0:
303,86,34995,1,10,0:0:0:0:
303,86,35157,2,0,L|292:179,1,89.9999972534181,2|10,0:0|0:1,0:0:0:0:
267,262,35806,1,10,0:1:0:0:
170,283,36130,1,4,0:3:0:0:
89,223,36455,6,0,L|73:112,1,100,14|0,0:1|0:1,0:0:0:0:
95,78,36941,2,0,B|137:52|137:52|191:60,1,100,10|8,0:0|0:1,0:0:0:0:
228,88,37428,2,0,L|239:148,1,50,10|10,0:1|0:0,0:0:0:0:
291,220,37914,2,0,B|335:242|335:242|388:223,1,100,2|8,0:0|0:0,0:0:0:0:
424,196,38401,1,2,0:0:0:0:
468,106,38725,1,10,0:1:0:0:
393,33,39049,6,0,L|290:26,1,100,10|8,0:1|0:1,0:0:0:0:
255,59,39536,2,0,B|247:93|247:93|254:121|254:121|243:168,1,100,10|8,0:0|0:1,0:0:0:0:
233,204,40022,2,0,L|218:259,1,50,10|10,0:1|0:0,0:0:0:0:
163,336,40509,1,2,0:0:0:0:
163,336,40671,2,0,B|113:356|113:356|52:329,1,100,8|0,0:1|0:0,0:0:0:0:
32,305,41157,2,0,L|45:250,1,50,10|14,0:0|0:1,0:0:0:0:
110,138,41806,6,0,B|59:151|59:151|25:130|24:82,2,120,14|8|8,0:1|0:3|0:0,0:0:0:0:
313,214,43752,1,8,0:3:0:0:
327,135,44076,1,4,0:3:0:0:
353,59,44401,6,0,B|404:46|404:46|438:67|439:115,2,120,14|8|8,0:1|0:0|0:0,0:0:0:0:
280,297,46347,1,12,0:2:0:0:
211,337,46671,1,8,0:3:0:0:
138,303,46995,6,0,P|118:220|183:79,1,240,10|8,0:1|0:0,0:0:0:0:
253,54,48292,2,0,P|285:72|372:56,2,120,2|8|4,0:0|0:1|0:3,0:0:0:0:
172,60,49590,2,0,P|140:42|53:58,2,120,14|8|8,0:1|0:0|0:0,0:0:0:0:
230,131,50887,5,8,0:0:0:0:
274,137,51049,1,14,0:1:0:0:
307,236,51374,1,14,0:1:0:0:
245,325,51698,2,0,B|203:342|203:342|151:314,1,89.9999972534181,14|8,0:1|0:0,0:0:0:0:
119,297,52184,6,0,B|111:270|111:270|114:239|114:239|101:196,1,100,14|10,0:1|0:0,0:0:0:0:
65,106,52833,1,10,0:1:0:0:
136,35,53157,1,10,0:0:0:0:
229,71,53482,2,0,P|302:84|335:67,1,100,10|10,0:1|0:0,0:0:0:0:
419,46,54130,2,0,P|464:45|500:99,1,100,8|10,0:1|0:0,0:0:0:0:
509,137,54617,5,2,0:0:0:0:
509,137,54779,2,0,L|493:237,2,100,12|10|0,0:1|0:0|0:0,0:0:0:0:
440,64,55752,1,10,0:0:0:0:
356,118,56076,1,10,0:1:0:0:
274,59,56401,1,10,0:0:0:0:
193,118,56725,1,10,0:1:0:0:
111,60,57049,1,10,0:0:0:0:
28,127,57374,6,0,P|10:184|17:237,1,100,14|8,0:0|0:1,0:0:0:0:
32,269,57860,2,0,L|143:258,1,100,14|8,0:0|0:1,0:0:0:0:
164,296,58347,2,0,L|275:307,1,100,14|8,0:0|0:1,0:0:0:0:
304,334,58833,2,0,L|415:323,1,100,14|8,0:0|0:1,0:0:0:0:
451,310,59320,6,0,L|459:254,2,50,14|10|14,0:0|0:1|0:2,0:0:0:0:
486,228,61428,6,0,L|473:172,1,50,10|10,0:1|0:1,0:0:0:0:
375,164,61914,2,0,L|362:108,1,50,10|10,0:1|0:1,0:0:0:0:
282,41,62401,6,0,P|232:30|178:51,1,110.000003356934,14|8,0:1|0:1,0:0:0:0:
135,84,62887,1,10,0:0:0:0:
102,189,63211,1,10,0:1:0:0:
186,268,63536,1,10,0:0:0:0:
186,268,63698,2,0,P|242:277|290:258,1,110.000003356934,10|10,0:1|0:1,0:0:0:0:
377,189,64347,1,10,0:1:0:0:
475,236,64671,1,10,0:1:0:0:
445,341,64995,2,0,B|397:370|397:370|339:347,1,110.000003356934,10|10,0:1|0:1,0:0:0:0:
264,266,65644,5,10,0:1:0:0:
264,266,65806,2,0,L|249:149,1,110.000003356934,10|8,0:1|0:0,0:0:0:0:
245,102,66292,1,10,0:1:0:0:
174,17,66617,1,10,0:1:0:0:
65,33,66941,1,10,0:1:0:0:
32,138,67265,1,10,0:1:0:0:
107,218,67590,2,0,L|237:195,1,110.000003356934,14|8,0:1|0:1,0:0:0:0:
262,170,68076,5,10,0:0:0:0:
345,241,68401,1,10,0:0:0:0:
287,336,68725,1,10,0:0:0:0:
287,336,68887,2,0,B|233:360|233:360|174:350,1,110.000003356934,10|8,0:1|0:1,0:0:0:0:
129,335,69374,1,14,0:0:0:0:
49,258,69698,2,0,L|68:134,1,110.000003356934,10|4,0:0|0:3,0:0:0:0:
100,106,70184,2,0,B|146:99|146:99|163:109|163:109|226:104,1,110.000003356934,14|8,0:1|0:1,0:0:0:0:
260,116,70671,6,0,P|260:57|322:32,1,110.000003356934,10|10,0:0|0:1,0:0:0:0:
406,51,71320,1,8,0:0:0:0:
406,51,71482,2,0,L|416:174,1,110.000003356934,14|10,0:1|0:1,0:0:0:0:
417,215,71968,1,10,0:0:0:0:
487,299,72292,1,8,0:0:0:0:
420,374,72617,1,12,0:0:0:0:
340,298,72941,6,0,B|306:293|306:293|277:303|277:303|220:295,1,110.000003356934,14|10,0:1|0:0,0:0:0:0:
188,262,73428,1,10,0:1:0:0:
188,262,73590,2,0,L|181:140,1,110.000003356934,10|10,0:1|0:0,0:0:0:0:
174,97,74076,1,10,0:1:0:0:
105,10,74401,1,10,0:1:0:0:
6,59,74725,1,10,0:1:0:0:
5,168,75049,1,10,0:1:0:0:
101,217,75374,2,0,L|220:197,1,110.000003356934,10|10,0:1|0:1,0:0:0:0:
305,145,76022,5,10,0:1:0:0:
305,145,76184,2,0,P|293:90|329:40,1,110.000003356934,10|8,0:1|0:0,0:0:0:0:
365,16,76671,1,10,0:1:0:0:
470,45,76995,1,10,0:1:0:0:
479,154,77320,1,10,0:1:0:0:
387,211,77644,1,10,0:1:0:0:
283,175,77968,2,0,P|237:154|172:164,1,110.000003356934,14|8,0:1|0:1,0:0:0:0:
130,185,78455,5,10,0:0:0:0:
86,286,78779,1,10,0:0:0:0:
177,355,79103,1,10,0:0:0:0:
177,355,79265,2,0,P|230:362|280:340,1,110.000003356934,10|10,0:1|0:1,0:0:0:0:
323,305,79752,1,14,0:0:0:0:
340,196,80076,2,0,B|348:156|348:156|342:134|342:134|347:69,1,110.000003356934,8|8,0:3|0:3,0:0:0:0:
380,44,80563,6,0,B|414:23|452:27|452:27|484:69,1,110.000003356934,14|10,0:1|0:1,0:1:0:0:
503,100,81049,1,10,0:0:0:0:
499,210,81374,2,0,L|482:335,1,110.000003356934,10|8,0:1|0:0,0:0:0:0:
443,355,81860,1,10,0:1:0:0:
443,355,82022,2,0,P|378:359|329:321,1,110.000003356934,2|10,0:0|0:0,0:0:0:0:
276,247,82671,1,10,0:0:0:0:
323,148,82995,1,6,0:3:0:0:
268,62,83320,6,0,B|238:90|189:93|189:93|161:59|136:51,1,134.999995880127,14|10,0:1|0:1,0:0:0:0:
109,65,83968,2,0,P|88:100|86:159,1,89.9999972534181,14|0,0:0|0:0,0:0:0:0:
149,209,84617,2,0,L|240:197,1,89.9999972534181,10|0,0:1|0:0,0:0:0:0:
316,153,85265,2,0,L|407:141,1,89.9999972534181,14|10,0:0|0:0,0:0:0:0:
446,169,85752,6,0,P|472:223|467:273,1,100,14|0,0:1|0:0,0:0:0:0:
453,308,86238,1,8,0:1:0:0:
375,371,86563,1,8,0:0:0:0:
296,309,86887,1,8,0:0:0:0:
216,369,87211,1,14,0:1:0:0:
0,343,98725,6,0,P|30:350|100:332,1,89.9999972534181,14|8,0:1|0:1,0:0:0:0:
118,306,99211,2,0,P|112:264|133:214,1,89.9999972534181,2|8,0:0|0:1,0:0:0:0:
199,164,99860,1,10,0:0:0:0:
272,215,100184,2,0,B|313:231|313:231|364:213,1,89.9999972534181,2|10,0:0|0:1,0:0:0:0:
397,196,100671,1,10,0:1:0:0:
457,129,100995,1,8,0:1:0:0:
411,50,101320,1,14,0:1:0:0:
101,19,102455,5,10,0:0:0:0:
101,19,102617,2,2,L|84:118,1,89.9999972534181,10|10,1:1|1:1,2:1:0:0:
70,196,103265,2,2,L|53:295,1,89.9999972534181,10|0,1:1|0:0,2:1:0:0:
129,350,103914,6,0,P|176:336|237:346,1,100,14|8,0:1|0:1,0:0:0:0:
272,360,104401,2,0,P|321:365|368:351,1,100,10|8,0:0|0:1,0:0:0:0:
416,320,104887,2,0,L|426:254,1,50,10|10,0:1|0:0,0:0:0:0:
352,200,105374,2,0,P|303:195|256:209,1,100,2|8,0:0|0:2,0:0:0:0:
224,249,105860,1,10,0:1:0:0:
127,276,106184,1,10,0:1:0:0:
36,232,106509,6,0,B|17:206|17:206|14:167|37:123,1,100,10|8,0:1|0:1,0:0:0:0:
65,105,106995,2,0,B|182:93,1,100,10|8,0:0|0:1,0:0:0:0:
205,123,107482,2,0,L|262:133,1,50,10|10,0:1|0:0,0:0:0:0:
353,118,107968,2,0,B|347:72|347:72|372:21,1,100,2|8,0:0|0:0,0:0:0:0:
419,12,108455,1,10,0:1:0:0:
507,57,108779,1,10,0:1:0:0:
510,158,109103,6,0,L|497:255,1,89.9999972534181,14|8,0:1|0:1,0:0:0:0:
492,292,109590,2,0,P|456:314|400:293,1,89.9999972534181,2|10,0:0|0:1,0:0:0:0:
329,267,110238,1,10,0:0:0:0:
358,181,110563,2,0,P|363:140|338:87,1,89.9999972534181,2|8,0:0|0:1,0:0:0:0:
319,58,111049,1,10,0:1:0:0:
233,29,111374,1,10,0:1:0:0:
159,81,111698,6,0,P|141:122|146:166,1,89.9999972534181,10|8,0:1|0:1,0:0:0:0:
170,204,112184,2,0,P|217:194|263:201,1,89.9999972534181,2|10,0:0|0:1,0:0:0:0:
329,263,112833,1,2,0:0:0:0:
329,263,112995,2,0,B|344:309|344:309|325:363,1,89.9999972534181,10|10,0:1|0:1,0:0:0:0:
240,339,113644,1,8,0:1:0:0:
157,375,113968,1,8,0:1:0:0:
68,328,114292,6,0,P|55:277|75:216,1,100,14|8,0:1|0:1,0:0:0:0:
99,194,114779,2,0,B|136:189|136:189|152:197|152:197|204:191,1,100,10|8,0:0|0:1,0:0:0:0:
234,224,115265,2,0,L|297:228,1,50,10|10,0:1|0:0,0:0:0:0:
354,297,115752,2,0,B|402:315|402:315|459:291,1,100,2|8,0:0|0:0,0:0:0:0:
486,266,116238,1,10,0:1:0:0:
508,168,116563,1,10,0:1:0:0:
435,93,116887,6,0,B|403:88|403:88|385:101|385:101|326:92,1,100,10|8,0:1|0:1,0:0:0:0:
292,109,117374,2,0,B|260:104|260:104|242:117|242:117|183:108,1,100,10|8,0:0|0:1,0:0:0:0:
149,124,117860,1,10,0:1:0:0:
149,124,118022,2,0,P|122:155|129:224,1,100,8|8,0:0|0:0,0:0:0:0:
157,247,118509,5,14,0:1:0:0:
252,217,118833,1,14,0:1:0:0:
344,254,119157,2,0,P|376:273|437:264,1,100,14|8,0:1|0:0,0:0:0:0:
471,229,119644,6,0,B|464:201|464:201|465:205|472:168|472:174|472:174|460:126,1,100,14|8,0:1|0:0,0:1:0:0:
432,38,120292,1,10,0:1:0:0:
332,39,120617,1,10,0:0:0:0:
285,126,120941,2,0,B|276:163|276:163|283:182|283:182|271:236,1,100,10|10,0:1|0:0,0:0:0:0:
212,301,121590,2,0,P|148:315|108:290,1,100,10|10,0:1|0:0,0:0:0:0:
83,274,122076,5,10,0:0:0:0:
83,274,122238,2,0,L|73:165,2,100,12|10|0,0:1|0:0|0:0,0:0:0:0:
139,357,123211,1,10,0:0:0:0:
209,285,123536,1,10,0:1:0:0:
270,364,123860,1,10,0:0:0:0:
340,293,124184,1,10,0:1:0:0:
409,365,124509,1,10,0:0:0:0:
485,292,124833,6,0,P|494:251|482:193,1,100,14|8,0:0|0:1,0:0:0:0:
448,157,125320,2,0,B|403:172|403:172|347:153,1,100,14|8,0:0|0:1,0:0:0:0:
304,168,125806,2,0,B|259:153|259:153|203:172,1,100,14|8,0:0|0:1,0:0:0:0:
166,196,126292,2,0,B|121:211|121:211|65:192,1,100,14|8,0:0|0:1,0:0:0:0:
31,163,126779,6,0,L|21:109,2,50,14|10|14,0:0|0:1|0:2,0:0:0:0:
0,55,128887,6,0,L|56:47,1,50,10|10,0:1|0:1,0:0:0:0:
122,116,129374,2,0,L|178:108,1,50,10|10,0:1|0:1,0:0:0:0:
276,53,129860,6,0,B|324:28|324:28|383:43,1,110.000003356934,14|8,0:1|0:1,0:0:0:0:
430,59,130347,1,10,0:0:0:0:
470,161,130671,1,10,0:1:0:0:
413,256,130995,1,10,0:0:0:0:
413,256,131157,2,0,B|363:282|363:282|310:271,1,110.000003356934,10|10,0:1|0:1,0:0:0:0:
204,243,131806,1,10,0:1:0:0:
234,137,132130,1,10,0:1:0:0:
171,45,132455,2,0,P|128:25|64:37,1,110.000003356934,10|10,0:1|0:1,0:0:0:0:
16,133,133103,5,10,0:1:0:0:
16,133,133265,2,0,L|26:250,1,110.000003356934,10|8,0:1|0:0,0:0:0:0:
30,297,133752,1,10,0:1:0:0:
125,351,134076,1,10,0:1:0:0:
230,318,134401,1,10,0:1:0:0:
327,367,134725,1,10,0:1:0:0:
422,311,135049,2,0,P|440:274|424:196,1,110.000003356934,14|8,0:1|0:1,0:0:0:0:
406,157,135536,5,10,0:0:0:0:
296,143,135860,1,10,0:0:0:0:
236,237,136184,1,10,0:0:0:0:
236,237,136347,2,0,B|226:275|226:275|235:306|235:306|219:351,1,110.000003356934,10|8,0:1|0:1,0:0:0:0:
177,374,136833,1,10,0:0:0:0:
78,327,137157,2,0,B|68:289|68:289|77:258|77:258|67:214,1,110.000003356934,8|4,0:0|0:3,0:0:0:0:
23,186,137644,2,0,L|44:70,1,110.000003356934,14|8,0:1|0:1,0:0:0:0:
95,64,138130,6,0,P|143:90|194:76,1,110.000003356934,10|10,0:0|0:1,0:0:0:0:
297,31,138779,1,8,0:0:0:0:
297,31,138941,2,0,P|348:16|395:42,1,110.000003356934,14|8,0:1|0:0,0:0:0:0:
427,86,139428,1,10,0:0:0:0:
462,189,139752,1,14,0:0:0:0:
401,268,140076,1,14,0:0:0:0:
300,223,140401,5,14,0:1:0:0:
300,223,140563,2,0,L|284:94,1,110.000003356934,2|8,0:1|0:1,0:0:0:0:
258,66,141049,2,0,P|210:46|149:61,1,110.000003356934,10|10,0:1|0:0,0:0:0:0:
105,81,141536,1,10,0:1:0:0:
20,151,141860,1,10,0:1:0:0:
14,260,142184,1,10,0:1:0:0:
94,334,142509,1,10,0:1:0:0:
203,345,142833,2,0,L|322:329,1,110.000003356934,10|10,0:1|0:1,0:0:0:0:
429,360,143482,5,10,0:1:0:0:
429,360,143644,2,0,P|444:307|418:249,1,110.000003356934,10|8,0:1|0:0,0:0:0:0:
386,217,144130,1,10,0:1:0:0:
313,299,144455,1,10,0:1:0:0:
203,285,144779,1,10,0:1:0:0:
156,185,145103,1,8,0:1:0:0:
212,90,145428,2,0,L|325:75,1,110.000003356934,14|8,0:1|0:1,0:0:0:0:
366,44,145914,5,10,0:0:0:0:
455,107,146238,1,10,0:0:0:0:
399,203,146563,1,10,0:0:0:0:
399,203,146725,2,0,B|344:219|344:219|286:188,1,110.000003356934,10|8,0:1|0:1,0:0:0:0:
248,169,147211,1,14,0:0:0:0:
154,110,147536,2,0,B|107:85|107:85|52:101,1,110.000003356934,8|8,0:3|0:3,0:0:0:0:
9,135,148022,6,0,L|26:250,1,110.000003356934,14|10,0:1|0:1,0:0:0:0:
6,295,148509,1,10,0:0:0:0:
92,362,148833,2,0,L|204:340,1,110.000003356934,10|8,0:1|0:0,0:0:0:0:
256,360,149320,1,14,0:1:0:0:
256,360,149482,2,0,B|266:318|266:318|260:299|260:299|272:251,1,110.000003356934,2|10,0:0|0:0,0:0:0:0:
295,146,150130,1,14,0:0:0:0:
395,101,150455,1,14,0:1:0:0:
477,174,150779,6,0,B|496:228|485:287|485:287|464:300,1,134.999995880127,14|8,0:1|0:1,0:0:0:0:
428,320,151428,2,0,P|388:301|335:303,1,89.9999972534181,14|0,0:0|0:0,0:0:0:0:
268,350,152076,2,0,P|228:369|175:367,1,89.9999972534181,10|2,0:1|0:0,0:0:0:0:
105,323,152725,2,0,L|89:222,1,89.9999972534181,12|8,0:0|0:0,0:0:0:0:
60,194,153211,6,0,L|70:86,1,100,14|8,0:1|0:1,0:0:0:0:
101,56,153698,1,8,0:0:0:0:
179,117,154022,1,8,0:0:0:0:
253,50,154347,1,8,0:0:0:0:
333,108,154671,2,0,B|382:124|382:124|443:94,1,100,14|8,0:0|0:1,0:0:0:0:
456,63,155157,1,14,0:0:0:0:
508,241,155806,5,14,0:1:0:0:
145,291,163752,6,0,P|100:284|-10:314,2,150,12|14|10,0:0|0:0|0:0,0:0:0:0:
187,317,164887,1,10,0:1:0:0:
271,370,165211,1,10,2:3:0:0:
347,305,165536,2,0,L|354:247,1,50,10|8,2:1|2:0,0:0:0:0:
444,203,166022,5,8,0:0:0:0:
444,203,166184,2,0,P|457:154|426:82,1,110.000003356934,14|8,0:1|0:1,0:1:0:0:
407,53,166671,2,0,L|272:40,1,110.000003356934,10|8,0:1|0:1,0:1:0:0:
266,87,167157,2,0,L|186:99,1,55.0000016784668,10|8,0:1|0:0,0:0:0:0:
116,39,167644,2,0,L|-19:26,2,110.000003356934,10|8|8,0:1|0:0|0:1,0:0:0:0:
196,113,168617,5,8,0:0:0:0:
196,113,168779,2,0,P|185:175|210:221,1,110.000003356934,14|8,0:1|0:1,0:1:0:0:
251,243,169265,2,0,P|299:212|370:221,2,110.000003356934,10|8|8,0:0|0:1|0:0,0:1:0:0:
239,296,170076,2,0,B|232:346|195:359|195:359|144:345,1,110.000003356934,10|8,0:1|0:1,0:1:0:0:
113,338,170563,1,10,0:0:0:0:
9,300,170887,1,10,0:0:0:0:
44,196,171211,5,8,0:0:0:0:
44,196,171374,2,2,B|59:168|59:168|57:137|57:137|84:73,1,110.000003356934,14|10,0:1|0:1,0:1:0:0:
108,50,171860,1,10,0:2:0:0:
197,114,172184,1,10,0:1:0:0:
288,50,172509,1,10,0:0:0:0:
288,50,172671,2,2,P|331:31|399:54,1,110.000003356934,10|10,0:1|0:1,0:1:0:0:
435,77,173157,1,10,0:0:0:0:
485,175,173482,1,10,0:1:0:0:
428,269,173806,5,10,0:0:0:0:
428,269,173968,2,2,P|385:251|312:258,1,110.000003356934,14|8,0:1|0:1,0:1:0:0:
273,278,174455,1,10,0:0:0:0:
187,208,174779,2,0,B|177:171|177:171|185:141|185:141|174:82,1,110.000003356934,10|10,0:1|0:0,0:0:0:0:
165,47,175265,2,0,B|140:33|111:28|111:28|80:31|43:49,1,110.000003356934,10|10,0:1|0:1,0:1:0:0:
29,87,175752,2,0,L|38:217,1,110.000003356934,14|10,0:0|0:3,0:0:0:0:
81,346,176563,6,2,P|133:327|187:331,1,110.000003356934,14|8,0:1|0:1,0:1:0:0:
233,359,177049,1,10,0:2:0:0:
306,277,177374,1,10,0:1:0:0:
306,277,177536,1,10,0:1:0:0:
221,206,177860,2,2,P|203:147|216:90,1,110.000003356934,10|10,0:1|0:1,0:1:0:0:
282,16,178509,1,10,0:1:0:0:
391,17,178833,1,10,0:1:0:0:
461,101,179157,6,2,P|468:154|451:206,1,110.000003356934,10|10,0:1|0:1,0:1:0:0:
420,252,179644,1,10,0:0:0:0:
319,290,179968,1,10,0:1:0:0:
319,290,180130,1,10,0:1:0:0:
249,204,180455,2,2,B|238:172|238:172|244:132|244:132|226:77,1,110.000003356934,10|10,0:1|0:1,0:1:0:0:
162,13,181103,1,10,0:1:0:0:
53,33,181428,1,10,0:1:0:0:
7,191,181914,6,2,L|23:325,1,110.000003356934,14|8,0:1|0:0,0:1:0:0:
50,346,182401,2,2,P|112:360|160:326,1,110.000003356934,14|8,0:1|0:1,0:1:0:0:
184,295,182887,1,10,0:0:0:0:
236,198,183211,2,0,P|229:124|244:87,1,110.000003356934,10|8,0:1|0:0,0:0:0:0:
276,49,183698,1,10,0:3:0:0:
276,49,183860,2,0,L|394:35,1,110.000003356934,8|8,0:1|0:0,0:0:0:0:
483,98,184509,6,2,B|503:132|503:132|485:205,1,110.000003356934,14|8,0:1|0:0,0:1:0:0:
442,234,184995,2,2,P|392:215|333:221,1,110.000003356934,14|8,0:1|0:1,0:1:0:0:
293,254,185482,1,14,0:0:0:0:
220,336,185806,2,8,B|170:358|170:358|111:325,1,110.000003356934,10|8,0:3|0:1,0:3:0:0:
48,248,186455,2,0,L|61:182,1,55.0000016784668,10|8,0:0|0:0,0:0:0:0:
53,139,186779,2,0,L|66:73,1,55.0000016784668,10|8,0:0|0:0,0:0:0:0:
105,58,187103,6,0,P|160:47|213:68,1,100,14|8,0:1|0:0,0:1:0:0:
256,143,187752,1,10,0:1:0:0:
225,238,188076,1,10,0:0:0:0:
287,316,188401,2,0,P|334:329|382:317,1,100,10|10,0:1|0:0,0:0:0:0:
466,262,189049,2,0,L|473:160,1,100,10|10,0:1|0:0,0:0:0:0:
438,126,189536,5,2,0:0:0:0:
438,126,189698,2,0,L|428:17,2,100,14|10|0,0:1|0:0|0:0,0:0:0:0:
365,195,190671,1,10,0:0:0:0:
271,157,190995,1,10,0:1:0:0:
229,247,191320,1,8,0:0:0:0:
132,219,191644,1,10,0:1:0:0:
94,312,191968,1,10,0:0:0:0:
4,260,192292,6,0,P|-7:211|7:165,1,100,14|8,0:0|0:1,0:0:0:0:
42,128,192779,2,0,L|148:114,1,100,14|8,0:0|0:1,0:0:0:0:
184,140,193265,2,0,L|290:126,1,100,14|8,0:0|0:1,0:0:0:0:
328,149,193752,2,0,L|434:135,1,100,14|8,0:0|0:1,0:0:0:0:
470,111,194238,6,0,L|472:55,2,50,14|10|14,0:0|0:1|0:2,0:0:0:0:
0,262,202022,6,0,L|61:259,1,50,10|10,0:1|0:1,0:0:0:0:
133,176,202509,6,0,P|124:124|148:64,1,110.000003356934,14|8,0:1|0:1,0:0:0:0:
183,34,202995,1,10,0:0:0:0:
267,104,203320,1,10,0:1:0:0:
362,49,203644,1,10,0:0:0:0:
362,49,203806,2,0,B|415:28|415:28|475:56,1,110.000003356934,10|10,0:1|0:1,0:0:0:0:
508,151,204455,1,10,0:1:0:0:
442,238,204779,1,10,0:1:0:0:
359,165,205103,2,0,B|307:146|307:146|253:168,1,110.000003356934,10|10,0:1|0:1,0:0:0:0:
187,253,205752,5,10,0:1:0:0:
187,253,205914,2,0,P|202:291|170:363,1,110.000003356934,10|8,0:1|0:0,0:0:0:0:
129,375,206401,1,10,0:1:0:0:
21,354,206725,1,10,0:1:0:0:
52,248,207049,1,10,0:1:0:0:
39,138,207374,1,10,0:1:0:0:
106,51,207698,2,0,B|159:65|159:65|224:33,1,110.000003356934,14|8,0:1|0:1,0:0:0:0:
258,16,208184,5,10,0:0:0:0:
328,100,208509,1,10,0:0:0:0:
269,193,208833,1,8,0:0:0:0:
269,193,208995,2,0,P|256:248|288:308,1,110.000003356934,10|2,0:1|0:0,0:0:0:0:
301,344,209482,1,14,0:0:0:0:
410,332,209806,2,0,B|421:219,1,110.000003356934,8|8,0:3|0:3,0:0:0:0:
462,186,210292,2,0,B|473:73,1,110.000003356934,14|8,0:1|0:1,0:0:0:0:
433,37,210779,6,0,P|401:68|322:59,1,110.000003356934,10|10,0:0|0:1,0:0:0:0:
232,81,211428,1,10,0:0:0:0:
232,81,211590,2,0,P|190:46|137:48,1,110.000003356934,14|10,0:1|0:0,0:0:0:0:
87,71,212076,1,10,0:0:0:0:
36,169,212401,1,14,0:0:0:0:
88,253,212725,1,14,0:0:0:0:
197,216,213049,5,14,0:1:0:0:
197,216,213211,2,0,P|249:198|323:219,1,110.000003356934,2|10,0:0|0:1,0:0:0:0:
347,238,213698,2,0,P|336:288|366:351,1,110.000003356934,10|10,0:1|0:0,0:0:0:0:
400,374,214184,1,10,0:1:0:0:
499,326,214509,1,10,0:1:0:0:
489,216,214833,1,10,0:1:0:0:
471,107,215157,1,10,0:1:0:0:
372,58,215482,2,0,L|253:42,1,110.000003356934,10|10,0:1|0:1,0:0:0:0:
176,125,216130,5,10,0:1:0:0:
176,125,216292,2,0,L|190:246,1,110.000003356934,10|8,0:1|0:0,0:0:0:0:
194,289,216779,1,10,0:1:0:0:
124,374,217103,1,10,0:1:0:0:
18,340,217428,1,10,0:1:0:0:
17,230,217752,1,10,0:1:0:0:
118,188,218076,2,0,L|231:173,1,110.000003356934,14|8,0:1|0:1,0:0:0:0:
274,145,218563,5,10,0:0:0:0:
354,219,218887,1,10,0:0:0:0:
449,162,219211,1,10,0:0:0:0:
449,162,219374,2,0,P|461:102|436:53,1,110.000003356934,10|10,0:1|0:1,0:0:0:0:
397,26,219860,1,10,0:0:0:0:
294,64,220184,2,0,L|181:51,1,110.000003356934,14|4,0:0|0:3,0:0:0:0:
135,25,220671,6,0,P|106:59|125:140,1,110.000003356934,14|10,0:1|0:1,0:0:0:0:
130,172,221157,1,14,0:0:0:0:
238,188,221482,2,0,P|306:168|353:178,1,110.000003356934,10|8,0:1|0:0,0:0:0:0:
383,219,221968,1,14,0:1:0:0:
383,219,222130,2,0,P|392:273|367:328,1,110.000003356934,2|10,0:0|0:0,0:0:0:0:
261,312,222779,1,14,0:1:0:0:
174,379,223103,1,14,0:0:0:0:
80,316,223428,6,0,B|77:164,1,134.999995880127,14|10,0:1|0:1,0:0:0:0:
98,141,224076,2,0,P|138:148|189:122,1,89.9999972534181,14|0,0:0|0:0,0:0:0:0:
243,194,224725,2,0,P|283:175|327:181,1,89.9999972534181,10|2,0:1|0:0,0:1:0:0:
387,248,225374,2,0,P|427:266|471:260,1,89.9999972534181,14|10,0:0|0:0,0:0:0:0:
496,216,225860,6,0,L|498:106,1,100,14|8,0:1|0:1,0:0:0:0:
470,73,226347,1,10,0:1:0:0:
375,40,226671,1,8,0:0:0:0:
304,110,226995,1,8,0:0:0:0:
214,65,227320,2,0,B|165:49|165:49|104:79,1,100,14|8,0:1|0:1,0:0:0:0:
94,112,227806,2,0,L|118:270,1,150,10|8,0:0|0:3,0:0:0:0:
144,296,228455,6,0,P|210:292|243:267,1,89.9999972534181,14|8,0:1|0:1,0:0:0:0:
261,248,228941,1,10,0:1:0:0:
311,322,229265,1,10,0:0:0:0:
439,281,229752,2,0,P|451:213|435:182,2,89.9999972534181,10|10|10,0:1|0:0|0:1,0:0:0:0:
415,319,230563,1,8,0:0:0:0:
281,337,231049,6,0,P|195:317|179:322,1,89.9999972534181,10|10,0:1|0:0,0:0:0:0:
111,347,231698,2,0,L|62:370,1,44.999998626709,0|8,0:1|0:0,0:0:0:0:
10,244,232347,2,0,P|7:203|32:154,2,89.9999972534181,10|8|8,0:1|0:0|0:1,0:0:0:0:
41,276,233157,2,0,L|101:263,1,44.999998626709,8|14,0:0|0:1,0:0:0:0:
165,225,233644,6,0,P|163:159|174:124,1,89.9999972534181,14|8,0:1|0:1,0:0:0:0:
197,101,234130,1,8,0:1:0:0:
278,62,234455,1,10,0:0:0:0:
396,125,234941,2,0,B|437:142|437:142|490:117,2,89.9999972534181,10|10|10,0:1|0:0|0:1,0:1:0:0:
354,107,235752,1,10,0:0:0:0:
216,166,236238,6,0,P|197:198|205:268,2,100,14|8|8,0:1|0:3|0:1,0:0:0:0:
247,127,237049,2,0,P|257:107|258:72,1,50,8|8,0:0|0:1,0:0:0:0:
178,20,237536,6,0,L|72:30,1,100,14|8,0:1|0:0,0:0:0:0:
29,39,238022,1,8,0:0:0:0:
15,138,238347,1,4,0:3:0:0:
15,138,238509,1,14,0:1:0:0:
90,197,238833,6,0,P|184:172|266:185,1,172.000002624512,14|4,0:1|0:2,0:0:0:0:
