osu file format v14

[General]
AudioFilename: audio.mp3
AudioLeadIn: 0
PreviewTime: 129657
Countdown: 0
SampleSet: Soft
StackLeniency: 0.7
Mode: 0
LetterboxInBreaks: 0
WidescreenStoryboard: 1

[Editor]
DistanceSpacing: 1.5
BeatDivisor: 4
GridSize: 32
TimelineZoom: 2.699999

[Metadata]
Title:identity
TitleUnicode:identity
Artist:CHiCO with HoneyWorks
ArtistUnicode:CHiCO with HoneyWorks
Creator:Lasse
Version:Insane
Source:
Tags:japanese pop rock 世界はiに満ちている Sekai wa i ni Michiteiru
BeatmapID:2610919
BeatmapSetID:1255260

[Difficulty]
HPDrainRate:6
CircleSize:4
OverallDifficulty:8
ApproachRate:9
SliderMultiplier:1.6
SliderTickRate:1

[Events]
//Background and Video events
0,0,"bg1.jpg",0,0
//Break Periods
2,161195,163152
2,194763,196882
2,199752,201422
//Storyboard Layer 0 (Background)
//Storyboard Layer 1 (Fail)
//Storyboard Layer 2 (Pass)
//Storyboard Layer 3 (Foreground)
//Storyboard Layer 4 (Overlay)
//Storyboard Sound Samples

[TimingPoints]
293,324.324324324324,4,2,35,62,1,0
293,-100,4,2,35,62,0,0
1752,-100,4,2,36,62,0,0
1914,-100,4,2,35,62,0,0
2887,-100,4,2,35,65,0,0
3374,-100,4,2,37,65,0,0
3536,-100,4,2,35,65,0,0
4347,-100,4,2,36,65,0,0
4509,-100,4,2,35,65,0,0
5320,-133.333333333333,4,2,35,56,0,0
10022,-133.333333333333,4,2,36,60,0,0
10184,-200,4,2,36,60,0,0
10428,-200,4,2,36,5,0,0
10509,-100,4,2,34,70,0,0
10671,-100,4,2,35,70,0,0
15698,-100,4,2,34,70,0,0
15860,-100,4,2,35,70,0,0
20887,-133.333333333333,4,2,35,60,0,0
22022,-133.333333333333,4,2,35,58,0,0
22184,-133.333333333333,4,2,35,56,0,0
22347,-133.333333333333,4,2,35,54,0,0
22509,-133.333333333333,4,2,36,52,0,0
22671,-133.333333333333,4,2,35,50,0,0
22833,-133.333333333333,4,2,36,48,0,0
22995,-133.333333333333,4,2,35,50,0,0
23157,-133.333333333333,4,2,36,52,0,0
23320,-133.333333333333,4,2,36,54,0,0
23482,-133.333333333333,4,2,35,54,0,0
23968,-133.333333333333,4,2,36,54,0,0
24130,-133.333333333333,4,2,35,54,0,0
24617,-133.333333333333,4,2,35,56,0,0
24941,-133.333333333333,4,2,35,58,0,0
25265,-133.333333333333,4,2,35,60,0,0
25590,-133.333333333333,4,2,37,60,0,0
25752,-133.333333333333,4,2,35,62,0,0
26076,-108.695652173913,4,2,35,65,0,0
31265,-117.647058823529,4,2,35,60,0,0
36292,-117.647058823529,4,2,36,60,0,0
36455,-105.263157894737,4,2,35,65,0,0
41157,-80.0000000000001,4,2,35,67,0,0
41644,-80.0000000000001,4,2,35,50,0,0
41806,-133.333333333333,4,2,35,54,0,0
46347,-133.333333333333,4,2,37,54,0,0
46671,-133.333333333333,4,2,36,54,0,0
46995,-133.333333333333,4,2,35,54,0,0
50401,-133.333333333333,4,2,35,55,0,0
50725,-133.333333333333,4,2,35,57,0,0
51049,-90.9090909090909,4,2,35,60,0,0
51374,-90.9090909090909,4,2,37,60,0,0
52022,-90.9090909090909,4,2,34,60,0,0
52184,-100,4,2,35,62,0,0
57860,-90.9090909090909,4,2,37,64,0,0
58022,-90.9090909090909,4,2,34,64,0,0
58347,-82.6446280991736,4,2,35,66,0,0
58833,-75.187969924812,4,2,37,68,0,0
58995,-75.187969924812,4,2,34,68,0,0
59320,-68.4931506849315,4,2,36,70,0,0
59482,-68.4931506849315,4,2,35,70,0,0
59644,-273.972602739726,4,2,35,70,0,0
59968,-273.972602739726,4,2,35,30,0,0
61428,-100,4,2,36,65,0,0
62401,-83.3333333333333,4,2,34,72,0,1
62563,-83.3333333333333,4,2,35,72,0,1
69374,-83.3333333333333,4,2,36,72,0,1
69536,-83.3333333333333,4,2,35,72,0,1
70184,-100,4,2,34,72,0,1
70671,-83.3333333333333,4,2,35,72,0,1
71482,-71.4285714285714,4,2,35,72,0,1
71806,-83.3333333333333,4,2,35,72,0,1
72617,-83.3333333333333,4,2,36,72,0,0
72941,-83.3333333333333,4,2,34,72,0,1
73103,-83.3333333333333,4,2,35,72,0,1
79752,-83.3333333333333,4,2,37,72,0,1
79914,-83.3333333333333,4,2,35,72,0,1
80401,-83.3333333333333,4,2,36,72,0,1
80563,-83.3333333333333,4,2,35,72,0,1
82671,-83.3333333333333,4,2,35,70,0,1
82995,-83.3333333333333,4,2,35,68,0,1
83320,-125,4,2,35,64,0,0
83968,-125,4,2,36,64,0,0
84292,-125,4,2,35,64,0,0
85265,-125,4,2,37,64,0,0
85428,-125,4,2,35,64,0,0
85752,-90.9090909090909,4,2,34,67,0,0
86076,-90.9090909090909,4,2,35,60,0,0
86238,-90.9090909090909,4,2,35,62,0,0
86563,-90.9090909090909,4,2,35,64,0,0
86887,-90.9090909090909,4,2,35,66,0,0
87536,-90.9090909090909,4,2,98,56,0,0
87617,-90.9090909090909,4,2,35,5,0,0
88022,-111.111111111111,4,2,98,52,0,0
88103,-111.111111111111,4,2,35,5,0,0
88347,-100,4,2,34,70,0,0
88509,-100,4,2,35,70,0,0
92887,-100,4,2,36,70,0,0
93049,-133.333333333333,4,2,35,70,0,0
93130,-133.333333333333,4,2,35,50,0,0
93211,-133.333333333333,4,2,35,65,0,0
93292,-133.333333333333,4,2,35,50,0,0
93374,-133.333333333333,4,2,35,60,0,0
93455,-133.333333333333,4,2,35,50,0,0
93536,-100,4,2,34,70,0,0
93698,-100,4,2,35,70,0,0
98279,-100,4,2,35,60,0,0
98320,-100,4,2,35,58,0,0
98360,-100,4,2,35,56,0,0
98401,-100,4,2,35,54,0,0
98441,-100,4,2,35,52,0,0
98482,-100,4,2,35,50,0,0
98522,-100,4,2,35,48,0,0
98563,-100,4,2,35,46,0,0
98725,-125,4,2,51,60,0,0
101320,-125,4,2,35,60,0,0
102617,-100,4,2,35,58,0,0
102698,-100,4,2,35,5,0,0
102941,-83.3333333333333,4,2,35,62,0,0
103022,-83.3333333333333,4,2,35,5,0,0
103265,-71.4285714285714,4,2,35,64,0,0
103347,-71.4285714285714,4,2,35,5,0,0
103590,-83.3333333333333,4,2,35,50,0,0
103914,-108.695652173913,4,2,35,65,0,0
109103,-117.647058823529,4,2,51,60,0,0
109590,-133.333333333333,4,2,51,60,0,0
114292,-105.263157894737,4,2,35,65,0,0
118509,-71.4285714285714,4,2,35,65,0,0
118752,-71.4285714285714,4,2,35,40,0,0
118833,-71.4285714285714,4,2,35,65,0,0
119076,-71.4285714285714,4,2,35,40,0,0
119157,-71.4285714285714,4,2,35,65,0,0
119401,-71.4285714285714,4,2,35,40,0,0
119482,-71.4285714285714,4,2,35,60,0,0
119644,-100,4,2,35,65,0,0
124833,-100,4,2,35,62,0,0
125320,-90.9090909090909,4,2,37,64,0,0
125482,-90.9090909090909,4,2,34,64,0,0
125806,-83.3333333333333,4,2,35,66,0,0
126292,-76.9230769230769,4,2,37,68,0,0
126455,-76.9230769230769,4,2,34,68,0,0
126779,-71.4285714285714,4,2,36,70,0,0
126941,-71.4285714285714,4,2,35,70,0,0
127103,-285.714285714286,4,2,35,70,0,0
127428,-285.714285714286,4,2,35,30,0,0
128887,-100,4,2,36,65,0,0
129860,-83.3333333333333,4,2,34,72,0,1
130022,-83.3333333333333,4,2,35,72,0,1
137644,-100,4,2,34,72,0,1
138130,-83.3333333333333,4,2,35,72,0,1
138941,-71.4285714285714,4,2,35,72,0,1
139265,-83.3333333333333,4,2,35,72,0,1
140076,-83.3333333333333,4,2,36,72,0,0
140401,-83.3333333333333,4,2,34,72,0,1
140563,-83.3333333333333,4,2,35,72,0,1
147211,-83.3333333333333,4,2,37,72,0,1
147373,-83.3333333333333,4,2,35,72,0,1
147860,-83.3333333333333,4,2,36,72,0,1
148022,-83.3333333333333,4,2,34,72,0,1
149320,-83.3333333333333,4,2,35,72,0,1
150130,-83.3333333333333,4,2,34,72,0,1
150374,-83.3333333333333,4,2,36,32,0,1
150455,-100,4,2,37,60,0,1
150779,-125,4,2,35,64,0,0
151428,-125,4,2,36,64,0,0
151752,-125,4,2,35,64,0,0
152725,-125,4,2,37,64,0,0
152887,-125,4,2,35,64,0,0
153211,-90.9090909090909,4,2,34,67,0,0
153536,-90.9090909090909,4,2,35,60,0,0
153698,-90.9090909090909,4,2,35,62,0,0
154022,-90.9090909090909,4,2,35,64,0,0
154347,-90.9090909090909,4,2,35,66,0,0
155157,-90.9090909090909,4,2,36,64,0,0
155806,-166.666666666667,4,2,35,56,0,0
155887,-200,4,2,35,5,0,0
160995,-200,4,2,98,20,0,0
163752,-76.9230769230769,4,2,35,70,0,0
164887,-76.9230769230769,4,2,35,65,0,0
165049,-76.9230769230769,4,2,35,68,0,0
166184,-71.4285714285714,4,2,38,72,0,0
166509,-71.4285714285714,4,2,35,72,0,0
166671,-71.4285714285714,4,2,36,72,0,0
166995,-71.4285714285714,4,2,35,72,0,0
167157,-71.4285714285714,4,2,38,72,0,0
167320,-71.4285714285714,4,2,35,72,0,0
167644,-71.4285714285714,4,2,38,72,0,0
167806,-71.4285714285714,4,2,35,72,0,0
168779,-71.4285714285714,4,2,39,72,0,0
169103,-71.4285714285714,4,2,35,72,0,0
169265,-71.4285714285714,4,2,36,72,0,0
169590,-71.4285714285714,4,2,35,72,0,0
170076,-90.9090909090909,4,2,35,72,0,0
171374,-71.4285714285714,4,2,35,72,0,0
171698,-100,4,2,35,72,0,0
172671,-83.3333333333333,4,2,35,72,0,0
172995,-100,4,2,35,72,0,0
173968,-66.6666666666667,4,2,35,72,0,0
174455,-76.9230769230769,4,2,35,72,0,0
176238,-76.9230769230769,4,2,35,70,0,0
176401,-76.9230769230769,4,2,36,68,0,0
176563,-71.4285714285714,4,2,34,70,0,0
176887,-71.4285714285714,4,2,35,70,0,0
177049,-76.9230769230769,4,2,35,70,0,0
181914,-71.4285714285714,4,2,35,72,0,0
182887,-66.6666666666667,4,2,35,72,0,0
183211,-71.4285714285714,4,2,35,72,0,0
184509,-66.6666666666667,4,2,35,72,0,0
185482,-62.5,4,2,35,72,0,0
185806,-76.9230769230769,4,2,35,72,0,0
187103,-90.9090909090909,4,2,35,72,0,0
187428,-100,4,2,35,64,0,0
190995,-90.9090909090909,4,2,35,65,0,0
192292,-83.3333333333333,4,2,35,66,0,0
192779,-75.7575757575758,4,2,37,67,0,0
192941,-75.7575757575758,4,2,34,67,0,0
193265,-68.870523415978,4,2,35,68,0,0
193752,-62.6095667417981,4,2,37,69,0,0
193914,-62.6095667417981,4,2,34,69,0,0
194238,-56.9151963574274,4,2,36,70,0,0
194401,-56.9151963574274,4,2,35,70,0,0
194887,-500,4,2,35,30,0,0
196346,-500,4,2,36,65,0,0
197482,-200,4,2,35,40,0,0
197968,-222.222222222222,4,2,35,40,0,0
198455,-250,4,2,35,40,0,0
202022,-100,4,2,36,68,0,0
202509,-76.9230769230769,4,2,34,75,0,1
202671,-76.9230769230769,4,2,35,75,0,1
209482,-76.9230769230769,4,2,37,75,0,1
209644,-76.9230769230769,4,2,35,75,0,1
210130,-76.9230769230769,4,2,36,75,0,1
210292,-90.9090909090909,4,2,34,75,0,1
210617,-90.9090909090909,4,2,35,75,0,1
211590,-66.6666666666667,4,2,35,75,0,1
211914,-83.3333333333333,4,2,35,75,0,1
211995,-83.3333333333333,4,2,35,68,0,1
212076,-83.3333333333333,4,2,35,75,0,1
212157,-83.3333333333333,4,2,35,68,0,1
212238,-83.3333333333333,4,2,35,75,0,1
212725,-100,4,2,36,75,0,0
213049,-76.9230769230769,4,2,34,75,0,1
213211,-76.9230769230769,4,2,35,75,0,1
220184,-76.9230769230769,4,2,37,75,0,1
220265,-76.9230769230769,4,2,35,75,0,1
220671,-76.9230769230769,4,2,34,75,0,1
220995,-76.9230769230769,4,2,35,75,0,1
221157,-76.9230769230769,4,2,37,75,0,1
221320,-76.9230769230769,4,2,35,75,0,1
222455,-83.3333333333333,4,2,35,75,0,1
222779,-71.4285714285714,4,2,34,75,0,1
222941,-71.4285714285714,4,2,34,68,0,1
223103,-90.9090909090909,4,2,36,70,0,1
223265,-100,4,2,36,60,0,1
223428,-125,4,2,35,64,0,0
224076,-125,4,2,37,64,0,0
224401,-125,4,2,35,64,0,0
225698,-125,4,2,35,66,0,0
225860,-76.9230769230769,4,2,34,68,0,0
226184,-76.9230769230769,4,2,34,64,0,0
226347,-76.9230769230769,4,2,34,66,0,0
226671,-76.9230769230769,4,2,34,68,0,0
226995,-76.9230769230769,4,2,34,70,0,0
227320,-76.9230769230769,4,2,35,72,0,0
227968,-76.9230769230769,4,2,35,70,0,0
228049,-76.9230769230769,4,2,35,69,0,0
228130,-76.9230769230769,4,2,35,68,0,0
228211,-76.9230769230769,4,2,35,67,0,0
228292,-76.9230769230769,4,2,36,66,0,0
228374,-76.9230769230769,4,2,36,65,0,0
228455,-125,4,2,35,64,0,0
228779,-125,4,2,35,62,0,0
233320,-125,4,2,37,62,0,0
233644,-111.111111111111,4,2,35,64,0,0
236238,-100,4,2,34,65,0,0
236401,-100,4,2,34,54,0,0
236563,-133.333333333333,4,2,35,60,0,0
237536,-90.9090909090909,4,2,35,62,0,0
238509,-90.9090909090909,4,2,37,62,0,0
238833,-133.333333333333,4,2,35,64,0,0
238914,-133.333333333333,4,2,35,5,0,0
239482,-133.333333333333,4,2,98,20,0,0

[Colours]
Combo1 : 250,180,240
Combo2 : 120,200,230
Combo3 : 255,230,130
Combo4 : 160,230,150

[HitObjects]
18,168,293,5,8,0:0:0:0:
94,253,455,1,8,0:1:0:0:
94,253,617,1,8,0:1:0:0:
103,154,779,5,8,0:3:0:0:
94,253,941,1,8,0:1:0:0:
94,253,1103,1,8,0:1:0:0:
165,217,1265,5,4,0:3:0:0:
94,253,1428,1,8,0:1:0:0:
94,253,1590,1,8,0:1:0:0:
166,296,1752,5,8,0:3:0:0:
94,253,1914,1,8,0:1:0:0:
94,253,2076,1,8,0:1:0:0:
179,202,2238,5,8,0:3:0:0:
196,210,2320,1,8,0:3:0:0:
216,212,2401,1,8,0:3:0:0:
235,207,2482,1,8,0:3:0:0:
250,194,2563,2,0,L|261:144,3,40,4|4|4|4,0:3|0:3|0:3|0:3,0:0:0:0:
287,83,2887,5,12,0:0:0:0:
367,197,3049,1,8,0:1:0:0:
367,197,3211,1,8,0:1:0:0:
374,58,3374,5,12,0:0:0:0:
367,197,3536,1,8,0:1:0:0:
367,197,3698,1,8,0:1:0:0:
449,112,3860,5,12,0:0:0:0:
367,197,4022,1,8,0:1:0:0:
367,197,4184,1,8,0:1:0:0:
490,198,4347,5,12,0:0:0:0:
367,197,4509,1,8,0:1:0:0:
367,197,4671,1,8,0:1:0:0:
466,285,4833,5,8,2:2:0:0:
367,197,4995,1,8,0:1:0:0:
338,344,5157,1,8,2:2:0:0:
255,279,5320,6,0,B|227:268|227:268|124:295,1,120.000004577637,14|0,0:1|0:0,0:1:0:0:
58,248,5806,2,0,P|38:295|61:361,2,120.000004577637
130,182,6617,2,0,B|158:193|158:193|261:166,1,120.000004577637
316,98,7103,2,0,P|282:92|245:74,1,60.0000022888184
379,43,7428,2,0,P|359:113|373:163,1,120.000004577637
458,263,7914,6,0,L|340:242,1,120.000004577637
287,317,8401,2,0,P|293:348|320:394,1,60.0000022888184
222,251,8725,2,0,P|239:218|242:181,1,60.0000022888184
188,81,9049,5,8,0:0:0:0:
124,158,9211,2,0,P|88:184|12:146,1,120.000004577637,8|0,0:1|0:0,0:0:0:0:
85,73,9698,2,0,L|105:12,1,60.0000022888184
274,73,10022,5,10,0:1:0:0:
345,126,10184,2,2,B|376:135|376:135|359:112,1,60,10|0,0:1|0:0,0:1:0:0:
271,90,10509,6,0,B|245:151|293:193|293:193|269:258,1,160,14|8,0:1|0:1,0:1:0:0:
193,364,10995,2,0,P|188:323|180:278,1,80,10|0,0:0|0:0,0:0:0:0:
2,200,11320,1,10,0:1:0:0:
104,178,11482,2,0,P|96:219|91:257,1,80,10|8,0:1|0:0,0:0:0:0:
264,144,11806,6,0,P|206:149|166:107,1,120,10|0,0:1|0:0,0:0:0:0:
130,36,12130,2,0,L|219:19,1,80,10|8,0:1|0:0,0:0:0:0:
351,114,12455,1,2,0:0:0:0:
423,54,12617,1,8,0:1:0:0:
421,42,12698,1,8,0:1:0:0:
422,31,12779,1,8,0:1:0:0:
425,19,12860,1,8,0:1:0:0:
430,9,12941,1,8,0:0:0:0:
512,124,13103,6,0,P|500:185|489:296,1,160,10|8,0:1|0:1,0:0:0:0:
306,209,13590,2,0,P|346:204|390:196,1,80,10|0,0:0|0:0,0:0:0:0:
286,320,13914,1,10,0:1:0:0:
305,323,13995,1,8,0:1:0:0:
325,326,14076,1,8,0:1:0:0:
345,329,14157,1,8,0:1:0:0:
365,332,14238,1,8,0:0:0:0:
285,221,14401,6,0,P|293:164|252:123,1,120,10|0,0:1|0:0,0:0:0:0:
172,118,14725,2,0,L|151:206,1,80,10|8,0:1|0:0,0:0:0:0:
22,268,15049,1,10,0:1:0:0:
7,245,15130,1,8,0:1:0:0:
0,220,15211,1,8,0:0:0:0:
0,193,15292,1,8,0:3:0:0:
5,168,15374,1,8,0:1:0:0:
18,145,15455,1,8,0:3:0:0:
38,127,15536,1,8,0:0:0:0:
166,213,15698,6,0,B|209:248|209:248|269:250|311:199,1,160,14|8,0:1|0:1,0:0:0:0:
376,66,16184,2,0,P|326:57|298:39,1,80,10|0,0:0|0:0,0:0:0:0:
406,174,16509,1,10,0:1:0:0:
422,162,16590,1,8,0:1:0:0:
440,155,16671,1,8,0:1:0:0:
460,150,16752,1,8,0:1:0:0:
480,150,16833,1,8,0:2:0:0:
443,261,16995,6,0,B|468:313|428:358|428:358|408:322,1,120,10|0,0:1|0:0,0:0:0:0:
354,306,17320,2,0,P|318:288|278:284,1,80,10|8,0:1|0:0,0:0:0:0:
378,176,17644,1,2,0:0:0:0:
305,113,17806,1,10,0:1:0:0:
314,95,17887,1,8,0:1:0:0:
321,76,17968,1,8,0:1:0:0:
324,56,18049,1,8,0:1:0:0:
323,36,18130,1,8,0:2:0:0:
187,91,18292,6,0,P|131:64|19:70,1,160,10|8,0:1|0:1,0:0:0:0:
119,196,18779,2,0,P|103:225|98:290,1,80,10|0,0:0|0:0,0:0:0:0:
194,384,19103,1,10,0:1:0:0:
197,364,19184,1,8,0:1:0:0:
201,344,19265,1,8,0:1:0:0:
205,325,19347,1,8,0:1:0:0:
209,305,19428,1,8,0:2:0:0:
331,256,19590,6,0,B|339:308|384:317|384:317|443:295,1,120,10|0,0:1|0:0,0:0:0:0:
490,277,19914,2,0,L|499:185,1,80,10|8,0:1|0:0,0:0:0:0:
368,107,20238,1,10,0:1:0:0:
411,224,20401,1,8,0:0:0:0:
462,85,20563,1,10,0:1:0:0:
462,85,20644,1,8,0:1:0:0:
462,85,20725,1,8,0:0:0:0:
380,23,20887,6,0,P|347:61|278:41,1,120.000004577637,14|8,0:1|0:1,0:0:0:0:
188,0,21374,2,0,L|211:117,1,120.000004577637,10|0,0:0|0:0,0:0:0:0:
179,217,21860,5,8,0:3:0:0:
110,190,22022,1,8,0:1:0:0:
110,190,22184,1,8,0:3:0:0:
120,267,22347,1,4,0:3:0:0:
120,267,22509,1,8,0:3:0:0:
179,217,22671,1,2,0:2:0:0:
91,176,22833,5,4,0:3:0:0:
49,110,22995,1,8,0:2:0:0:
85,40,23157,1,8,0:3:0:0:
163,36,23320,1,4,0:3:0:0:
205,102,23482,6,0,B|236:125|236:125|318:103,1,120.000004577637,14|8,0:1|0:1,0:0:0:0:
411,70,23968,2,0,P|410:39|423:0,1,60.0000022888184,14|0,0:0|0:0,0:0:0:0:
501,104,24292,2,2,B|514:121|514:121|505:165,1,60.0000022888184,2|0,0:0|0:0,0:1:0:0:
427,225,24617,5,8,0:0:0:0:
422,223,24698,1,8,0:0:0:0:
417,222,24779,1,8,0:1:0:0:
412,221,24860,1,8,0:1:0:0:
407,220,24941,1,8,0:3:0:0:
402,219,25022,1,4,0:3:0:0:
397,217,25103,1,8,0:1:0:0:
392,216,25184,1,8,0:1:0:0:
388,215,25265,1,8,0:3:0:0:
383,214,25347,1,4,0:3:0:0:
378,213,25428,1,8,0:1:0:0:
373,211,25509,1,8,0:1:0:0:
368,209,25590,6,0,B|348:203|348:203|337:206|337:206|301:193,1,60.0000022888184,12|8,0:0|0:1,0:0:0:0:
262,139,25833,2,0,L|260:105,1,30.0000011444092,8|8,0:1|0:0,0:0:0:0:
73,50,26076,6,0,P|142:60|186:6,1,147.199995058594,14|8,0:1|0:1,0:0:0:0:
142,175,26563,2,0,B|104:152|104:152|40:152|-1:209,1,147.199995058594,10|8,0:0|0:1,0:0:0:0:
121,291,27049,1,10,0:1:0:0:
17,352,27211,2,0,P|28:308|40:273,1,73.599997529297,10|8,0:0|0:1,0:0:0:0:
165,196,27536,5,2,0:0:0:0:
265,284,27698,2,0,P|260:244|245:179,1,73.599997529297,10|8,0:1|0:0,0:0:0:0:
166,101,28022,2,0,P|134:107|94:118,1,73.599997529297,2|8,0:0|0:1,0:0:0:0:
79,115,28265,1,8,0:1:0:0:
66,107,28347,2,0,P|71:67|86:2,1,73.599997529297,10|8,0:1|0:0,0:0:0:0:
238,14,28671,6,0,P|285:40|380:21,1,147.199995058594,10|8,0:1|0:1,0:1:0:0:
342,151,29157,2,0,B|377:145|415:151|415:151|437:124|479:111,1,147.199995058594,10|8,0:0|0:1,0:0:0:0:
407,238,29644,1,10,0:1:0:0:
485,285,29806,2,0,P|503:320|506:367,1,73.599997529297,10|8,0:0|0:1,0:0:0:0:
389,250,30130,5,2,0:0:0:0:
317,309,30292,2,0,P|282:300|246:293,1,73.599997529297,10|8,0:1|0:0,0:0:0:0:
367,180,30617,2,0,P|377:215|389:250,1,73.599997529297,2|8,0:0|0:1,0:0:0:0:
231,202,30941,2,0,P|256:176|280:148,1,73.599997529297,10|8,0:1|0:0,0:0:0:0:
319,327,31265,6,0,P|256:325|190:377,1,136.000002593994,14|8,0:1|0:1,0:0:0:0:
102,298,31752,2,0,L|121:148,1,136.000002593994,10|8,0:0|0:1,0:0:0:0:
119,163,32238,1,8,0:1:0:0:
24,206,32401,6,0,P|18:172|18:139,1,68.0000012969971,10|8,0:0|0:1,0:0:0:0:
65,41,32725,1,10,0:1:0:0:
118,92,32887,1,8,0:1:0:0:
192,86,33049,1,8,0:0:0:0:
245,34,33211,1,10,0:1:0:0:
245,34,33292,1,8,0:1:0:0:
245,34,33374,1,8,0:1:0:0:
298,125,33536,2,0,P|289:160|280:215,1,68.0000012969971,10|8,0:1|0:0,0:0:0:0:
345,287,33860,6,0,P|390:275|454:344,1,136.000002593994,2|8,0:0|0:1,0:1:0:0:
431,202,34347,2,0,P|439:171|443:105,1,68.0000012969971,10|8,0:0|0:1,0:0:0:0:
444,128,34590,1,8,0:1:0:0:
444,121,34671,2,0,P|435:90|405:30,1,68.0000012969971,10|8,0:1|0:1,0:0:0:0:
303,0,34995,5,10,0:0:0:0:
248,113,35157,2,0,P|289:100|326:92,1,68.0000012969971,2|8,0:0|0:1,0:0:0:0:
270,201,35482,2,0,P|301:230|327:258,1,68.0000012969971,10|8,0:1|0:0,0:0:0:0:
204,264,35806,2,0,P|194:306|183:342,1,68.0000012969971,10|8,0:1|0:3,0:0:0:0:
183,339,36049,1,8,0:3:0:0:
176,347,36130,2,0,L|128:368,1,34.0000006484985,4|4,0:3|0:3,0:0:0:0:
73,381,36292,2,8,L|31:357,1,34.0000006484985,8|8,0:3|0:3,0:3:0:0:
0,301,36455,6,0,B|24:255|24:255|20:219|20:219|48:161,1,151.999995941162,14|0,0:1|0:1,0:0:0:0:
245,159,36941,2,0,P|221:215|125:185,1,151.999995941162,10|8,0:0|0:1,0:0:0:0:
228,65,37428,1,10,0:1:0:0:
129,98,37590,2,0,L|44:77,1,75.9999979705811,10|8,0:0|0:1,0:0:0:0:
239,48,37914,5,2,0:0:0:0:
266,159,38076,2,0,L|284:249,1,75.9999979705811,10|8,0:1|0:0,0:0:0:0:
391,325,38401,2,0,P|436:316|472:315,1,75.9999979705811,2|8,0:0|0:1,0:0:0:0:
476,319,38644,1,8,0:1:0:0:
486,322,38725,2,0,L|486:232,1,75.9999979705811,10|8,0:1|0:0,0:0:0:0:
400,125,39049,6,0,B|312:121|353:69|264:68,1,151.999995941162,10|8,0:1|0:1,0:0:0:0:
145,185,39536,2,0,P|197:210|267:152,1,151.999995941162,10|8,0:0|0:1,0:0:0:0:
116,78,40022,1,10,0:1:0:0:
45,165,40184,2,0,P|43:202|59:236,1,75.9999979705811,10|8,0:0|0:1,0:0:0:0:
131,321,40509,5,2,0:0:0:0:
224,291,40671,1,8,0:1:0:0:
317,261,40833,1,8,0:0:0:0:
319,243,41157,5,10,0:0:0:0:
424,327,41320,2,0,B|463:373|463:373|410:220,1,200,14|0,0:1|0:0,0:0:0:0:
425,132,41806,6,0,P|505:163|507:251,1,180.000006866455,14|8,0:1|0:3,0:0:0:0:
317,217,42617,5,8,0:1:0:0:
302,298,42779,1,8,0:0:0:0:
302,298,42941,1,0,0:0:0:0:
228,280,43103,1,2,0:0:0:0:
228,280,43265,2,0,L|94:265,1,120.000004577637,8|8,0:3|0:1,0:1:0:0:
30,206,43752,6,0,L|17:252,2,40.000001525879,8|8|8,0:3|0:3|0:3,0:0:0:0:
75,188,44076,5,4,0:3:0:0:
65,174,44184,1,4,0:3:0:0:
55,161,44292,1,4,0:3:0:0:
45,147,44401,6,0,P|37:96|146:44,1,180.000006866455,14|8,0:1|0:0,0:0:0:0:
255,140,45211,5,8,0:1:0:0:
230,211,45374,1,8,0:0:0:0:
297,242,45536,2,0,P|333:234|378:229,1,60.0000022888184,2|0,0:0|0:0,0:0:0:0:
255,140,45860,2,0,L|237:58,1,60.0000022888184,2|0,0:0|0:0,0:0:0:0:
158,57,46184,5,8,0:1:0:0:
279,4,46347,1,12,0:2:0:0:
339,59,46671,5,8,0:3:0:0:
396,119,46995,6,0,P|422:171|408:252,2,120.000004577637,10|0|0,0:1|0:0|0:0,0:0:0:0:
396,119,47806,1,8,0:1:0:0:
348,172,47968,1,8,0:0:0:0:
276,177,48130,1,0,0:0:0:0:
206,157,48292,1,2,0:0:0:0:
153,107,48455,2,0,P|82:84|28:91,1,120.000004577637,8|8,0:3|0:1,0:0:0:0:
0,189,48941,5,8,0:3:0:0:
4,204,49049,1,8,0:3:0:0:
8,219,49157,1,8,0:3:0:0:
12,234,49265,5,4,0:3:0:0:
27,228,49374,1,4,0:3:0:0:
42,223,49482,1,4,0:3:0:0:
57,219,49590,6,0,B|127:209|127:209|153:231|153:231|227:223,1,180.000006866455,14|8,0:1|0:0,0:0:0:0:
390,105,50401,5,8,0:1:0:0:
367,198,50563,1,8,0:0:0:0:
456,222,50725,1,8,0:1:0:0:
481,127,50887,1,8,0:0:0:0:
381,88,51049,6,0,B|306:60|327:127|253:111,1,132.00000402832,14|0,0:1|0:0,0:0:0:0:
182,85,51374,2,0,P|195:57|202:-4,1,88.000002685547,14|0,0:1|0:0,0:0:0:0:
47,193,51698,2,0,P|94:179|152:177,1,88.000002685547,14|0,0:1|0:0,0:0:0:0:
273,244,52022,5,8,0:0:0:0:
273,244,52103,1,8,0:0:0:0:
273,244,52184,2,0,L|262:356,1,80,14|0,0:1|0:0,0:0:0:0:
422,380,52509,2,0,P|433:337|424:280,1,80,10|0,0:0|0:0,0:0:0:0:
276,213,52833,5,10,0:1:0:0:
400,175,52995,1,2,0:0:0:0:
259,95,53157,2,0,P|265:50|288:-15,1,80,10|0,0:0|0:0,0:0:0:0:
157,148,53482,2,0,L|68:167,1,80,10|0,0:1|0:0,0:0:0:0:
279,238,53806,6,0,B|364:240|333:301|412:315,1,160,10|8,0:0|0:1,0:0:0:0:
459,379,54292,1,2,0:0:0:0:
482,265,54455,1,10,0:0:0:0:
507,159,54617,1,2,0:0:0:0:
507,159,54698,1,2,0:0:0:0:
507,159,54779,1,12,0:1:0:0:
408,188,54941,5,2,0:0:0:0:
437,80,55103,1,10,0:0:0:0:
343,18,55265,2,0,P|306:51|191:16,1,160,2|0,0:0|0:0,0:0:0:0:
68,154,55752,5,10,0:0:0:0:
199,124,55914,1,2,0:0:0:0:
91,65,56076,1,10,0:1:0:0:
167,202,56238,1,2,0:0:0:0:
285,194,56401,6,0,P|350:172|384:171,1,80,10|0,0:0|0:0,0:0:0:0:
265,327,56725,2,0,P|330:349|364:350,1,80,10|0,0:1|0:0,0:0:0:0:
193,175,57049,2,0,P|223:113|246:88,1,80,10|0,0:0|0:0,0:0:0:0:
367,35,57374,5,14,0:0:0:0:
432,112,57536,1,10,0:1:0:0:
432,112,57698,1,10,0:1:0:0:
333,109,57860,5,14,0:0:0:0:
377,219,58022,1,10,0:1:0:0:
377,219,58184,1,10,0:1:0:0:
256,136,58347,5,14,0:0:0:0:
263,266,58509,1,10,0:1:0:0:
263,266,58671,1,10,0:1:0:0:
178,112,58833,5,14,0:0:0:0:
136,246,58995,1,10,0:1:0:0:
136,246,59157,1,10,0:1:0:0:
106,72,59320,5,14,0:0:0:0:
39,207,59482,1,10,0:1:0:0:
0,97,59644,6,0,P|9:65|27:42,1,58.400001604004,14|2,0:2|0:0,0:0:0:0:
317,98,61428,5,10,0:1:0:0:
383,193,61590,1,10,0:1:0:0:
177,167,61914,5,10,0:1:0:0:
102,267,62076,1,10,0:1:0:0:
95,35,62401,6,0,P|12:85|22:179,1,191.999994140625,14|8,0:1|0:1,0:0:0:0:
223,99,62887,1,10,0:0:0:0:
96,126,63049,1,10,0:1:0:0:
173,235,63211,2,0,P|218:221|266:215,1,95.9999970703126,10|8,0:1|0:1,0:0:0:0:
410,268,63536,5,10,0:0:0:0:
512,171,63698,2,0,P|430:191|378:143,1,143.999995605469,10|0,0:1|0:0,0:0:0:0:
325,109,64022,2,0,L|322:5,1,95.9999970703126,10|8,0:1|0:0,0:0:0:0:
428,219,64347,2,0,L|519:268,1,95.9999970703126,10|8,0:1|0:1,0:0:0:0:
281,253,64671,2,0,L|192:307,1,95.9999970703126,10|8,0:1|0:0,0:0:0:0:
61,208,64995,6,0,P|67:144|83:51,1,143.999995605469,10|0,0:1|0:0,0:0:0:0:
22,19,65320,2,0,P|5:66|46:125,1,95.9999970703126,10|8,0:1|0:0,0:0:0:0:
191,171,65644,5,10,0:1:0:0:
61,208,65806,1,10,0:1:0:0:
101,345,65968,1,10,0:1:0:0:
101,345,66049,1,8,0:1:0:0:
101,345,66130,1,8,0:0:0:0:
230,308,66292,6,0,P|300:283|379:272,1,143.999995605469,10|0,0:1|0:0,0:0:0:0:
435,318,66617,2,0,P|405:342|321:345,1,95.9999970703126,10|8,0:1|0:0,0:0:0:0:
224,227,66941,5,10,0:1:0:0:
215,212,67022,1,8,0:1:0:0:
208,199,67103,1,8,0:0:0:0:
335,131,67265,5,10,0:1:0:0:
338,116,67347,1,8,0:1:0:0:
342,102,67428,1,8,0:0:0:0:
462,218,67590,6,0,B|521:219|525:162|525:162|465:67,1,191.999994140625,14|8,0:1|0:1,0:0:0:0:
322,0,68076,1,10,0:0:0:0:
342,102,68238,1,8,0:1:0:0:
171,10,68401,2,0,L|156:116,1,95.9999970703126,10|8,0:0|0:1,0:0:0:0:
157,105,68644,1,8,0:1:0:0:
157,105,68725,1,10,0:0:0:0:
224,207,68887,5,10,0:1:0:0:
62,147,69049,1,8,0:0:0:0:
148,279,69211,1,8,0:1:0:0:
165,115,69374,1,14,0:0:0:0:
165,115,69536,1,8,0:1:0:0:
224,207,69698,5,10,0:0:0:0:
241,223,69779,1,8,0:0:0:0:
262,234,69860,1,8,0:3:0:0:
286,238,69941,1,8,0:3:0:0:
309,234,70022,1,4,0:3:0:0:
331,224,70103,1,4,0:3:0:0:
350,209,70184,2,0,P|347:139|372:53,1,160,14|8,0:1|0:1,0:0:0:0:
438,191,70671,5,10,0:0:0:0:
286,277,70833,1,2,0:0:0:0:
430,373,70995,2,0,P|408:310|392:278,1,95.9999970703126,10|10,0:1|0:1,0:0:0:0:
395,283,71238,1,8,0:1:0:0:
395,283,71320,1,8,0:0:0:0:
404,116,71482,6,0,P|497:187|479:292,1,223.999993164063,14|10,0:1|0:1,0:0:0:0:
305,166,71968,1,10,0:0:0:0:
251,284,72130,1,8,0:1:0:0:
256,297,72211,1,8,0:1:0:0:
260,310,72292,1,8,0:0:0:0:
157,195,72455,1,8,0:1:0:0:
145,186,72536,1,8,0:1:0:0:
132,178,72617,1,12,0:0:0:0:
325,33,72941,6,0,P|417:31|469:121,1,191.999994140625,14|10,0:1|0:0,0:0:0:0:
296,153,73428,1,10,0:1:0:0:
379,252,73590,2,0,P|384:202|392:150,1,95.9999970703126,10|8,0:1|0:1,0:0:0:0:
261,288,73914,5,10,0:0:0:0:
356,352,74076,2,0,P|424:363|470:311,1,143.999995605469,10|0,0:1|0:0,0:0:0:0:
497,240,74401,2,0,P|493:194|485:134,1,95.9999970703126,10|8,0:1|0:0,0:0:0:0:
283,205,74725,2,0,P|326:208|386:215,1,95.9999970703126,10|8,0:1|0:1,0:0:0:0:
257,36,75049,2,0,P|300:33|360:26,1,95.9999970703126,10|8,0:1|0:0,0:0:0:0:
193,133,75374,6,0,B|117:122|140:178|57:177,1,143.999995605469,10|0,0:1|0:0,0:0:0:0:
5,119,75698,2,0,P|7:89|22:22,1,95.9999970703126,10|8,0:1|0:0,0:0:0:0:
196,154,76022,5,10,0:1:0:0:
97,258,76184,1,10,0:1:0:0:
241,310,76347,1,10,0:1:0:0:
241,310,76428,1,8,0:1:0:0:
241,310,76509,1,8,0:0:0:0:
340,205,76671,6,0,P|343:131|355:56,1,143.999995605469,10|0,0:1|0:0,0:0:0:0:
422,90,76995,2,0,P|427:43|401:4,1,95.9999970703126,10|8,0:1|0:0,0:1:0:0:
252,115,77320,5,10,0:1:0:0:
252,115,77401,1,8,0:1:0:0:
252,115,77482,2,0,L|265:173,1,47.9999985351563,8|8,0:0|0:3,0:0:0:0:
348,213,77644,5,10,0:1:0:0:
348,213,77725,1,8,0:1:0:0:
348,213,77806,2,0,L|406:200,1,47.9999985351563,8|8,0:0|0:3,0:0:0:0:
485,247,77968,6,0,B|522:331|456:376|456:376|388:341,1,191.999994140625,14|8,0:1|0:1,0:0:0:0:
258,258,78455,1,10,0:0:0:0:
394,202,78617,1,8,0:1:0:0:
309,71,78779,2,0,P|306:118|297:172,1,95.9999970703126,10|8,0:0|0:1,0:0:0:0:
298,166,79022,1,8,0:1:0:0:
298,166,79103,1,10,0:0:0:0:
162,150,79265,5,10,0:1:0:0:
219,57,79428,1,8,0:0:0:0:
77,71,79590,1,8,0:1:0:0:
173,242,79752,1,14,0:0:0:0:
173,242,79914,1,8,0:1:0:0:
306,174,80076,5,8,0:3:0:0:
328,181,80157,1,8,0:3:0:0:
352,184,80238,1,4,0:3:0:0:
376,182,80320,1,4,0:3:0:0:
399,175,80401,1,8,0:3:0:0:
421,164,80482,1,8,0:3:0:0:
438,148,80563,2,0,B|413:113|442:59|442:59|390:18,1,143.999995605469,14|0,0:1|0:1,0:1:0:0:
329,0,80887,5,10,0:1:0:0:
225,98,81049,1,10,0:0:0:0:
124,51,81211,1,2,0:0:0:0:
116,197,81374,2,0,P|191:138|280:160,1,191.999994140625,10|8,0:1|0:0,0:0:0:0:
315,315,81860,5,10,0:1:0:0:
315,315,81941,1,2,0:0:0:0:
315,315,82022,2,0,B|273:300|273:300|265:288|265:288|197:264,1,95.9999970703126,2|8,0:0|0:1,0:0:0:0:
414,220,82347,5,10,0:0:0:0:
435,339,82509,1,8,0:1:0:0:
414,220,82671,1,10,0:0:0:0:
510,200,82833,1,8,0:3:0:0:
414,220,82995,1,6,0:3:0:0:
396,135,83157,1,4,0:3:0:0:
430,21,83320,6,0,P|484:48|485:109,1,128,14|0,0:1|0:0,0:0:0:0:
396,135,83806,2,8,L|350:129,1,32,10|8,0:1|0:1,0:1:0:0:
332,100,83968,2,0,P|277:127|276:188,1,128,14|0,0:0|0:0,0:0:0:0:
212,233,84455,5,2,0:0:0:0:
243,325,84617,1,10,0:1:0:0:
316,303,84779,2,0,P|353:291|450:276,1,128,8|8,0:0|0:1,0:0:0:0:
440,276,85184,1,8,0:1:0:0:
440,276,85265,1,14,0:0:0:0:
512,328,85428,1,8,0:1:0:0:
476,205,85590,1,10,0:0:0:0:
392,134,85752,6,0,P|366:195|261:178,1,176.000005371094,14|0,0:1|0:0,0:0:0:0:
193,103,86238,1,8,0:1:0:0:
193,103,86401,1,8,0:1:0:0:
183,208,86563,1,8,0:0:0:0:
274,75,86725,1,8,0:0:0:0:
156,20,86887,1,8,0:0:0:0:
140,35,86968,1,8,0:0:0:0:
120,44,87049,1,8,0:0:0:0:
99,45,87130,1,8,0:0:0:0:
78,38,87211,1,14,0:1:0:0:
0,297,87536,6,0,L|43:291,1,44.0000013427735,8|0,1:2|2:0,2:0:0:0:
7,306,88022,6,0,L|50:300,1,35.9999989013672,8|0,1:2|0:0,0:0:0:0:
154,371,88347,6,0,P|134:295|154:218,1,160,14|8,0:1|0:1,0:0:0:0:
281,145,88833,2,0,P|273:192|268:238,1,80,10|8,0:0|0:1,0:1:0:0:
435,309,89157,1,10,0:1:0:0:
343,366,89320,2,0,P|341:326|337:286,1,80,10|8,0:1|0:0,0:0:0:0:
149,201,89644,6,0,P|118:249|60:250,1,120,10|0,0:1|0:0,0:1:0:0:
2,205,89968,2,0,P|6:172|16:118,1,80,10|8,0:1|0:0,0:0:0:0:
113,22,90292,1,10,0:1:0:0:
206,90,90455,1,10,0:1:0:0:
224,97,90536,1,8,0:1:0:0:
244,98,90617,1,8,0:1:0:0:
263,92,90698,1,8,0:1:0:0:
280,81,90779,1,8,0:0:0:0:
408,123,90941,6,0,P|455:121|492:218,1,160,10|8,0:1|0:1,0:0:0:0:
420,339,91428,2,0,P|412:284|404:254,1,80,10|8,0:0|0:1,0:0:0:0:
285,155,91752,1,10,0:1:0:0:
268,307,91914,1,10,0:1:0:0:
321,237,92076,1,8,0:0:0:0:
195,167,92238,6,0,B|97:146|141:215|34:202,1,160,14|8,0:1|0:3,0:0:0:0:
26,201,92644,1,8,0:3:0:0:
10,188,92725,1,8,0:3:0:0:
7,168,92806,1,8,0:3:0:0:
12,148,92887,1,4,0:3:0:0:
25,133,92968,1,8,0:3:0:0:
44,127,93049,6,0,B|97:122|97:122|108:127|108:127|172:119,1,120.000004577637,8|2,0:0|0:0,0:1:0:0:
337,51,93536,6,0,P|275:12|173:26,1,160,14|8,0:1|0:1,0:0:0:0:
240,149,94022,2,0,P|220:184|210:232,1,80,10|8,0:0|0:1,0:1:0:0:
300,377,94347,1,10,0:1:0:0:
307,229,94509,1,10,0:1:0:0:
259,300,94671,1,8,0:0:0:0:
396,380,94833,6,0,P|398:325|410:255,1,120,10|0,0:1|0:0,0:0:0:0:
464,207,95157,2,0,P|480:242|480:282,1,80,10|8,0:1|0:0,0:0:0:0:
326,211,95482,1,10,0:1:0:0:
420,131,95644,1,10,0:1:0:0:
430,113,95725,1,8,0:1:0:0:
435,94,95806,1,8,0:1:0:0:
435,74,95887,1,8,0:1:0:0:
429,55,95968,1,8,0:0:0:0:
283,79,96130,6,0,B|233:49|233:49|120:73,1,160,10|8,0:1|0:1,0:1:0:0:
18,142,96617,2,0,P|15:111|46:62,1,80,10|8,0:0|0:1,0:0:0:0:
155,215,96941,1,10,0:1:0:0:
22,287,97103,1,10,0:1:0:0:
65,209,97265,1,8,0:0:0:0:
180,306,97428,6,0,P|233:336|299:308,1,120,10|0,0:1|0:0,0:0:0:0:
335,263,97752,2,0,L|344:181,1,80,10|8,0:1|0:2,0:0:0:0:
400,87,98076,5,10,0:1:0:0:
400,87,98157,1,10,0:1:0:0:
400,87,98238,2,0,L|407:115,8,20,10|0|0|0|0|0|0|0|0,0:1|0:0|0:0|0:0|0:0|0:0|0:0|0:0|0:0,0:0:0:0:
400,87,98725,6,0,P|445:121|505:67,1,128,14|8,0:1|0:1,0:0:0:0:
347,12,99211,1,2,0:0:0:0:
325,110,99374,1,8,0:1:0:0:
325,110,99455,1,8,0:1:0:0:
325,110,99536,2,0,L|303:191,1,64,8|8,0:1|0:1,0:0:0:0:
163,117,99860,2,0,P|195:108|245:104,1,64,10|8,0:0|0:1,0:0:0:0:
185,209,100184,5,2,0:0:0:0:
99,183,100347,1,8,0:1:0:0:
73,269,100509,1,10,0:1:0:0:
164,301,100671,1,10,0:1:0:0:
164,301,100752,1,8,0:1:0:0:
164,301,100833,1,8,0:1:0:0:
185,209,100995,1,8,0:1:0:0:
271,235,101157,1,8,0:1:0:0:
263,362,101320,5,14,0:1:0:0:
512,299,102455,1,10,0:0:0:0:
432,264,102617,6,2,L|417:217,1,40,10|0,1:1|2:0,2:1:0:0:
401,252,102941,6,2,L|398:202,1,47.9999985351563,10|0,1:1|2:0,2:1:0:0:
378,228,103265,6,2,L|389:173,1,55.9999982910157,10|0,1:1|2:0,2:1:0:0:
478,45,103590,6,2,L|502:36,6,23.9999992675781,0|0|0|0|0|0|0,0:0|0:0|0:0|0:0|0:0|0:0|0:0,0:1:0:0:
500,36,103914,6,0,P|494:86|398:72,1,147.199995058594,14|8,0:1|0:1,0:0:0:0:
454,223,104401,2,0,P|385:198|309:189,1,147.199995058594,10|8,0:0|0:1,0:0:0:0:
230,314,104887,1,10,0:1:0:0:
327,369,105049,2,0,P|319:321|311:280,1,73.599997529297,10|8,0:0|0:1,0:0:0:0:
181,237,105374,5,2,0:0:0:0:
83,338,105536,2,0,P|89:293|99:249,1,73.599997529297,10|8,0:1|0:2,0:0:0:0:
68,144,105860,2,0,P|26:161|-17:174,1,73.599997529297,10|0,0:1|0:0,0:0:0:0:
181,237,106184,2,0,P|222:254|266:267,1,73.599997529297,10|8,0:1|0:0,0:0:0:0:
398,227,106509,6,0,P|409:150|430:58,1,147.199995058594,10|8,0:1|0:1,0:0:0:0:
301,0,106995,2,0,P|271:64|300:129,1,147.199995058594,10|8,0:0|0:1,0:0:0:0:
423,82,107482,1,10,0:1:0:0:
398,227,107644,2,0,P|389:188|371:131,1,73.599997529297,10|8,0:0|0:1,0:0:0:0:
224,86,107968,5,2,0:0:0:0:
221,228,108130,2,0,P|256:217|302:209,1,73.599997529297,10|8,0:1|0:0,0:0:0:0:
143,85,108455,2,0,P|178:96|224:104,1,73.599997529297,10|0,0:1|0:0,0:0:0:0:
145,266,108779,2,0,P|180:255|226:247,1,73.599997529297,10|8,0:1|0:0,0:0:0:0:
68,137,109103,6,0,B|89:188|89:188|76:242|33:234,1,136.000002593994,14|8,0:1|0:1,0:0:0:0:
68,117,109590,1,2,0:0:0:0:
168,173,109752,1,8,0:1:0:0:
168,173,109833,1,8,0:1:0:0:
168,173,109914,2,0,B|199:176|199:176|234:149,1,60.0000022888184,10|8,0:1|0:1,0:0:0:0:
294,81,110238,5,10,0:0:0:0:
294,81,110401,1,8,0:1:0:0:
336,141,110563,5,2,0:0:0:0:
368,74,110725,1,8,0:1:0:0:
325,13,110887,1,8,0:1:0:0:
294,81,111049,1,10,0:1:0:0:
290,86,111130,1,8,0:1:0:0:
288,91,111211,1,8,0:1:0:0:
217,63,111374,2,0,P|187:52|139:51,1,60.0000022888184,10|0,0:1|0:0,0:0:0:0:
93,134,111698,6,0,P|33:156|28:206,1,120.000004577637,10|8,0:1|0:1,0:0:0:0:
77,279,112184,2,0,L|153:268,1,60.0000022888184,2|8,0:0|0:1,0:0:0:0:
141,277,112428,1,8,0:1:0:0:
147,282,112509,2,0,L|223:271,1,60.0000022888184,10|8,0:1|0:1,0:0:0:0:
341,249,112833,5,2,0:0:0:0:
298,369,112995,2,0,P|293:341|285:311,1,60.0000022888184,10|0,0:1|0:0,0:0:0:0:
353,242,113320,2,0,P|358:212|366:183,1,60.0000022888184,10|0,0:1|0:0,0:0:0:0:
299,106,113644,1,8,0:1:0:0:
299,106,113725,1,8,0:1:0:0:
299,106,113806,1,8,0:1:0:0:
235,140,113968,1,8,0:1:0:0:
190,83,114130,1,8,0:3:0:0:
99,153,114292,6,0,B|64:188|64:188|96:298,1,151.999995941162,14|8,0:1|0:1,0:0:0:0:
215,379,114779,2,0,P|246:302|212:243,1,151.999995941162,10|8,0:0|0:1,0:0:0:0:
85,300,115265,1,10,0:1:0:0:
0,241,115428,2,0,P|4:202|22:168,1,75.9999979705811,10|8,0:0|0:1,0:0:0:0:
168,70,115752,5,2,0:0:0:0:
251,130,115914,2,0,B|289:137|289:137|325:114,1,75.9999979705811,8|8,0:1|0:0,0:0:0:0:
168,70,116238,2,0,B|155:33|155:33|117:13,1,75.9999979705811,10|0,0:1|0:0,0:0:0:0:
158,172,116563,2,0,B|132:201|132:201|134:244,1,75.9999979705811,10|8,0:1|0:0,0:0:0:0:
265,126,116887,6,0,B|299:148|335:128|335:128|351:85|388:77,1,151.999995941162,10|8,0:1|0:1,0:0:0:0:
406,199,117374,2,0,P|452:219|461:323,1,151.999995941162,10|8,0:0|0:1,0:0:0:0:
343,269,117860,1,10,0:1:0:0:
314,363,118022,1,8,0:0:0:0:
220,334,118184,1,8,0:1:0:0:
249,240,118347,1,8,0:0:0:0:
366,256,118509,6,0,B|405:226|405:226|416:154|367:118,1,167.999994873047,14|0,0:1|0:0,0:0:0:0:
326,57,118833,6,0,B|333:98|299:114|299:114|200:78,1,167.999994873047,14|0,0:1|0:0,0:0:0:0:
190,7,119157,6,0,P|131:66|165:142,1,167.999994873047,14|0,0:1|0:0,0:0:0:0:
228,190,119482,5,8,0:0:0:0:
228,190,119563,1,8,0:0:0:0:
228,190,119644,2,0,P|309:189|317:271,1,160,14|8,0:1|0:0,0:1:0:0:
240,355,120130,5,2,0:0:0:0:
162,259,120292,1,10,0:1:0:0:
162,259,120455,1,2,0:0:0:0:
87,364,120617,1,10,0:0:0:0:
87,364,120779,1,2,0:0:0:0:
1,264,120941,6,0,P|-1:224|12:180,1,80,10|0,0:1|0:0,0:0:0:0:
130,32,121265,2,0,P|132:72|148:116,1,80,10|0,0:0|0:0,0:0:0:0:
213,170,121590,5,10,0:1:0:0:
329,53,121752,1,2,0:0:0:0:
305,199,121914,1,10,0:0:0:0:
236,43,122076,1,10,0:0:0:0:
236,43,122157,1,8,0:0:0:0:
236,43,122238,1,12,0:1:0:0:
365,134,122401,5,2,0:0:0:0:
416,45,122563,1,10,0:0:0:0:
482,167,122725,2,0,P|499:247|470:330,1,160,2|0,0:0|0:0,0:0:0:0:
345,252,123211,5,10,0:0:0:0:
315,378,123374,1,2,0:0:0:0:
211,302,123536,6,0,B|178:296|178:296|167:300|167:300|132:294,1,80,10|0,0:1|0:0,0:0:0:0:
341,232,123860,2,0,B|374:226|374:226|385:230|385:230|419:224,1,80,10|0,0:0|0:0,0:0:0:0:
216,165,124184,2,0,B|183:159|183:159|172:163|172:163|137:157,1,80,10|0,0:1|0:0,0:0:0:0:
328,95,124509,2,0,B|361:89|361:89|372:93|372:93|406:87,1,80,10|0,0:0|0:0,0:0:0:0:
256,0,124833,5,14,0:0:0:0:
193,84,124995,1,10,0:1:0:0:
193,84,125157,1,10,0:1:0:0:
322,72,125320,5,14,0:0:0:0:
378,177,125482,1,10,0:1:0:0:
378,177,125644,1,10,0:1:0:0:
225,166,125806,5,14,0:0:0:0:
171,280,125968,1,10,0:1:0:0:
171,280,126130,1,10,0:1:0:0:
323,245,126292,5,14,0:0:0:0:
379,373,126455,1,10,0:1:0:0:
379,373,126617,1,10,0:1:0:0:
226,344,126779,5,14,0:0:0:0:
309,257,126941,1,10,0:1:0:0:
224,175,127103,6,0,P|187:196|168:195,1,55.9999982910157,14|2,0:2|0:0,0:0:0:0:
40,91,128887,5,10,0:1:0:0:
9,198,129049,1,10,0:1:0:0:
247,194,129374,5,10,0:1:0:0:
276,310,129536,1,10,0:1:0:0:
512,215,129860,6,0,P|426:230|344:165,1,191.999994140625,14|8,0:1|0:1,0:0:0:0:
232,47,130347,1,10,0:0:0:0:
399,10,130509,1,10,0:1:0:0:
347,170,130671,2,0,P|339:117|325:67,1,95.9999970703126,10|8,0:1|0:1,0:0:0:0:
159,193,130995,5,10,0:0:0:0:
254,267,131157,2,0,P|321:258|374:337,1,143.999995605469,10|0,0:1|0:0,0:0:0:0:
423,362,131482,2,0,P|461:370|509:337,1,95.9999970703126,10|8,0:1|0:0,0:0:0:0:
423,200,131806,2,0,P|459:170|467:124,1,95.9999970703126,10|8,0:1|0:1,0:0:0:0:
304,85,132130,2,0,P|312:47|279:-1,1,95.9999970703126,10|8,0:1|0:0,0:0:0:0:
137,115,132455,6,0,P|73:102|30:177,1,143.999995605469,10|0,0:1|0:0,0:0:0:0:
64,225,132779,2,0,P|119:214|162:209,1,95.9999970703126,10|8,0:1|0:0,0:0:0:0:
329,256,133103,5,10,0:1:0:0:
225,313,133265,1,10,0:1:0:0:
272,150,133428,1,10,0:1:0:0:
272,150,133509,1,8,0:1:0:0:
272,150,133590,1,8,0:0:0:0:
342,277,133752,6,0,P|414:321|485:291,1,143.999995605469,10|0,0:1|0:0,0:0:0:0:
512,246,134076,2,0,P|500:200|492:151,1,95.9999970703126,10|8,0:1|0:0,0:0:0:0:
295,195,134401,2,0,P|306:148|314:101,1,95.9999970703126,10|8,0:1|0:0,0:0:0:0:
311,77,134644,1,8,0:0:0:0:
301,55,134725,1,8,0:1:0:0:
286,35,134806,1,8,0:1:0:0:
265,23,134887,1,8,0:0:0:0:
139,93,135049,6,0,P|154:185|159:283,1,191.999994140625,14|8,0:1|0:1,0:0:0:0:
11,370,135536,2,0,P|16:322|29:276,1,95.9999970703126,10|8,0:0|0:1,0:0:0:0:
261,317,135860,2,0,P|252:269|241:223,1,95.9999970703126,10|0,0:0|0:0,0:0:0:0:
139,93,136184,1,10,0:0:0:0:
221,21,136347,5,10,0:1:0:0:
221,21,136428,1,8,0:1:0:0:
221,21,136509,1,8,0:0:0:0:
291,131,136671,1,8,0:1:0:0:
363,22,136833,1,10,0:0:0:0:
363,22,136995,1,8,0:1:0:0:
469,131,137157,5,8,0:0:0:0:
449,117,137238,1,8,0:0:0:0:
425,115,137320,1,8,0:3:0:0:
403,123,137401,1,8,0:3:0:0:
387,141,137482,1,4,0:3:0:0:
381,164,137563,1,4,0:3:0:0:
386,187,137644,2,0,B|432:225|432:225|392:332,1,160,14|8,0:1|0:1,0:0:0:0:
236,364,138130,5,10,0:0:0:0:
323,253,138292,1,2,0:0:0:0:
187,232,138455,1,10,0:1:0:0:
187,232,138617,1,8,0:1:0:0:
236,364,138779,1,8,0:0:0:0:
343,238,138941,6,0,P|377:162|315:32,1,223.999993164063,14|8,0:1|0:0,0:0:0:0:
324,39,139347,1,8,0:0:0:0:
324,39,139428,1,10,0:0:0:0:
228,108,139590,5,8,0:1:0:0:
228,108,139671,1,8,0:1:0:0:
228,108,139752,1,14,0:0:0:0:
124,17,139914,5,8,0:1:0:0:
124,17,139995,1,8,0:1:0:0:
124,17,140076,1,14,0:0:0:0:
0,239,140401,5,14,0:1:0:0:
71,372,140563,2,0,P|75:316|84:268,1,95.9999970703126,2|8,0:1|0:0,0:0:0:0:
307,205,140887,1,8,0:1:0:0:
194,179,141049,2,0,P|201:226|204:274,1,95.9999970703126,10|8,0:1|0:1,0:0:0:0:
52,251,141374,5,10,0:0:0:0:
169,343,141536,2,0,P|242:343|284:271,1,143.999995605469,10|0,0:1|0:0,0:0:0:0:
311,223,141860,2,0,P|347:253|353:299,1,95.9999970703126,10|8,0:1|0:0,0:0:0:0:
194,179,142184,2,0,P|149:195|106:177,1,95.9999970703126,10|8,0:1|0:1,0:0:0:0:
290,95,142509,2,0,P|298:48|335:20,1,95.9999970703126,10|8,0:1|0:0,0:0:0:0:
336,215,142833,6,0,P|376:276|361:344,1,143.999995605469,10|0,0:1|0:0,0:0:0:0:
290,374,143157,2,0,P|236:362|183:363,1,95.9999970703126,10|8,0:1|0:0,0:0:0:0:
39,270,143482,5,10,0:1:0:0:
177,190,143644,1,10,0:1:0:0:
52,117,143806,1,10,0:1:0:0:
52,117,143887,1,8,0:1:0:0:
52,117,143968,1,8,0:0:0:0:
188,209,144130,6,0,P|256:218|303:163,1,143.999995605469,10|0,0:1|0:0,0:0:0:0:
266,99,144455,2,0,B|229:90|229:90|217:94|217:94|166:82,1,95.9999970703126,10|8,0:1|0:0,0:0:0:0:
354,33,144779,2,0,B|391:28|391:28|401:20|401:20|453:13,1,95.9999970703126,10|8,0:1|0:0,0:0:0:0:
470,13,145022,1,8,0:3:0:0:
491,22,145103,1,8,0:1:0:0:
504,41,145184,1,8,0:1:0:0:
508,64,145265,1,8,0:0:0:0:
445,170,145428,6,0,P|387:145|291:231,1,191.999994140625,14|8,0:1|0:1,0:0:0:0:
469,320,145914,1,10,0:0:0:0:
385,242,146076,1,8,0:1:0:0:
280,371,146238,2,0,P|326:358|374:353,1,95.9999970703126,10|8,0:0|0:1,0:0:0:0:
272,209,146563,5,10,0:0:0:0:
196,303,146725,1,10,0:1:0:0:
196,303,146806,1,8,0:1:0:0:
196,303,146887,1,8,0:0:0:0:
152,190,147049,1,8,0:1:0:0:
228,96,147211,1,14,0:0:0:0:
228,96,147374,1,8,0:1:0:0:
293,220,147536,5,8,0:3:0:0:
312,234,147617,1,8,0:3:0:0:
335,241,147698,1,4,0:3:0:0:
358,240,147779,1,4,0:3:0:0:
381,232,147860,1,8,0:3:0:0:
400,217,147941,1,8,0:3:0:0:
413,197,148022,2,0,B|395:165|395:165|420:118|383:44,1,143.999995605469,14|0,0:1|0:0,0:0:0:0:
340,0,148347,5,10,0:1:0:0:
247,112,148509,1,10,0:0:0:0:
293,220,148671,1,2,0:0:0:0:
216,338,148833,2,0,P|144:272|46:291,1,191.999994140625,10|8,0:1|0:0,0:0:0:0:
160,126,149320,5,14,0:1:0:0:
118,239,149482,1,2,0:0:0:0:
41,146,149644,1,8,0:1:0:0:
179,114,149806,6,0,B|209:122|228:124|228:124|248:113|263:95,1,95.9999970703126,10|8,0:0|0:1,0:0:0:0:
311,38,150049,1,8,0:1:0:0:
311,38,150130,2,0,B|328:24|353:12|353:12|397:25|435:57,1,143.999995605469,14|0,0:0|0:0,0:0:0:0:
461,127,150455,2,0,P|451:172|444:222,1,80,14|2,0:1|0:0,0:0:0:0:
494,314,150779,6,0,P|438:321|363:287,1,128,14|0,0:1|0:0,0:0:0:0:
317,227,151265,2,8,B|328:173,1,32,8|8,0:1|0:1,0:1:0:0:
304,155,151428,2,0,P|245:130|182:136,1,128,14|0,0:0|0:0,0:0:0:0:
80,212,151914,5,2,0:0:0:0:
148,260,152076,2,0,L|236:240,1,64,10|8,0:1|0:0,0:0:0:0:
89,324,152401,2,0,L|1:304,1,64,2|8,0:0|0:1,0:0:0:0:
26,309,152644,1,8,0:1:0:0:
26,309,152725,1,12,0:0:0:0:
0,227,152887,1,8,0:1:0:0:
0,227,152968,1,8,0:1:0:0:
0,227,153049,1,8,0:0:0:0:
74,140,153211,6,0,B|109:181|164:160|164:160|169:113|218:80,1,176.000005371094,14|8,0:1|0:1,0:0:0:0:
317,26,153698,5,8,0:0:0:0:
358,163,153860,1,8,0:0:0:0:
425,52,154022,5,8,0:0:0:0:
349,188,154184,1,8,0:0:0:0:
227,86,154347,5,8,0:0:0:0:
210,114,154428,1,8,0:0:0:0:
182,130,154509,1,8,0:0:0:0:
149,131,154590,1,8,0:0:0:0:
120,115,154671,5,14,0:0:0:0:
45,42,154833,1,8,0:1:0:0:
79,197,154995,1,8,0:1:0:0:
142,12,155157,1,14,0:0:0:0:
36,284,155806,6,0,B|46:351|132:397|217:373|217:373|216:379|216:379|276:365|428:279|259:106|144:241|144:241|221:141|390:195|426:359|426:359|342:288|333:257|308:115|403:132|429:97|400:19|400:19|385:88|336:66|352:149,1,1536,14|4,0:1|0:0,0:0:0:0:
0,87,163752,5,12,0:0:0:0:
78,175,163914,1,8,0:1:0:0:
78,175,164076,1,8,0:1:0:0:
98,39,164238,5,14,0:0:0:0:
78,175,164401,1,8,0:1:0:0:
78,175,164563,1,8,0:1:0:0:
178,88,164725,6,0,L|317:68,1,103.999995239258,10|8,0:0|0:1,0:0:0:0:
396,109,165049,5,8,2:1:0:0:
411,136,165130,1,8,2:1:0:0:
440,151,165211,1,8,2:3:0:0:
472,149,165292,1,8,2:3:0:0:
498,130,165374,1,4,2:3:0:0:
509,100,165455,1,4,2:3:0:0:
502,68,165536,1,8,2:1:0:0:
480,45,165617,1,8,2:1:0:0:
449,37,165698,1,8,2:0:0:0:
293,183,166022,5,8,0:0:0:0:
293,183,166103,1,8,0:0:0:0:
293,183,166184,2,0,B|239:255|283:338|283:338|207:392,1,223.999993164063,14|8,0:1|0:1,0:1:0:0:
140,243,166671,2,0,B|127:340|19:330|19:330|-2:311|-1:274,1,223.999993164063,10|8,0:1|0:1,0:1:0:0:
77,116,167157,5,10,0:1:0:0:
146,226,167320,1,8,0:0:0:0:
191,160,167482,1,8,0:1:0:0:
284,248,167644,5,10,0:1:0:0:
146,226,167806,1,8,0:1:0:0:
191,160,167968,1,8,0:0:0:0:
244,96,168130,5,10,0:1:0:0:
244,96,168211,1,8,0:1:0:0:
244,96,168292,1,8,0:1:0:0:
313,153,168455,1,8,0:1:0:0:
332,65,168617,1,8,0:0:0:0:
428,140,168779,6,0,B|467:159|482:189|482:189|483:257|442:351,1,223.999993164063,14|8,0:1|0:1,0:1:0:0:
323,242,169265,2,0,B|196:221|286:138|152:118,2,223.999993164063,10|8|8,0:0|0:1|0:0,0:1:0:0:
415,161,170076,6,0,B|385:77|446:14|446:14|475:66,1,176.000005371094,10|8,0:1|0:1,0:1:0:0:
507,144,170563,2,0,P|506:189|474:237,1,88.000002685547,10|8,0:0|0:1,0:0:0:0:
336,281,170887,2,0,P|293:253|248:252,1,88.000002685547,10|8,0:0|0:1,0:0:0:0:
257,250,171130,1,8,0:1:0:0:
257,250,171211,1,8,0:0:0:0:
107,326,171374,6,2,B|112:365|112:365|59:382|59:382|6:341|40:260,1,223.999993164063,14|10,0:1|0:1,0:1:0:0:
167,161,171860,5,10,0:2:0:0:
264,258,172022,1,10,0:1:0:0:
299,125,172184,1,10,0:1:0:0:
299,125,172347,1,8,0:1:0:0:
152,174,172509,5,10,0:0:0:0:
263,278,172671,2,2,B|299:295|299:295|346:279|346:279|373:221|441:215,1,191.999994140625,10|10,0:1|0:1,0:1:0:0:
299,125,173157,5,10,0:0:0:0:
442,124,173320,1,8,0:1:0:0:
289,103,173482,5,10,0:1:0:0:
407,39,173644,1,8,0:1:0:0:
276,82,173806,5,10,0:0:0:0:
442,124,173968,2,2,B|491:158|491:158|516:266|432:340,1,240.000009155274,14|8,0:1|0:1,0:1:0:0:
321,384,174455,2,0,L|298:275,1,103.999995239258,10|8,0:0|0:1,0:0:0:0:
172,212,174779,1,10,0:1:0:0:
172,212,174941,1,8,0:1:0:0:
250,94,175103,1,10,0:0:0:0:
156,37,175265,5,10,0:1:0:0:
147,44,175347,1,2,0:0:0:0:
136,48,175428,1,2,0:0:0:0:
125,49,175509,1,2,0:0:0:0:
114,47,175590,1,10,0:1:0:0:
104,42,175671,1,2,0:0:0:0:
96,34,175752,2,0,B|72:16|72:16|28:18|20:65,1,103.999995239258,14|2,0:0|0:0,0:0:0:0:
65,159,176076,5,10,0:3:0:0:
90,155,176157,1,8,0:3:0:0:
116,151,176238,1,4,0:3:0:0:
142,147,176320,1,4,0:3:0:0:
167,143,176401,1,8,0:3:0:0:
193,139,176482,1,8,0:3:0:0:
219,135,176563,6,2,B|351:98|299:208|426:181,1,223.999993164063,14|8,0:1|0:1,0:1:0:0:
384,316,177049,2,2,P|440:302|487:291,1,103.999995239258,10|0,0:2|0:0,0:1:0:0:
302,181,177374,1,10,0:1:0:0:
250,281,177536,2,2,L|235:392,1,103.999995239258,10|8,0:1|0:0,0:1:0:0:
142,206,177860,6,2,P|115:274|42:274,1,155.999992858887,10|0,0:1|0:0,0:1:0:0:
0,206,178184,2,2,B|3:157|3:157|23:94,1,103.999995239258,10|8,0:1|0:0,0:1:0:0:
153,0,178509,2,2,L|173:119,1,103.999995239258,10|8,0:1|0:1,0:1:0:0:
312,177,178833,2,2,L|329:74,1,103.999995239258,10|8,0:1|0:0,0:1:0:0:
473,213,179157,6,2,B|532:279|488:362|488:362|445:380,1,207.999990478516,10|10,0:1|0:1,0:1:0:0:
296,275,179644,2,2,B|340:270|340:270|350:276|350:276|418:268,1,103.999995239258,10|8,0:0|0:1,0:1:0:0:
279,158,179968,1,10,0:1:0:0:
181,236,180130,1,10,0:1:0:0:
159,113,180292,1,8,0:0:0:0:
298,170,180455,6,2,B|328:164|337:139|337:139|337:88|277:16,1,155.999992858887,10|0,0:1|0:0,0:1:0:0:
228,11,180779,2,2,P|162:22|120:18,1,103.999995239258,10|8,0:1|0:0,0:1:0:0:
317,187,181103,2,2,P|383:198|425:194,1,103.999995239258,10|8,0:1|0:1,0:1:0:0:
182,292,181428,1,10,0:1:0:0:
182,292,181509,1,8,0:1:0:0:
182,292,181590,2,0,P|116:281|74:285,1,103.999995239258,8|0,0:0|0:0,0:0:0:0:
294,358,181914,6,2,B|363:320|456:369|456:369|491:361|496:310,1,223.999993164063,14|8,0:1|0:0,0:1:0:0:
303,208,182401,2,2,B|246:153|143:176|143:176|111:159|120:109,1,223.999993164063,14|8,0:1|0:1,0:1:0:0:
330,7,182887,2,10,B|319:87|391:107|391:107|402:83|431:66,1,180.000006866455,10|0,0:0|0:0,0:1:0:0:
496,42,183211,5,10,0:1:0:0:
446,179,183374,1,10,0:1:0:0:
315,115,183536,1,8,0:0:0:0:
243,78,183698,5,10,0:3:0:0:
243,78,183779,1,8,0:3:0:0:
243,78,183860,1,8,0:1:0:0:
308,207,184022,1,8,0:1:0:0:
170,253,184184,1,8,0:0:0:0:
84,281,184347,5,8,0:3:0:0:
84,281,184428,1,8,0:3:0:0:
84,281,184509,2,2,B|46:260|31:222|31:222|40:132|92:70,1,240.000009155274,14|8,0:1|0:0,0:1:0:0:
307,206,184995,2,2,B|345:185|360:147|360:147|351:57|304:1,1,240.000009155274,14|8,0:1|0:1,0:1:0:0:
212,145,185482,2,0,P|191:236|266:325,1,192,14|0,0:0|0:0,0:0:0:0:
310,353,185806,6,8,L|377:346,2,51.999997619629,10|8|8,0:3|0:3|0:1,0:3:0:0:
159,285,186130,1,8,0:1:0:0:
159,285,186211,1,8,0:1:0:0:
159,285,186292,2,0,L|92:278,1,51.999997619629,8|8,0:1|0:1,0:0:0:0:
235,208,186455,5,8,0:0:0:0:
250,187,186536,1,8,0:0:0:0:
256,162,186617,1,8,0:0:0:0:
252,136,186698,1,8,0:0:0:0:
238,115,186779,1,8,0:0:0:0:
223,95,186860,1,8,0:0:0:0:
217,70,186941,1,8,0:0:0:0:
221,44,187022,1,8,0:0:0:0:
235,22,187103,6,0,B|262:1|262:1|314:12|314:12|328:60|390:68,1,176.000005371094,14|8,0:1|0:0,0:1:0:0:
470,158,187590,1,2,0:0:0:0:
512,93,187752,2,0,P|514:53|491:9,1,80,10|0,0:1|0:0,0:0:0:0:
349,155,188076,5,10,0:0:0:0:
473,181,188238,1,2,0:0:0:0:
391,268,188401,2,0,P|353:273|284:292,1,80,10|0,0:1|0:0,0:0:0:0:
340,138,188725,2,0,P|300:132|261:122,1,80,10|0,0:0|0:0,0:0:0:0:
178,64,189049,5,10,0:1:0:0:
205,209,189211,1,2,0:0:0:0:
69,159,189374,1,10,0:0:0:0:
185,72,189536,1,2,0:0:0:0:
185,72,189617,1,2,0:0:0:0:
185,72,189698,1,14,0:1:0:0:
213,231,189860,5,2,0:0:0:0:
295,167,190022,1,10,0:0:0:0:
358,249,190184,2,0,P|441:262|500:214,1,160,2|0,0:0|0:0,0:0:0:0:
389,103,190671,5,10,0:0:0:0:
295,167,190833,1,2,0:0:0:0:
193,74,190995,6,0,P|142:34|37:59,1,176.000005371094,10|8,0:1|0:0,0:0:0:0:
162,160,191482,1,2,0:0:0:0:
62,216,191644,2,0,P|34:249|29:295,1,88.000002685547,10|0,0:1|0:0,0:0:0:0:
152,384,191968,2,0,L|180:288,1,88.000002685547,10|0,0:0|0:0,0:0:0:0:
256,192,192292,5,14,0:0:0:0:
298,298,192455,1,10,0:1:0:0:
298,298,192617,1,10,0:1:0:0:
256,192,192779,5,14,0:0:0:0:
375,233,192941,1,10,0:1:0:0:
375,233,193103,1,10,0:1:0:0:
256,192,193265,5,14,0:0:0:0:
373,126,193428,1,10,0:1:0:0:
373,126,193590,1,10,0:1:0:0:
256,192,193752,5,14,0:0:0:0:
304,55,193914,1,10,0:1:0:0:
304,55,194076,1,10,0:1:0:0:
256,192,194238,5,14,0:0:0:0:
206,38,194401,1,10,0:1:0:0:
116,91,194563,5,14,0:2:0:0:
46,318,197482,6,0,L|-10:314,1,40
57,308,197968,6,0,L|7:304,1,35.9999989013672
69,298,198455,6,0,L|26:294,1,32
123,10,202022,5,10,0:1:0:0:
49,162,202184,1,10,0:1:0:0:
193,314,202509,6,0,P|104:266|-32:287,1,207.999990478516,14|8,0:1|0:1,0:0:0:0:
121,377,202995,1,10,0:0:0:0:
218,212,203157,1,10,0:1:0:0:
309,334,203320,2,0,P|368:357|414:350,1,103.999995239258,10|8,0:1|0:1,0:0:0:0:
218,212,203644,5,10,0:0:0:0:
353,204,203806,2,0,P|394:141|366:39,1,155.999992858887,10|0,0:1|0:0,0:0:0:0:
342,1,204130,2,0,P|308:47|321:104,1,103.999995239258,10|8,0:1|0:0,0:1:0:0:
416,268,204455,2,0,P|449:248|523:252,1,103.999995239258,10|8,0:1|0:1,0:0:0:0:
330,364,204779,2,0,P|278:367|233:343,1,103.999995239258,10|8,0:1|0:0,0:0:0:0:
104,192,205103,6,0,P|57:258|65:335,1,155.999992858887,10|0,0:1|0:0,0:0:0:0:
133,363,205428,2,0,P|181:345|232:343,1,103.999995239258,10|8,0:1|0:0,0:0:0:0:
443,384,205752,5,10,0:1:0:0:
325,298,205914,1,10,0:1:0:0:
466,249,206076,1,10,0:1:0:0:
466,249,206157,1,8,0:1:0:0:
466,249,206238,1,8,0:0:0:0:
377,109,206401,6,0,L|368:219,1,103.999995239258,10|8,0:1|0:1,0:0:0:0:
194,127,206725,2,0,L|203:17,1,103.999995239258,10|8,0:1|0:0,0:0:0:0:
99,152,207049,5,10,0:1:0:0:
99,152,207211,1,8,0:1:0:0:
294,110,207374,1,10,0:1:0:0:
294,110,207536,1,8,0:0:0:0:
188,246,207698,6,0,P|107:230|11:326,1,207.999990478516,14|8,0:1|0:1,0:0:0:0:
178,382,208184,2,0,P|229:364|284:358,1,103.999995239258,10|8,0:0|0:1,0:0:0:0:
113,192,208509,2,0,P|65:181|6:150,1,103.999995239258,10|8,0:0|0:1,0:0:0:0:
137,41,208833,1,8,0:0:0:0:
205,155,208995,5,10,0:1:0:0:
205,155,209076,1,8,0:1:0:0:
205,155,209157,1,8,0:0:0:0:
314,57,209320,1,2,0:0:0:0:
342,204,209482,1,14,0:0:0:0:
342,204,209644,1,8,0:1:0:0:
205,155,209806,5,8,0:3:0:0:
181,167,209887,1,8,0:3:0:0:
157,174,209968,1,4,0:3:0:0:
131,174,210049,1,4,0:3:0:0:
106,167,210130,1,8,0:3:0:0:
83,154,210211,1,8,0:3:0:0:
66,135,210292,2,0,B|43:63|112:14|112:14|158:63,1,176.000005371094,14|8,0:1|0:1,0:0:0:0:
205,155,210779,5,10,0:0:0:0:
99,247,210941,1,10,0:1:0:0:
214,327,211103,1,10,0:1:0:0:
214,327,211265,1,8,0:1:0:0:
320,235,211428,1,10,0:0:0:0:
456,271,211590,6,0,B|486:254|494:223|494:223|491:161|446:111,1,180.000006866455,14|0,0:1|0:0,0:0:0:0:
391,72,211914,2,0,L|335:92,1,47.9999985351563,10|8,0:0|0:3,0:0:0:0:
298,30,212076,2,0,L|242:10,1,47.9999985351563,10|8,0:0|0:3,0:0:0:0:
185,48,212238,5,10,0:1:0:0:
179,61,212320,1,10,0:1:0:0:
173,74,212401,1,14,0:0:0:0:
285,159,212563,5,8,0:1:0:0:
290,172,212644,1,8,0:1:0:0:
294,183,212725,1,14,0:0:0:0:
0,301,213049,5,14,0:1:0:0:
86,376,213211,2,0,P|139:358|193:353,1,103.999995239258,2|8,0:0|0:0,0:0:0:0:
299,199,213536,1,10,0:1:0:0:
208,250,213698,2,0,P|156:244|107:226,1,103.999995239258,10|8,0:1|0:1,0:0:0:0:
271,83,214022,5,10,0:0:0:0:
394,196,214184,2,0,P|479:203|507:140,1,155.999992858887,10|0,0:1|0:0,0:1:0:0:
494,75,214509,2,0,P|446:67|380:47,1,103.999995239258,10|8,0:1|0:0,0:0:0:0:
309,226,214833,2,0,P|261:234|195:254,1,103.999995239258,10|8,0:1|0:1,0:0:0:0:
101,128,215157,2,0,P|53:120|-13:100,1,103.999995239258,10|8,0:1|0:0,0:0:0:0:
196,0,215482,6,0,P|192:73|257:108,1,155.999992858887,10|0,0:1|0:0,0:0:0:0:
328,140,215806,2,0,P|385:125|432:122,1,103.999995239258,10|8,0:1|0:0,0:0:0:0:
368,269,216130,5,10,0:1:0:0:
512,222,216292,1,10,0:1:0:0:
486,362,216455,1,10,0:1:0:0:
486,362,216536,1,8,0:1:0:0:
486,362,216617,1,8,0:0:0:0:
351,253,216779,6,0,P|290:222|187:221,1,155.999992858887,10|0,0:1|0:0,0:0:0:0:
162,154,217103,2,0,P|133:193|135:248,1,103.999995239258,10|8,0:1|0:0,0:0:0:0:
268,358,217428,5,10,0:1:0:0:
288,353,217509,1,8,0:1:0:0:
307,347,217590,1,8,0:2:0:0:
386,241,217752,5,10,0:1:0:0:
382,220,217833,1,8,0:1:0:0:
380,199,217914,1,8,0:2:0:0:
286,76,218076,6,0,B|299:135|242:141|242:141|109:94,1,207.999990478516,14|8,0:1|0:1,0:0:0:0:
22,66,218563,5,10,0:0:0:0:
159,9,218725,1,8,0:1:0:0:
20,87,218887,5,10,0:0:0:0:
205,77,219049,1,8,0:1:0:0:
17,107,219211,5,10,0:0:0:0:
237,159,219374,1,10,0:1:0:0:
237,159,219455,1,8,0:1:0:0:
237,159,219536,1,8,0:0:0:0:
275,269,219698,5,10,0:1:0:0:
367,178,219860,2,0,P|381:129|369:61,1,103.999995239258,10|8,0:0|0:1,0:0:0:0:
230,12,220184,5,14,0:0:0:0:
220,35,220265,1,8,0:0:0:0:
203,55,220347,1,8,0:3:0:0:
180,68,220428,1,8,0:3:0:0:
155,72,220509,1,4,0:3:0:0:
129,68,220590,1,4,0:3:0:0:
107,56,220671,2,0,B|76:11|-1:37|-1:37|34:115,1,155.999992858887,14|0,0:1|0:0,0:0:0:0:
43,149,220995,5,10,0:1:0:0:
188,92,221157,1,14,0:0:0:0:
169,247,221320,1,2,0:0:0:0:
314,189,221482,2,0,P|378:178|466:303,1,207.999990478516,10|8,0:1|0:0,0:0:0:0:
295,381,221968,5,14,0:1:0:0:
364,288,222130,1,2,0:0:0:0:
204,228,222292,1,10,0:1:0:0:
316,165,222455,6,0,P|331:63|283:30,1,143.999995605469,10|0,0:0|0:0,0:0:0:0:
228,14,222779,6,0,P|176:39|115:19,1,111.999996582031,14|0,0:1|0:0,0:0:0:0:
316,165,223103,6,0,P|368:190|422:173,1,88.000002685547,14|0,0:0|0:0,0:0:0:0:
226,347,223428,6,0,P|227:268|193:217,1,128,14|0,0:1|0:0,0:0:0:0:
123,190,223914,2,8,L|74:196,1,32,10|8,0:1|0:1,0:1:0:0:
49,174,224076,2,0,P|48:95|82:44,1,128,14|0,0:0|0:0,0:0:0:0:
71,54,224563,1,0,0:0:0:0:
188,127,224725,6,0,L|267:116,1,64,10|8,0:1|0:0,0:1:0:0:
357,96,225049,2,0,P|355:59|365:23,1,64,2|8,0:0|0:1,0:0:0:0:
369,23,225292,1,8,0:1:0:0:
381,18,225374,2,0,L|460:30,1,64,14|8,0:0|0:1,0:0:0:0:
512,159,225698,5,10,0:0:0:0:
433,236,225860,2,0,P|374:267|253:177,1,207.999990478516,14|8,0:1|0:1,0:0:0:0:
206,90,226347,5,10,0:1:0:0:
166,222,226509,1,8,0:0:0:0:
112,125,226671,1,8,0:0:0:0:
253,187,226833,1,8,0:0:0:0:
208,71,226995,1,8,0:0:0:0:
161,239,227157,1,8,0:0:0:0:
35,181,227320,5,14,0:1:0:0:
35,181,227482,1,8,0:1:0:0:
65,280,227644,1,8,0:1:0:0:
161,239,227806,1,10,0:0:0:0:
230,334,227968,5,8,0:3:0:0:
243,344,228049,1,8,0:3:0:0:
259,351,228130,1,4,0:3:0:0:
276,354,228211,1,4,0:3:0:0:
293,352,228292,1,8,0:3:0:0:
309,345,228374,1,8,0:3:0:0:
323,335,228455,6,0,L|342:191,1,128,14|8,0:1|0:1,0:0:0:0:
352,122,228941,1,10,0:1:0:0:
352,122,229103,1,8,0:1:0:0:
419,176,229265,1,10,0:0:0:0:
339,208,229428,1,8,0:1:0:0:
229,99,229752,6,0,L|221:21,1,64,10|0,0:1|0:0,0:0:0:0:
150,141,230076,2,0,L|144:78,1,64,10|0,0:0|0:0,0:0:0:0:
74,36,230401,1,10,0:1:0:0:
74,36,230482,1,8,0:1:0:0:
74,36,230563,1,8,0:0:0:0:
7,95,230725,1,8,0:1:0:0:
104,200,231049,6,0,L|173:183,1,64,10|0,0:1|0:0,0:0:0:0:
144,279,231374,2,0,L|207:264,1,64,10|0,0:0|0:0,0:0:0:0:
289,319,231698,1,0,0:1:0:0:
289,319,231779,1,8,0:1:0:0:
289,319,231860,1,8,0:0:0:0:
344,248,232022,1,8,0:1:0:0:
459,368,232347,6,0,B|491:345|491:345|492:303|458:245,1,128,10|8,0:1|0:0,0:0:0:0:
405,183,232833,1,2,0:0:0:0:
352,256,232995,1,8,0:1:0:0:
352,256,233076,1,8,0:1:0:0:
352,256,233157,1,8,0:0:0:0:
334,127,233320,1,14,0:1:0:0:
145,244,233644,6,0,P|77:258|22:197,1,143.999995605469,14|8,0:1|0:1,0:0:0:0:
112,110,234130,1,8,0:1:0:0:
112,110,234292,1,8,0:1:0:0:
193,159,234455,2,0,B|364:119,1,143.999995605469,10|0,0:0|0:0,0:0:0:0:
429,141,234941,6,0,P|430:105|416:72,1,71.9999978027344,10|0,0:1|0:0,0:1:0:0:
322,143,235265,2,0,P|320:178|334:211,1,71.9999978027344,10|0,0:0|0:0,0:0:0:0:
420,282,235590,2,0,L|467:271,1,35.9999989013672,10|8,0:1|0:1,0:0:0:0:
493,298,235752,2,0,P|507:330|505:366,1,71.9999978027344,10|8,0:0|0:1,0:0:0:0:
214,271,236238,6,0,L|228:170,1,80,14|0,0:1|0:0,0:0:0:0:
146,120,236563,1,8,0:3:0:0:
146,120,236644,1,8,0:3:0:0:
146,120,236725,2,0,P|143:175|151:187,1,60.0000022888184,4|8,0:3|0:1,0:0:0:0:
273,88,237049,1,8,0:0:0:0:
211,10,237211,1,8,0:1:0:0:
388,187,237536,6,0,B|432:201|432:201|490:157,1,88.000002685547,14|0,0:1|0:0,0:0:0:0:
373,77,237860,1,8,0:0:0:0:
373,77,237941,1,8,0:0:0:0:
373,77,238022,1,8,0:0:0:0:
295,197,238184,1,8,0:3:0:0:
273,88,238347,1,4,0:3:0:0:
393,212,238509,1,14,0:1:0:0:
159,60,238833,6,0,B|125:62|84:81|59:129|135:168|201:121|129:29|70:22,1,240.000009155274,14|4,0:1|0:2,0:0:0:0:
