osu file format v14

[General]
AudioFilename: audio.mp3
AudioLeadIn: 0
PreviewTime: 64570
Countdown: 0
SampleSet: Soft
StackLeniency: 0.7
Mode: 0
LetterboxInBreaks: 0
WidescreenStoryboard: 1

[Editor]
Bookmarks: 737,11403,19403,30070,38070,40736,54070,64736,94070,104736,115403,128736,139403,168736,179403,190070,200736,219403
DistanceSpacing: 1
BeatDivisor: 4
GridSize: 16
TimelineZoom: 1.8

[Metadata]
Title:color
TitleUnicode:color
Artist:CHiCO with HoneyWorks
ArtistUnicode:CHiCO with HoneyWorks
Creator:celerih
Version:vibrant
Source:
Tags:世界は恋に落ちている sekai wa koi ni ochiteiru アオハライド ao haru ride
BeatmapID:1554581
BeatmapSetID:736607

[Difficulty]
HPDrainRate:6
CircleSize:4
OverallDifficulty:8.3
ApproachRate:9
SliderMultiplier:1.7
SliderTickRate:1

[Events]
//Background and Video events
0,0,"color BG.jpg",0,0
//Break Periods
2,30270,37470
2,104936,114803
2,130070,130803
2,132736,133470
2,135403,137470
2,176736,177970
//Storyboard Layer 0 (Background)
//Storyboard Layer 1 (Fail)
//Storyboard Layer 2 (Pass)
//Storyboard Layer 3 (Foreground)
//Storyboard Sound Samples

[TimingPoints]
737,333.333333333333,4,2,2,50,1,0
8736,-166.666666666667,4,2,2,50,0,0
10070,-142.857142857143,4,2,2,50,0,0
10570,-125,4,2,2,50,0,0
11403,-100,4,2,2,50,0,0
38070,-166.666666666667,4,2,2,50,0,0
38736,-142.857142857143,4,2,2,50,0,0
39403,-125,4,2,2,50,0,0
40070,-111.111111111111,4,2,2,50,0,0
40736,-100,4,2,2,50,0,0
52736,-166.666666666667,4,2,2,50,0,0
64736,-83.3333333333333,4,2,2,50,0,1
92736,-100,4,2,2,50,0,0
127403,-166.666666666667,4,2,2,50,0,0
139403,-83.3333333333333,4,2,2,50,0,1
168070,-125,4,2,2,50,0,0
178736,-111.111111111111,4,2,2,50,0,0
179403,-90.9090909090909,4,2,2,50,0,0
190070,-125,4,2,2,50,0,0
195403,-90.9090909090909,4,2,2,50,0,1
200736,-200,4,2,2,50,0,0
201070,-66.6666666666667,4,2,2,50,0,1
201570,-83.3333333333333,4,2,2,50,0,1
218070,-200,4,2,2,50,0,0

[Colours]
Combo1 : 97,151,184
Combo2 : 203,27,80
Combo3 : 238,203,176
Combo4 : 77,54,82

[HitObjects]
106,77,737,5,0,0:0:0:0:
139,149,2070,5,0,0:0:0:0:
204,195,3403,5,0,0:0:0:0:
284,204,4736,5,0,0:0:0:0:
204,195,5403,5,0,0:0:0:0:
357,173,6070,5,0,0:0:0:0:
106,77,7403,5,0,0:0:0:0:
139,149,8070,5,0,0:0:0:0:
357,173,8736,6,0,P|286:169|214:212,1,152.999995330811
149,245,9320,1,0,0:0:0:0:
137,237,9403,2,0,P|160:234|194:237,1,50.9999984436036
312,292,9736,2,0,P|277:285|245:289,1,50.9999984436036
134,370,10070,6,0,P|148:308|131:240,1,118.999996368408
256,238,10570,2,0,P|192:246|106:202,1,136
68,134,11070,1,0,0:0:0:0:
54,120,11403,6,0,P|102:130|163:123,1,85
273,97,11736,1,0,0:0:0:0:
131,216,11903,2,0,P|179:206|240:213,1,85
354,244,12236,1,0,0:0:0:0:
186,371,12403,1,0,0:0:0:0:
228,176,12570,1,0,0:0:0:0:
346,350,12736,6,0,L|356:246,1,85
198,80,13070,2,2,L|208:184,1,85
440,269,13403,1,0,0:0:0:0:
402,250,13486,1,0,0:0:0:0:
359,247,13569,1,0,0:0:0:0:
318,259,13653,1,0,0:0:0:0:
279,276,13736,1,0,0:0:0:0:
236,281,13820,1,0,0:0:0:0:
196,265,13903,1,0,0:0:0:0:
164,236,13986,1,0,0:0:0:0:
148,196,14070,6,0,L|158:97,1,85
341,239,14403,2,0,L|351:324,1,85
85,272,14736,5,0,0:0:0:0:
193,288,14903,1,0,0:0:0:0:
355,191,15070,5,0,0:0:0:0:
247,207,15237,1,0,0:0:0:0:
54,113,15403,6,0,P|90:109|139:120,1,85
388,86,15736,2,0,P|352:82|303:93,1,85
172,286,16070,1,0,0:0:0:0:
154,103,16236,1,0,0:0:0:0:
383,202,16403,2,0,P|339:191|291:194,1,85
68,317,16736,6,0,P|163:321|197:242,2,170
38,214,17570,1,0,0:0:0:0:
38,214,17736,2,0,P|78:203|127:204,1,85
277,67,18070,6,0,P|279:115|267:157,1,85
352,144,18403,2,0,P|334:188|306:222,1,85
85,292,18736,2,0,P|131:277|197:280,1,85
462,351,19070,1,0,0:0:0:0:
472,361,19403,6,0,P|396:333|299:346,2,170
488,236,20236,2,0,P|448:246|393:241,1,85
271,67,20570,6,0,P|302:142|219:155,1,170
154,155,20986,1,0,0:0:0:0:
143,153,21070,2,0,P|186:145|227:156,1,85
372,271,21403,2,0,L|381:174,1,85
217,51,21736,2,0,L|226:147,1,85
464,284,22070,6,0,P|419:267|364:268,1,85
251,361,22403,2,0,P|288:330|314:282,1,85
358,180,22736,2,0,P|316:173|278:154,1,85
129,236,23070,2,0,P|167:218|209:211,1,85
477,285,23403,5,0,0:0:0:0:
359,76,23570,1,0,0:0:0:0:
359,76,23653,1,0,0:0:0:0:
359,76,23736,2,0,P|403:75|460:86,1,85
274,299,24070,1,0,0:0:0:0:
252,72,24236,1,0,0:0:0:0:
457,205,24403,2,0,P|419:195|369:193,1,85
123,300,24736,5,0,0:0:0:0:
90,325,24819,1,0,0:0:0:0:
48,323,24902,1,0,0:0:0:0:
17,296,24985,1,0,0:0:0:0:
11,255,25069,1,0,0:0:0:0:
32,219,25152,1,0,0:0:0:0:
72,205,25236,2,0,L|129:212,1,42.5
236,315,25403,5,0,0:0:0:0:
236,315,25486,1,0,0:0:0:0:
236,315,25570,2,0,P|234:293|236:264,1,42.5
311,163,25736,1,0,0:0:0:0:
311,163,25819,1,0,0:0:0:0:
311,163,25903,2,0,P|309:185|311:214,1,42.5
378,333,26070,5,0,0:0:0:0:
418,323,26153,1,0,0:0:0:0:
450,295,26236,1,0,0:0:0:0:
466,256,26319,1,0,0:0:0:0:
462,214,26403,1,0,0:0:0:0:
440,179,26486,1,0,0:0:0:0:
403,158,26569,1,0,0:0:0:0:
361,156,26653,1,0,0:0:0:0:
323,173,26736,6,0,P|271:178|210:163,1,85
137,60,27070,1,0,0:0:0:0:
58,280,27236,1,0,0:0:0:0:
58,280,27320,1,0,0:0:0:0:
58,280,27403,6,0,P|88:223|199:240,1,170
240,305,27903,1,0,0:0:0:0:
420,197,28070,2,0,P|377:185|312:189,1,85
204,224,28403,1,0,0:0:0:0:
342,25,28570,6,0,L|331:120,1,85
205,331,28903,2,0,L|194:235,1,85
111,98,29236,1,0,0:0:0:0:
111,98,29320,1,0,0:0:0:0:
111,98,29403,1,0,0:0:0:0:
335,220,29570,1,0,0:0:0:0:
335,220,29654,1,0,0:0:0:0:
335,220,29737,1,0,0:0:0:0:
243,53,29903,1,0,0:0:0:0:
178,352,30070,5,0,0:0:0:0:
281,261,38070,6,0,L|286:192,1,50.9999984436036
339,142,38403,1,0,0:0:0:0:
345,323,38736,5,0,0:0:0:0:
345,323,38820,1,0,0:0:0:0:
345,323,38903,1,0,0:0:0:0:
407,262,39070,2,0,L|400:202,1,59.4999981842042
197,200,39403,6,0,P|258:217|326:176,1,136
319,101,39903,1,0,0:0:0:0:
319,101,39986,1,0,0:0:0:0:
319,101,40070,2,0,L|327:180,1,76.4999976654053
404,272,40403,2,0,L|412:193,1,76.4999976654053
476,148,40653,1,0,0:0:0:0:
485,163,40736,6,0,P|419:198|307:148,1,170
281,92,41236,1,0,0:0:0:0:
251,261,41403,1,0,0:0:0:0:
407,119,41570,2,0,B|323:146|323:100|226:119,1,170
66,173,42070,6,0,P|108:158|169:160,1,85
246,283,42403,2,0,P|236:238|241:186,1,85
264,126,42653,1,0,0:0:0:0:
267,130,42736,1,0,0:0:0:0:
329,289,42903,1,0,0:0:0:0:
139,201,43070,2,0,P|186:207|238:200,1,85
395,59,43403,6,0,P|300:71|289:146,1,170
333,212,43903,1,0,0:0:0:0:
190,138,44070,1,0,0:0:0:0:
238,309,44237,2,0,B|244:240|244:240|258:200|258:200|267:117,1,170
165,55,44737,6,0,P|162:96|180:149,1,85
357,221,45070,2,0,P|320:208|263:213,1,85
197,242,45320,1,0,0:0:0:0:
197,242,45403,1,0,0:0:0:0:
240,89,45570,1,0,0:0:0:0:
55,126,45737,2,0,P|104:135|154:125,1,85
313,34,46070,5,0,0:0:0:0:
328,212,46236,2,0,P|333:180|334:148,1,42.5
300,30,46403,1,0,0:0:0:0:
387,187,46570,2,0,P|378:155|366:126,1,42.5
287,32,46737,1,0,0:0:0:0:
187,155,46904,2,0,P|259:142|315:216,1,170
201,363,47404,6,0,P|205:317|216:271,1,85
161,208,47736,2,0,P|157:162|146:116,1,85
105,56,47986,1,0,0:0:0:0:
108,60,48070,1,0,0:0:0:0:
66,231,48237,1,0,0:0:0:0:
173,120,48404,2,0,P|221:125|272:119,1,85
322,75,48653,1,0,0:0:0:0:
317,62,48736,6,0,B|274:101|274:101|290:211,1,170
314,318,49236,1,0,0:0:0:0:
415,99,49403,1,0,0:0:0:0:
464,275,49570,1,0,0:0:0:0:
313,205,49736,2,0,P|318:155|312:113,1,85
77,217,50070,6,2,P|122:216|162:202,1,85
184,47,50403,2,2,P|162:86|154:128,1,85
207,308,50736,2,2,P|228:268|236:226,1,85
242,111,51070,2,2,P|265:149|297:177,1,85
435,187,51403,5,0,0:0:0:0:
424,193,52070,6,0,P|391:192|362:183,2,56.6666666666667
408,122,52403,2,0,P|381:111|358:95,2,56.6666666666667,0|0|0,2:0|2:0|2:0,2:0:0:0:
426,49,52736,6,0,P|380:71|314:61,1,101.999996887207
145,133,53403,2,0,P|191:111|257:121,1,101.999996887207
375,193,54070,5,0,0:0:0:0:
440,134,54403,5,0,0:0:0:0:
418,116,54514,1,0,0:0:0:0:
392,107,54625,1,0,0:0:0:0:
364,107,54736,1,0,0:0:0:0:
403,95,55070,5,0,0:0:0:0:
375,87,55181,1,0,0:0:0:0:
348,89,55292,1,0,0:0:0:0:
322,101,55403,1,0,0:0:0:0:
349,74,55736,5,0,0:0:0:0:
320,78,55847,1,0,0:0:0:0:
296,90,55958,1,0,0:0:0:0:
277,112,56069,1,0,0:0:0:0:
260,134,56181,1,0,0:0:0:0:
241,156,56292,1,0,0:0:0:0:
217,168,56403,1,0,0:0:0:0:
188,172,56514,1,0,0:0:0:0:
161,166,56625,1,0,0:0:0:0:
138,150,56736,5,0,0:0:0:0:
72,208,57070,5,0,0:0:0:0:
94,226,57181,1,0,0:0:0:0:
120,235,57292,1,0,0:0:0:0:
148,235,57403,1,0,0:0:0:0:
109,247,57737,5,0,0:0:0:0:
137,255,57848,1,0,0:0:0:0:
164,253,57959,1,0,0:0:0:0:
190,241,58070,1,0,0:0:0:0:
163,268,58403,5,0,0:0:0:0:
192,264,58514,1,0,0:0:0:0:
216,252,58625,1,0,0:0:0:0:
235,230,58736,1,0,0:0:0:0:
252,208,58848,1,0,0:0:0:0:
271,186,58959,1,0,0:0:0:0:
295,174,59070,1,0,0:0:0:0:
324,170,59181,1,0,0:0:0:0:
351,176,59292,1,0,0:0:0:0:
374,192,59403,5,0,0:0:0:0:
440,250,59736,5,0,0:0:0:0:
418,268,59847,1,0,0:0:0:0:
392,277,59958,1,0,0:0:0:0:
364,277,60069,1,0,0:0:0:0:
403,289,60403,5,0,0:0:0:0:
375,297,60514,1,0,0:0:0:0:
348,295,60625,1,0,0:0:0:0:
322,283,60736,1,0,0:0:0:0:
349,310,61070,5,0,0:0:0:0:
322,308,61181,1,0,0:0:0:0:
298,295,61292,1,0,0:0:0:0:
281,273,61403,1,0,0:0:0:0:
275,247,61514,1,0,0:0:0:0:
281,221,61625,1,0,0:0:0:0:
296,199,61736,1,0,0:0:0:0:
320,185,61847,1,0,0:0:0:0:
347,183,61958,1,0,0:0:0:0:
373,190,62069,5,0,0:0:0:0:
395,108,62403,5,0,0:0:0:0:
421,117,62514,1,0,0:0:0:0:
441,136,62625,1,0,0:0:0:0:
456,160,62736,1,0,0:0:0:0:
461,186,62848,2,0,P|459:213|451:242,1,33.9999989624024
484,296,63070,1,0,0:0:0:0:
466,314,63182,2,0,P|444:330|417:344,1,33.9999989624024
331,358,63403,5,0,0:0:0:0:
311,353,64736,6,0,P|348:341|424:344,1,101.999996887207
459,132,65070,2,0,P|436:167|388:207,1,101.999996887207
193,197,65403,2,0,P|231:205|298:256,1,101.999996887207
77,361,65736,1,0,0:0:0:0:
105,83,65903,1,0,0:0:0:0:
272,295,66070,6,0,B|307:244|307:244|281:97,1,203.999993774414
87,61,66570,1,0,0:0:0:0:
122,237,66736,2,0,P|171:243|226:227,1,101.999996887207
483,150,67070,2,0,P|434:156|379:140,1,101.999996887207
224,315,67403,6,0,P|233:229|333:251,1,203.999993774414
424,299,67903,1,0,0:0:0:0:
272,105,68070,2,0,P|269:153|287:206,1,101.999996887207
436,292,68403,1,0,0:0:0:0:
390,46,68570,1,0,0:0:0:0:
175,214,68736,6,0,P|212:206|280:216,1,101.999996887207
446,309,69070,2,0,P|409:317|341:307,1,101.999996887207
94,171,69403,1,0,0:0:0:0:
78,166,69570,1,0,0:0:0:0:
206,306,69736,1,0,0:0:0:0:
149,56,69903,1,0,0:0:0:0:
0,273,70070,6,0,P|41:261|108:270,1,101.999996887207
282,342,70403,2,0,P|384:372|463:320,1,203.999993774414
441,112,70903,1,0,0:0:0:0:
365,262,71070,2,0,P|358:220|360:158,1,101.999996887207
207,34,71403,5,0,0:0:0:0:
172,236,71570,1,0,0:0:0:0:
364,58,71736,2,0,B|264:87|264:40|155:62,1,203.999993774414
71,122,72236,1,0,0:0:0:0:
162,348,72403,2,0,P|172:307|168:229,1,101.999996887207
107,35,72736,5,0,0:0:0:0:
64,257,72903,1,0,0:0:0:0:
3,76,73070,1,0,0:0:0:0:
230,179,73236,1,0,0:0:0:0:
230,179,73320,1,0,0:0:0:0:
230,179,73403,1,0,0:0:0:0:
120,19,73570,1,0,0:0:0:0:
72,279,73736,2,0,P|81:214|70:154,1,101.999996887207
42,113,73986,1,0,0:0:0:0:
42,113,74070,5,0,0:0:0:0:
4,328,74236,1,0,0:0:0:0:
164,172,74403,2,0,P|162:122|179:55,1,101.999996887207
147,356,74736,1,0,0:0:0:0:
104,353,74819,1,0,0:0:0:0:
68,331,74902,1,0,0:0:0:0:
46,296,74985,1,0,0:0:0:0:
42,254,75069,1,0,0:0:0:0:
58,215,75152,1,0,0:0:0:0:
91,188,75235,1,0,0:0:0:0:
132,178,75319,1,0,0:0:0:0:
172,188,75403,6,0,P|214:192|271:172,1,101.999996887207
377,21,75736,2,0,P|352:55|334:116,1,101.999996887207
345,324,76070,1,0,0:0:0:0:
441,148,76236,1,0,0:0:0:0:
253,222,76403,2,0,P|297:214|359:220,1,101.999996887207
159,384,76736,6,0,P|157:336|142:280,1,101.999996887207
182,177,77070,2,0,P|179:130|195:72,1,101.999996887207
422,87,77403,1,0,0:0:0:0:
255,245,77570,1,0,0:0:0:0:
313,21,77736,2,0,P|319:71|308:124,1,101.999996887207
143,332,78070,6,0,P|101:270|180:189,1,203.999993774414
277,244,78570,1,0,0:0:0:0:
50,184,78736,1,0,0:0:0:0:
216,102,78903,1,0,0:0:0:0:
190,363,79070,2,0,P|193:315|176:259,1,101.999996887207
3,92,79403,6,0,B|102:121|102:70|207:94,1,203.999993774414
305,237,79903,1,0,0:0:0:0:
305,237,79986,1,0,0:0:0:0:
305,237,80070,1,0,0:0:0:0:
274,78,80236,1,0,0:0:0:0:
126,222,80403,2,0,P|79:229|12:209,1,101.999996887207
214,0,80736,6,0,B|234:55|234:55|215:202,1,203.999993774414
65,314,81236,1,0,0:0:0:0:
65,314,81320,1,0,0:0:0:0:
65,314,81403,1,0,0:0:0:0:
115,126,81570,1,0,0:0:0:0:
0,207,81736,2,0,P|40:203|110:215,1,101.999996887207
251,340,82070,5,0,0:0:0:0:
312,105,82236,1,0,0:0:0:0:
192,264,82403,2,0,P|181:221|188:153,1,101.999996887207
373,336,82736,1,0,0:0:0:0:
325,102,82903,1,0,0:0:0:0:
209,273,83070,1,0,0:0:0:0:
471,183,83236,1,0,0:0:0:0:
471,183,83320,1,0,0:0:0:0:
471,183,83403,5,0,0:0:0:0:
288,370,83570,1,0,0:0:0:0:
213,154,83736,2,0,P|207:91|217:53,1,101.999996887207
263,3,83986,1,0,0:0:0:0:
263,3,84070,1,0,0:0:0:0:
320,209,84236,1,0,0:0:0:0:
106,91,84403,2,0,P|144:83|223:89,1,101.999996887207
49,333,84736,5,0,0:0:0:0:
94,98,84903,1,0,0:0:0:0:
231,288,85070,1,0,0:0:0:0:
15,198,85236,1,0,0:0:0:0:
52,217,85319,1,0,0:0:0:0:
94,223,85402,1,0,0:0:0:0:
136,215,85485,1,0,0:0:0:0:
172,194,85569,1,0,0:0:0:0:
211,177,85652,1,0,0:0:0:0:
253,178,85735,1,0,0:0:0:0:
292,195,85819,1,0,0:0:0:0:
320,226,85902,1,0,0:0:0:0:
86,147,86070,6,0,P|81:100|93:40,1,101.999996887207
156,282,86403,1,0,0:0:0:0:
233,118,86570,6,0,P|238:71|226:11,1,101.999996887207
162,297,86903,1,0,0:0:0:0:
65,99,87070,6,0,P|60:52|72:-8,1,101.999996887207
166,312,87403,1,0,0:0:0:0:
237,78,87570,1,0,0:0:0:0:
246,338,87736,5,0,0:0:0:0:
149,57,87903,1,0,0:0:0:0:
359,204,88070,2,0,P|356:142|367:90,1,101.999996887207
403,45,88320,1,0,0:0:0:0:
403,45,88403,1,0,0:0:0:0:
370,71,88486,1,0,0:0:0:0:
328,82,88570,1,0,0:0:0:0:
286,75,88653,1,0,0:0:0:0:
257,43,88736,6,0,B|277:107|277:107|252:246,1,203.999993774414
211,350,89236,1,0,0:0:0:0:
126,80,89403,5,0,0:0:0:0:
89,290,89570,1,0,0:0:0:0:
236,37,89736,5,0,0:0:0:0:
273,247,89903,1,0,0:0:0:0:
105,57,90070,6,0,P|59:45|2:50,1,101.999996887207
345,139,90403,2,0,P|299:151|242:146,1,101.999996887207
103,26,90736,1,0,0:0:0:0:
138,275,90903,1,0,0:0:0:0:
288,68,91070,2,0,P|240:57|179:65,1,101.999996887207
20,225,91403,5,0,0:0:0:0:
46,258,91486,1,0,0:0:0:0:
86,271,91570,1,0,0:0:0:0:
128,266,91653,1,0,0:0:0:0:
165,245,91736,1,0,0:0:0:0:
202,223,91820,1,0,0:0:0:0:
245,223,91903,1,0,0:0:0:0:
280,246,91986,1,0,0:0:0:0:
294,286,92070,1,0,0:0:0:0:
283,327,92153,1,0,0:0:0:0:
249,352,92236,1,0,0:0:0:0:
206,353,92320,1,0,0:0:0:0:
173,325,92403,1,0,0:0:0:0:
148,33,92570,5,0,0:0:0:0:
148,33,92653,1,0,0:0:0:0:
148,33,92736,1,0,0:0:0:0:
162,38,94070,6,0,B|186:90|186:90|158:213,2,170
66,28,94903,1,0,0:0:0:0:
96,140,95070,1,0,0:0:0:0:
266,101,95236,6,0,P|190:86|106:123,1,170
14,195,95736,2,0,P|60:191|115:206,1,85
267,336,96070,2,0,L|275:245,1,85
184,87,96403,2,0,L|192:177,1,85
417,132,96736,6,0,P|372:127|328:137,1,85
178,190,97070,2,0,P|229:176|325:242,1,170
343,354,97570,1,0,0:0:0:0:
445,202,97736,2,0,P|445:244|434:285,1,85
277,171,98070,6,0,P|365:204|442:165,1,170
439,49,98570,1,0,0:0:0:0:
461,218,98736,1,0,0:0:0:0:
289,151,98903,1,0,0:0:0:0:
266,139,98986,1,0,0:0:0:0:
241,133,99069,1,0,0:0:0:0:
216,133,99152,1,0,0:0:0:0:
191,139,99236,1,0,0:0:0:0:
169,151,99319,1,0,0:0:0:0:
148,168,99402,5,0,0:0:0:0:
92,338,99570,1,0,0:0:0:0:
239,239,99736,2,0,L|156:247,1,85
80,254,99986,1,0,0:0:0:0:
80,254,100070,1,0,0:0:0:0:
165,78,100236,2,0,P|168:124|160:168,1,85
0,124,100570,1,0,0:0:0:0:
0,124,100653,1,0,0:0:0:0:
0,124,100736,6,0,P|41:114|101:118,1,85
252,240,101070,1,0,0:0:0:0:
234,117,101236,1,0,0:0:0:0:
155,331,101403,1,0,0:0:0:0:
133,344,101486,1,0,0:0:0:0:
108,347,101569,1,0,0:0:0:0:
84,341,101652,1,0,0:0:0:0:
64,325,101736,1,0,0:0:0:0:
52,302,101819,1,0,0:0:0:0:
51,277,101902,1,0,0:0:0:0:
59,253,101986,1,0,0:0:0:0:
77,235,102069,5,0,0:0:0:0:
211,158,102236,2,0,P|167:162|113:154,1,85
141,317,102570,2,0,P|159:276|193:234,1,85
316,139,102903,2,0,P|299:100|273:65,2,85
344,347,103403,5,0,0:0:0:0:
360,242,103570,1,0,0:0:0:0:
227,140,103736,5,0,0:0:0:0:
243,245,103903,1,0,0:0:0:0:
407,98,104070,2,0,P|368:86|316:89,1,85
121,183,104403,1,0,0:0:0:0:
103,186,104736,5,0,0:0:0:0:
382,155,115403,6,0,P|296:133|222:197,1,170
172,295,115903,1,0,0:0:0:0:
172,295,115986,1,0,0:0:0:0:
172,295,116070,2,0,P|172:248|160:201,1,85
50,91,116403,2,0,P|84:122|127:144,1,85
200,127,116653,1,0,0:0:0:0:
213,121,116736,6,0,P|260:117|315:130,1,85
398,189,117070,2,0,P|351:185|296:198,1,85
182,286,117403,1,0,0:0:0:0:
212,143,117570,1,0,0:0:0:0:
297,357,117736,2,0,L|305:266,1,85
346,197,117986,1,0,0:0:0:0:
358,209,118070,6,0,P|303:258|203:228,1,170
165,92,118570,1,0,0:0:0:0:
165,92,118653,1,0,0:0:0:0:
165,92,118736,1,0,0:0:0:0:
131,192,118903,1,0,0:0:0:0:
260,99,119070,2,0,P|220:110|170:104,1,85
369,20,119403,6,0,L|358:117,1,85
299,254,119736,2,0,L|288:156,1,85
279,95,119986,1,0,0:0:0:0:
279,95,120070,1,0,0:0:0:0:
385,192,120236,1,0,0:0:0:0:
260,302,120403,2,0,P|255:255|267:191,1,85
422,67,120736,6,0,P|348:107|255:75,1,170
195,0,121236,1,0,0:0:0:0:
195,0,121320,1,0,0:0:0:0:
195,0,121403,1,0,0:0:0:0:
152,161,121570,1,0,0:0:0:0:
288,104,121736,2,0,P|235:94|192:102,1,85
54,182,122070,6,0,P|101:174|195:252,1,170
174,345,122570,1,0,0:0:0:0:
235,157,122736,1,0,0:0:0:0:
257,262,122903,1,0,0:0:0:0:
143,154,123070,2,0,L|133:238,1,85
0,313,123403,5,0,0:0:0:0:
80,353,123570,1,0,0:0:0:0:
5,222,123736,2,0,L|13:306,1,85
146,241,124070,1,0,0:0:0:0:
108,125,124236,1,0,0:0:0:0:
30,320,124403,2,0,P|78:324|120:310,1,85
212,92,124736,5,0,0:0:0:0:
186,86,125070,5,0,0:0:0:0:
240,74,125181,1,0,0:0:0:0:
293,94,125292,1,0,0:0:0:0:
327,139,125403,1,0,0:0:0:0:
338,194,125514,1,0,0:0:0:0:
368,241,125625,1,0,0:0:0:0:
422,256,125736,1,0,0:0:0:0:
476,239,125847,1,0,0:0:0:0:
504,189,125959,1,0,0:0:0:0:
495,133,126070,5,0,0:0:0:0:
332,165,127403,6,0,P|274:154|219:161,1,101.999996887207
71,237,128070,2,0,P|129:226|184:233,1,101.999996887207
324,300,128736,5,0,0:0:0:0:
253,290,131403,5,0,0:0:0:0:
195,248,134070,5,0,0:0:0:0:
190,107,138070,5,0,0:0:0:0:
159,260,138736,5,0,0:0:0:0:
204,101,138903,1,0,0:0:0:0:
305,353,139070,1,0,0:0:0:0:
319,360,139403,6,0,P|323:306|303:251,1,101.999996887207
130,160,139736,2,0,P|172:186|232:198,1,101.999996887207
414,108,140070,2,0,P|381:135|317:159,1,101.999996887207
204,313,140403,1,0,0:0:0:0:
201,109,140570,1,0,0:0:0:0:
338,347,140736,6,0,B|349:221,1,101.999996887207
307,29,141070,1,0,0:0:0:0:
234,214,141236,1,0,0:0:0:0:
479,133,141403,2,0,P|430:131|376:114,1,101.999996887207
148,243,141736,2,0,P|206:242|248:228,1,101.999996887207
329,9,142069,6,0,B|298:62|298:62|320:205,1,203.999993774414
352,343,142569,1,0,0:0:0:0:
166,265,142736,2,0,P|117:257|58:263,1,101.999996887207
253,363,143069,1,0,0:0:0:0:
288,107,143236,1,0,0:0:0:0:
71,276,143403,6,0,P|69:224|83:171,1,101.999996887207
182,34,143736,2,0,P|180:86|194:139,1,101.999996887207
293,273,144069,1,0,0:0:0:0:
290,289,144236,1,0,0:0:0:0:
459,165,144403,2,0,P|414:154|350:158,1,101.999996887207
160,359,144736,6,0,P|168:314|157:256,1,101.999996887207
105,111,145069,2,0,P|111:35|203:99,1,203.999993774414
148,269,145569,1,0,0:0:0:0:
314,131,145736,2,0,P|307:85|317:27,1,101.999996887207
418,330,146069,5,0,0:0:0:0:
436,117,146236,1,0,0:0:0:0:
291,290,146403,2,0,B|311:233|311:233|281:92,1,203.999993774414
217,61,146820,1,0,0:0:0:0:
217,61,146903,1,0,0:0:0:0:
238,97,146986,1,0,0:0:0:0:
273,120,147069,1,0,0:0:0:0:
315,128,147153,1,0,0:0:0:0:
356,118,147236,1,0,0:0:0:0:
389,92,147319,1,0,0:0:0:0:
408,55,147403,5,0,0:0:0:0:
383,283,147569,1,0,0:0:0:0:
310,29,147736,1,0,0:0:0:0:
265,282,147902,1,0,0:0:0:0:
265,282,147986,1,0,0:0:0:0:
265,282,148069,1,0,0:0:0:0:
422,67,148236,1,0,0:0:0:0:
191,115,148403,2,0,P|127:114|85:101,1,101.999996887207
43,43,148652,1,0,0:0:0:0:
43,43,148736,5,0,0:0:0:0:
150,269,148902,1,0,0:0:0:0:
299,3,149069,2,0,P|282:63|294:123,1,101.999996887207
335,160,149320,1,0,0:0:0:0:
335,160,149403,1,0,0:0:0:0:
297,140,149486,1,0,0:0:0:0:
256,143,149569,1,0,0:0:0:0:
222,167,149653,1,0,0:0:0:0:
206,206,149736,1,0,0:0:0:0:
213,248,149819,1,0,0:0:0:0:
241,279,149903,1,0,0:0:0:0:
282,290,149986,1,0,0:0:0:0:
322,278,150070,6,0,P|364:274|422:290,1,101.999996887207
363,65,150403,2,0,P|324:113|309:153,1,101.999996887207
356,374,150736,1,0,0:0:0:0:
401,148,150903,1,0,0:0:0:0:
171,297,151069,2,0,P|227:286|273:291,1,101.999996887207
316,352,151320,1,0,0:0:0:0:
308,363,151403,6,0,P|310:315|323:256,1,101.999996887207
268,160,151736,2,0,P|266:112|253:53,1,101.999996887207
224,283,152069,1,0,0:0:0:0:
371,52,152236,1,0,0:0:0:0:
405,250,152403,1,0,0:0:0:0:
184,135,152570,1,0,0:0:0:0:
184,135,152653,1,0,0:0:0:0:
184,135,152736,6,0,P|223:67|343:80,1,203.999993774414
257,276,153236,1,0,0:0:0:0:
197,49,153402,1,0,0:0:0:0:
149,263,153569,1,0,0:0:0:0:
432,114,153736,2,0,P|383:112|327:95,1,101.999996887207
16,209,154070,6,0,P|64:194|115:192,1,101.999996887207
303,289,154403,1,0,0:0:0:0:
229,46,154569,1,0,0:0:0:0:
229,46,154652,1,0,0:0:0:0:
229,46,154736,1,0,0:0:0:0:
126,218,154902,1,0,0:0:0:0:
355,117,155069,2,0,P|357:71|344:12,1,101.999996887207
67,157,155402,6,0,P|140:133|214:226,1,203.999993774414
107,359,155902,1,0,0:0:0:0:
107,359,155986,1,0,0:0:0:0:
107,359,156069,1,0,0:0:0:0:
83,134,156236,1,0,0:0:0:0:
0,261,156403,2,0,P|40:257|112:272,1,101.999996887207
261,355,156736,5,0,0:0:0:0:
191,129,156902,1,0,0:0:0:0:
317,239,157069,2,0,P|321:194|305:127,1,101.999996887207
107,278,157402,1,0,0:0:0:0:
164,51,157569,1,0,0:0:0:0:
238,334,157736,1,0,0:0:0:0:
8,225,157902,1,0,0:0:0:0:
8,225,157986,1,0,0:0:0:0:
8,225,158069,5,0,0:0:0:0:
218,135,158236,1,0,0:0:0:0:
105,380,158403,2,0,P|104:328|117:275,1,101.999996887207
189,237,158652,1,0,0:0:0:0:
189,237,158736,1,0,0:0:0:0:
143,258,158819,1,0,0:0:0:0:
93,252,158902,1,0,0:0:0:0:
54,220,158986,1,0,0:0:0:0:
39,172,159069,1,0,0:0:0:0:
51,123,159152,1,0,0:0:0:0:
88,89,159236,1,0,0:0:0:0:
137,79,159319,1,0,0:0:0:0:
184,98,159402,5,0,0:0:0:0:
138,122,159486,1,0,0:0:0:0:
86,121,159570,1,0,0:0:0:0:
41,96,159653,1,0,0:0:0:0:
23,48,159736,5,0,0:0:0:0:
289,111,159903,1,0,0:0:0:0:
289,111,159986,1,0,0:0:0:0:
289,111,160070,1,0,0:0:0:0:
11,191,160236,1,0,0:0:0:0:
11,191,160320,1,0,0:0:0:0:
11,191,160403,1,0,0:0:0:0:
191,39,160570,1,0,0:0:0:0:
106,285,160736,6,0,P|108:233|122:174,1,101.999996887207
267,93,161069,1,0,0:0:0:0:
98,314,161236,6,0,P|89:262|90:202,1,101.999996887207
247,92,161569,1,0,0:0:0:0:
94,342,161736,6,0,P|74:293|63:234,1,101.999996887207
226,91,162069,1,0,0:0:0:0:
275,276,162236,1,0,0:0:0:0:
306,78,162402,5,0,0:0:0:0:
200,305,162569,1,0,0:0:0:0:
462,173,162736,2,0,P|411:162|362:160,1,101.999996887207
310,218,162986,1,0,0:0:0:0:
310,218,163069,1,0,0:0:0:0:
328,180,163152,1,0,0:0:0:0:
330,136,163236,1,0,0:0:0:0:
315,97,163319,1,0,0:0:0:0:
275,65,163402,6,0,P|362:89|423:6,1,203.999993774414
200,30,163902,1,0,0:0:0:0:
238,293,164069,5,0,0:0:0:0:
348,107,164236,1,0,0:0:0:0:
341,352,164403,5,0,0:0:0:0:
232,157,164570,1,0,0:0:0:0:
460,251,164736,6,0,P|416:231|357:222,1,101.999996887207
108,338,165070,2,0,P|152:318|211:309,1,101.999996887207
423,369,165402,1,0,0:0:0:0:
467,113,165569,1,0,0:0:0:0:
285,263,165736,2,0,P|296:215|291:163,1,85
46,288,166070,5,0,0:0:0:0:
86,317,166153,1,0,0:0:0:0:
136,321,166236,1,0,0:0:0:0:
182,299,166320,1,0,0:0:0:0:
209,257,166403,1,0,0:0:0:0:
211,207,166486,1,0,0:0:0:0:
185,162,166570,1,0,0:0:0:0:
146,128,166653,1,0,0:0:0:0:
133,78,166736,1,0,0:0:0:0:
149,29,166820,1,0,0:0:0:0:
195,9,166903,1,0,0:0:0:0:
243,24,166986,1,0,0:0:0:0:
268,68,167070,2,0,P|271:124|263:169,1,101.999996887207
145,365,167403,5,0,0:0:0:0:
23,30,167653,1,0,0:0:0:0:
374,92,167903,1,0,0:0:0:0:
131,235,168070,5,0,0:0:0:0:
121,223,168736,6,0,P|151:210|196:205,1,68
317,274,169070,2,0,P|287:261|242:256,1,68
179,281,169320,1,0,0:0:0:0:
179,281,169403,1,0,0:0:0:0:
213,135,169570,1,0,0:0:0:0:
122,209,169736,2,0,P|123:181|116:140,1,68
50,102,169986,1,0,0:0:0:0:
61,112,170070,6,0,P|96:117|141:107,1,68
197,60,170403,1,0,0:0:0:0:
208,239,170570,2,0,P|211:188|226:136,1,102
242,125,170903,1,0,0:0:0:0:
351,217,171070,2,0,P|312:209|281:209,1,68
215,250,171320,1,0,0:0:0:0:
204,255,171403,6,0,P|170:254|136:246,1,68
68,164,171736,1,0,0:0:0:0:
43,317,171903,2,0,L|36:224,1,68
148,161,172236,2,0,L|155:68,2,68
127,289,172736,5,0,0:0:0:0:
157,323,172848,1,0,0:0:0:0:
197,342,172959,1,0,0:0:0:0:
242,345,173070,1,0,0:0:0:0:
284,329,173181,1,0,0:0:0:0:
317,298,173292,1,0,0:0:0:0:
330,254,173403,1,0,0:0:0:0:
330,208,173514,1,0,0:0:0:0:
343,164,173625,1,0,0:0:0:0:
376,133,173736,1,0,0:0:0:0:
418,117,173847,1,0,0:0:0:0:
463,120,173958,1,0,0:0:0:0:
503,139,174069,5,0,0:0:0:0:
179,190,178570,6,0,P|196:193|211:201,1,34
248,367,178736,2,0,B|258:337|258:337|241:308|241:308|263:274|263:274|228:232|223:163|270:116,1,267.749991828919
333,102,179403,6,0,P|279:103|226:86,1,93.5000028533936
81,142,179736,2,0,P|135:143|188:126,1,93.5000028533936
290,29,180070,1,0,0:0:0:0:
315,224,180236,2,0,P|325:178|323:127,1,93.5000028533936
246,281,180570,6,0,P|338:305|409:233,1,187.000005706787
446,180,180986,1,0,0:0:0:0:
431,174,181070,2,0,L|427:285,1,93.5000028533936
201,153,181403,2,0,P|251:153|305:167,1,93.5000028533936
481,82,181736,2,0,P|431:82|377:96,1,93.5000028533936
242,234,182070,5,0,0:0:0:0:
213,103,182236,1,0,0:0:0:0:
366,204,182403,2,0,L|374:85,1,93.5000028533936
480,339,182736,1,0,0:0:0:0:
509,208,182902,1,0,0:0:0:0:
356,309,183069,2,0,L|348:190,1,93.5000028533936
198,10,183403,6,0,P|189:62|191:103,1,93.5000028533936
274,358,183736,2,0,P|283:306|281:265,1,93.5000028533936
167,118,184070,1,0,0:0:0:0:
300,249,184236,1,0,0:0:0:0:
142,355,184403,2,0,P|138:302|146:238,1,93.5000028533936
318,100,184736,5,0,0:0:0:0:
318,100,184903,1,0,0:0:0:0:
440,220,185070,2,0,B|377:213|377:213|316:189|316:189|229:180,1,187.000005706787
154,179,185570,1,0,0:0:0:0:
167,286,185736,2,0,P|175:237|166:188,1,93.5000028533936
39,48,186070,5,0,0:0:0:0:
39,48,186237,1,0,0:0:0:0:
17,212,186404,2,0,P|31:157|145:163,1,187.000005706787
156,268,186904,1,0,0:0:0:0:
140,368,187070,2,0,P|133:319|143:263,1,93.5000028533936
314,100,187403,5,0,0:0:0:0:
314,100,187570,1,0,0:0:0:0:
120,156,187736,2,0,P|215:150|277:221,1,187.000005706787
252,330,188236,1,0,0:0:0:0:
224,127,188403,1,0,0:0:0:0:
111,361,188570,1,0,0:0:0:0:
51,107,188736,5,0,0:0:0:0:
38,142,188819,1,0,0:0:0:0:
40,179,188902,1,0,0:0:0:0:
57,212,188986,1,0,0:0:0:0:
85,236,189069,1,0,0:0:0:0:
120,248,189152,1,0,0:0:0:0:
157,244,189236,1,0,0:0:0:0:
190,227,189319,1,0,0:0:0:0:
221,206,189403,5,0,0:0:0:0:
254,189,189486,1,0,0:0:0:0:
291,185,189570,1,0,0:0:0:0:
326,197,189653,1,0,0:0:0:0:
354,221,189736,1,0,0:0:0:0:
371,254,189820,1,0,0:0:0:0:
373,291,189903,1,0,0:0:0:0:
361,326,189986,1,0,0:0:0:0:
337,355,190070,5,0,0:0:0:0:
328,350,191403,6,0,P|377:357|432:352,2,90.6666666666667
179,193,192070,1,0,0:0:0:0:
164,190,192736,6,0,P|217:159|304:172,1,136
343,238,193236,1,0,0:0:0:0:
392,114,193403,2,0,L|384:31,1,68
467,171,193736,2,0,L|459:254,1,68
278,360,194070,5,0,0:0:0:0:
328,217,194236,1,0,0:0:0:0:
399,384,194403,1,0,0:0:0:0:
448,164,194570,1,0,0:0:0:0:
295,348,194736,1,0,0:0:0:0:
262,112,194903,1,0,0:0:0:0:
485,334,195070,2,0,L|490:256,1,68
354,15,195403,5,0,0:0:0:0:
306,188,195570,1,0,0:0:0:0:
448,106,195736,2,0,P|401:104|352:114,1,93.5000028533936
252,274,196070,2,0,P|271:231|310:196,1,93.5000028533936
463,226,196403,1,0,0:0:0:0:
253,384,196570,1,0,0:0:0:0:
253,384,196653,1,0,0:0:0:0:
253,384,196736,6,0,P|263:333|258:270,1,93.5000028533936
172,120,197070,1,0,0:0:0:0:
109,358,197236,1,0,0:0:0:0:
109,358,197320,1,0,0:0:0:0:
109,358,197403,1,0,0:0:0:0:
281,164,197570,1,0,0:0:0:0:
76,254,197736,2,0,P|119:246|191:257,1,93.5000028533936
386,366,198070,5,0,0:0:0:0:
427,171,198236,1,0,0:0:0:0:
278,275,198403,2,0,L|269:159,1,93.5000028533936
379,48,198736,1,0,0:0:0:0:
430,277,198902,1,0,0:0:0:0:
282,158,199070,1,0,0:0:0:0:
512,78,199236,1,0,0:0:0:0:
261,15,199403,5,0,0:0:0:0:
214,11,199486,1,0,0:0:0:0:
172,29,199569,1,0,0:0:0:0:
142,64,199653,1,0,0:0:0:0:
132,110,199736,1,0,0:0:0:0:
143,154,199819,1,0,0:0:0:0:
174,189,199903,1,0,0:0:0:0:
206,223,199986,1,0,0:0:0:0:
219,263,200070,5,0,0:0:0:0:
217,300,200153,1,0,0:0:0:0:
204,330,200236,1,0,0:0:0:0:
180,345,200320,1,0,0:0:0:0:
161,358,200403,2,0,P|206:348|261:353,1,93.5000028533936
416,144,200736,6,0,P|381:133|340:132,1,63.75
421,240,201070,6,0,P|482:213|448:54,1,255.000009727478
242,219,201570,1,0,0:0:0:0:
309,113,201736,1,0,0:0:0:0:
344,333,201903,1,0,0:0:0:0:
439,84,202070,5,0,0:0:0:0:
403,250,202236,1,0,0:0:0:0:
269,29,202403,2,0,B|228:81|228:81|242:223,1,203.999993774414
344,346,202903,1,0,0:0:0:0:
493,213,203070,2,0,P|439:223|373:212,1,101.999996887207
96,38,203403,6,0,P|157:19|174:141,1,203.999993774414
13,270,203903,1,0,0:0:0:0:
13,270,203986,1,0,0:0:0:0:
13,270,204070,1,0,0:0:0:0:
75,27,204236,1,0,0:0:0:0:
214,217,204403,2,0,P|218:279|210:333,1,101.999996887207
163,371,204653,1,0,0:0:0:0:
163,371,204736,5,0,0:0:0:0:
112,116,204903,1,0,0:0:0:0:
312,270,205070,2,0,P|308:208|316:154,1,101.999996887207
358,103,205320,1,0,0:0:0:0:
358,103,205403,1,0,0:0:0:0:
397,376,205570,1,0,0:0:0:0:
185,225,205736,2,0,P|243:224|297:206,1,101.999996887207
64,24,206070,6,0,P|52:74|51:144,1,101.999996887207
317,194,206403,2,0,P|279:158|219:122,1,101.999996887207
79,348,206736,1,0,0:0:0:0:
28,127,206903,1,0,0:0:0:0:
231,320,207070,2,0,P|231:269|218:197,1,101.999996887207
131,4,207403,5,0,0:0:0:0:
33,249,207570,1,0,0:0:0:0:
274,121,207736,2,0,P|226:125|162:116,1,101.999996887207
330,26,208070,1,0,0:0:0:0:
366,60,208153,1,0,0:0:0:0:
384,107,208236,1,0,0:0:0:0:
379,158,208320,1,0,0:0:0:0:
352,200,208403,1,0,0:0:0:0:
309,227,208486,1,0,0:0:0:0:
258,231,208570,1,0,0:0:0:0:
0,134,208736,5,0,0:0:0:0:
21,264,208903,1,0,0:0:0:0:
137,78,209070,1,0,0:0:0:0:
96,320,209236,1,0,0:0:0:0:
19,125,209403,1,0,0:0:0:0:
204,243,209570,1,0,0:0:0:0:
129,13,209736,2,0,P|125:57|126:92,1,50.9999984436036
35,146,209903,2,0,P|39:190|38:225,1,50.9999984436036
104,358,210070,5,0,0:0:0:0:
145,83,210236,1,0,0:0:0:0:
23,224,210403,1,0,0:0:0:0:
250,160,210570,1,0,0:0:0:0:
290,154,210653,1,0,0:0:0:0:
329,165,210736,1,0,0:0:0:0:
356,195,210820,1,0,0:0:0:0:
369,233,210903,1,0,0:0:0:0:
396,263,210986,1,0,0:0:0:0:
436,272,211070,1,0,0:0:0:0:
476,265,211153,1,0,0:0:0:0:
500,232,211236,1,0,0:0:0:0:
504,191,211320,1,0,0:0:0:0:
479,158,211403,6,0,P|422:147|376:150,1,101.999996887207
169,236,211736,1,0,0:0:0:0:
421,115,211903,6,0,P|364:126|318:123,1,101.999996887207
111,37,212236,1,0,0:0:0:0:
362,164,212403,6,0,P|305:153|259:156,1,101.999996887207
52,242,212736,1,0,0:0:0:0:
104,25,212903,1,0,0:0:0:0:
111,309,213070,5,0,0:0:0:0:
58,96,213237,1,0,0:0:0:0:
276,185,213403,2,0,P|341:190|388:174,1,101.999996887207
424,125,213653,1,0,0:0:0:0:
424,125,213736,1,0,0:0:0:0:
398,169,213820,1,0,0:0:0:0:
394,219,213903,1,0,0:0:0:0:
414,265,213986,1,0,0:0:0:0:
456,294,214070,6,0,P|405:278|351:275,1,101.999996887207
59,174,214403,2,0,P|110:158|164:155,1,101.999996887207
210,367,214736,5,0,0:0:0:0:
295,148,214903,1,0,0:0:0:0:
127,40,215070,5,0,0:0:0:0:
187,260,215237,1,0,0:0:0:0:
345,77,215403,5,0,0:0:0:0:
285,297,215570,1,0,0:0:0:0:
113,157,215736,2,0,P|169:141|248:139,1,101.999996887207
405,273,216070,1,0,0:0:0:0:
325,63,216236,1,0,0:0:0:0:
506,131,216403,2,0,P|457:126|404:137,1,101.999996887207
292,355,216736,5,0,0:0:0:0:
340,341,216819,1,0,0:0:0:0:
376,306,216902,1,0,0:0:0:0:
390,258,216986,1,0,0:0:0:0:
378,209,217069,1,0,0:0:0:0:
344,172,217152,1,0,0:0:0:0:
295,157,217236,1,0,0:0:0:0:
246,168,217319,1,0,0:0:0:0:
205,199,217403,5,0,0:0:0:0:
154,206,217486,1,0,0:0:0:0:
104,192,217570,1,0,0:0:0:0:
67,157,217653,1,0,0:0:0:0:
47,109,217736,2,0,P|44:65|52:7,1,101.999996887207
376,314,218070,1,0,0:0:0:0:
393,319,218736,6,0,P|326:269|244:277,1,170
