osu file format v14

[General]
AudioFilename: audio.mp3
AudioLeadIn: 0
PreviewTime: 64570
Countdown: 0
SampleSet: None
StackLeniency: 0.7
Mode: 0
LetterboxInBreaks: 0
WidescreenStoryboard: 1

[Editor]
Bookmarks: 737,11403,19403,30070,38070,40736,54070,64736,94070,104736,115403,128736,139403,168736,179403,190070,200736,219403
DistanceSpacing: 0.9
BeatDivisor: 2
GridSize: 16
TimelineZoom: 1.2

[Metadata]
Title:color
TitleUnicode:color
Artist:CHiCO with HoneyWorks
ArtistUnicode:CHiCO with HoneyWorks
Creator:celerih
Version:normal
Source:
Tags:世界は恋に落ちている sekai wa koi ni ochiteiru アオハライド ao haru ride
BeatmapID:1590943
BeatmapSetID:736607

[Difficulty]
HPDrainRate:3
CircleSize:3
OverallDifficulty:3.5
ApproachRate:5
SliderMultiplier:1.1
SliderTickRate:1

[Events]
//Background and Video events
0,0,"color BG.jpg",0,0
//Break Periods
2,30270,36630
2,54270,63536
2,104936,113963
2,128936,138143
2,168936,178143
//Storyboard Layer 0 (Background)
//Storyboard Layer 1 (Fail)
//Storyboard Layer 2 (Pass)
//Storyboard Layer 3 (Foreground)
//Storyboard Sound Samples

[TimingPoints]
737,333.333333333333,4,2,2,50,1,0
64736,-100,4,2,2,50,0,1
92736,-100,4,2,2,50,0,0
139403,-100,4,2,2,50,0,1
168070,-100,4,2,2,50,0,0
195403,-100,4,2,2,50,0,1
200736,-100,4,2,2,50,0,0
201570,-100,4,2,2,50,0,1
218070,-100,4,2,2,50,0,0

[Colours]
Combo1 : 97,151,184
Combo2 : 203,27,80
Combo3 : 238,203,176
Combo4 : 77,54,82

[HitObjects]
131,88,737,5,0,0:0:0:0:
367,156,2070,5,0,0:0:0:0:
81,210,3403,5,0,0:0:0:0:
310,329,4736,6,0,P|383:343|468:236,2,220
202,56,7403,6,0,P|129:42|44:149,2,220
326,210,9403,1,0,0:0:0:0:
183,347,10070,6,0,P|127:353|62:326,1,110
42,299,10570,2,0,B|27:251|27:251|48:176,1,110
62,147,11070,1,0,0:0:0:0:
150,191,11403,6,0,P|211:200|290:169,1,110
300,164,11903,1,0,0:0:0:0:
409,63,12403,2,0,L|415:121,1,55
444,157,12736,6,0,L|437:215,1,55
428,260,13070,1,0,0:0:0:0:
330,278,13403,1,0,0:0:0:0:
243,229,13736,1,0,0:0:0:0:
222,131,14070,6,0,L|229:56,2,55
146,195,14736,2,0,L|153:269,2,55
83,118,15403,6,0,L|90:41,2,55
34,204,16070,1,0,0:0:0:0:
76,293,16403,1,0,0:0:0:0:
174,301,16736,6,0,P|240:287|377:344,1,220
468,384,17736,1,0,0:0:0:0:
458,285,18070,2,0,B|466:205|466:205|487:149|487:149|498:45,1,220
424,0,19070,1,0,0:0:0:0:
388,92,19403,6,0,P|341:112|258:104,1,110
189,78,20070,1,0,0:0:0:0:
189,78,20236,1,0,0:0:0:0:
206,175,20570,2,0,B|192:292,1,110
187,333,21070,1,0,0:0:0:0:
281,305,21403,2,0,P|326:292|390:298,1,110
477,365,22070,6,0,B|466:313|466:313|479:243,1,110
504,162,22736,1,0,0:0:0:0:
407,183,23070,1,0,0:0:0:0:
427,86,23403,2,0,P|373:63|310:66,1,110
227,92,24070,2,0,P|195:95|146:83,1,55
125,75,24403,1,0,0:0:0:0:
52,142,24736,6,0,P|26:231|131:257,1,220
207,201,25736,1,0,0:0:0:0:
278,132,26070,2,0,P|374:153|352:249,1,220
258,279,27070,1,0,0:0:0:0:
163,248,27403,5,0,0:0:0:0:
138,101,27903,2,0,P|190:86|250:90,1,110
327,144,28570,1,0,0:0:0:0:
424,129,28903,2,0,B|412:162|412:162|418:243,1,110
439,281,29403,2,0,P|411:276|380:279,1,55
337,294,29736,2,0,P|309:297|278:293,1,55
234,278,30070,5,0,0:0:0:0:
402,196,38070,6,0,L|410:129,2,55
369,289,38736,2,0,L|377:355,2,55
304,213,39403,2,0,B|247:200|247:200|132:214,1,165
92,221,40070,2,0,P|94:197|91:165,1,55
73,120,40403,1,0,0:0:0:0:
22,34,40736,6,0,B|81:22|81:22|145:37,1,110
225,59,41403,1,0,0:0:0:0:
321,36,41736,1,0,0:0:0:0:
414,68,42070,2,0,P|425:127|398:187,1,110
317,212,42736,2,0,B|226:206,1,55
212,204,43070,1,0,0:0:0:0:
113,197,43403,6,0,B|99:254|99:254|110:308,1,110
171,381,44070,1,0,0:0:0:0:
203,287,44403,1,0,0:0:0:0:
202,286,44570,2,0,P|275:323|356:313,1,165
408,229,45403,1,0,0:0:0:0:
360,142,45736,1,0,0:0:0:0:
405,53,46070,6,0,L|279:66,1,110
198,85,46736,2,0,L|105:75,1,55
93,72,47070,1,0,0:0:0:0:
25,144,47403,2,0,P|12:201|24:252,1,110
89,324,48070,2,0,P|146:337|197:325,1,110
280,275,48736,6,0,L|267:143,1,110
260,66,49403,1,0,0:0:0:0:
183,129,49736,1,0,0:0:0:0:
162,31,50070,2,0,P|90:92|121:206,1,220
214,222,51070,1,0,0:0:0:0:
297,169,51403,5,0,0:0:0:0:
411,309,52736,6,0,P|361:321|303:309,1,110
222,253,53403,2,0,P|168:241|115:253,1,110
34,311,54070,1,0,0:0:0:0:
166,285,64736,6,0,L|152:156,1,110
200,87,65403,1,0,0:0:0:0:
258,166,65736,1,0,0:0:0:0:
258,166,65903,2,0,B|296:155|296:155|393:167,1,110
414,172,66403,1,0,0:0:0:0:
431,269,66736,2,0,P|388:288|309:278,1,110
279,268,67236,1,0,0:0:0:0:
279,268,67403,5,0,0:0:0:0:
310,174,67736,2,0,L|298:63,1,110
289,15,68236,1,0,0:0:0:0:
289,15,68403,1,0,0:0:0:0:
204,65,68736,2,0,B|184:109|184:109|195:199,1,110
216,266,69403,2,0,B|209:320,2,55
281,191,70070,5,0,0:0:0:0:
315,283,70403,2,0,P|373:294|452:266,1,110
463,255,70903,1,0,0:0:0:0:
463,255,71070,1,0,0:0:0:0:
416,167,71403,5,0,0:0:0:0:
469,83,71736,2,0,B|416:73|416:73|344:90,1,110
314,101,72236,1,0,0:0:0:0:
314,101,72403,1,0,0:0:0:0:
238,164,72736,6,0,P|290:189|353:184,2,110
203,70,73736,1,0,0:0:0:0:
144,149,74070,1,0,0:0:0:0:
144,149,74236,1,0,0:0:0:0:
164,246,74570,2,0,L|294:232,1,110
322,231,75070,1,0,0:0:0:0:
372,331,75403,6,0,P|316:337|262:320,1,110
232,228,76070,1,0,0:0:0:0:
153,287,76403,1,0,0:0:0:0:
153,287,76570,2,0,L|141:177,1,110
136,128,77070,1,0,0:0:0:0:
204,57,77403,2,0,P|261:46|327:64,1,110
380,138,78070,6,0,B|339:159|339:159|210:142,1,165
171,139,78736,1,0,0:0:0:0:
83,185,79070,1,0,0:0:0:0:
86,283,79403,2,0,P|148:333|241:305,1,165
258,279,80070,1,0,0:0:0:0:
303,191,80403,1,0,0:0:0:0:
249,107,80736,6,0,P|304:97|362:111,1,110
439,162,81403,2,0,B|451:214|451:214|433:299,1,110
417,313,81903,2,0,B|356:324|356:324|280:311,1,110
260,303,82403,2,0,P|208:297|141:310,2,110
313,219,83403,6,0,P|358:166|285:47,1,220
207,95,84403,1,0,0:0:0:0:
116,60,84736,1,0,0:0:0:0:
116,60,84903,2,0,L|122:-4,2,55
118,159,85570,1,0,0:0:0:0:
118,159,85736,1,0,0:0:0:0:
124,260,86070,6,0,P|194:281|289:252,2,165
37,209,87403,2,0,L|25:98,1,110
92,25,88070,1,0,0:0:0:0:
179,70,88403,2,0,P|179:105|177:135,1,55
160,171,88736,6,0,P|229:129|363:192,1,220
383,267,89736,1,0,0:0:0:0:
339,356,90070,2,0,L|217:343,1,110
163,270,90736,2,0,L|284:257,1,110
369,245,91403,6,0,P|385:199|371:131,1,110
297,77,92070,2,0,L|234:71,1,55
199,97,92403,2,0,L|136:102,1,55
97,85,92736,1,0,0:0:0:0:
237,314,94070,6,0,P|178:312|117:338,2,110
283,332,94903,1,0,0:0:0:0:
347,257,95236,2,0,B|361:204|361:204|344:135,1,110
331,103,95736,1,0,0:0:0:0:
238,66,96070,2,0,L|227:175,1,110
214,273,96736,6,0,P|166:284|88:269,2,110
297,219,97736,1,0,0:0:0:0:
374,156,98070,2,0,P|422:146|487:161,1,110
505,253,98736,2,0,L|502:314,1,55
500,357,99070,1,0,0:0:0:0:
404,332,99403,6,0,L|337:339,2,55
342,254,100070,2,0,L|275:246,2,55
269,329,100736,2,0,P|184:352|107:319,1,165
84,285,101403,1,0,0:0:0:0:
137,201,101736,1,0,0:0:0:0:
87,114,102070,5,0,0:0:0:0:
87,114,102236,2,0,L|216:104,1,110
295,96,102903,1,0,0:0:0:0:
276,243,103403,2,0,L|267:312,2,55
216,164,104070,2,0,L|207:94,2,55
176,254,104736,5,0,0:0:0:0:
392,183,115403,6,0,P|344:174|271:190,1,110
225,275,116070,2,0,P|273:266|346:282,1,110
423,316,116736,2,0,B|449:269|449:269|437:151,1,165
426,110,117403,1,0,0:0:0:0:
332,141,117736,1,0,0:0:0:0:
236,113,118070,6,0,L|224:2,1,110
141,56,118736,2,0,L|129:166,1,110
130,214,119236,2,0,P|192:237|289:190,1,165
343,124,120070,1,0,0:0:0:0:
441,134,120403,1,0,0:0:0:0:
463,230,120736,6,0,P|403:296|265:245,1,220
224,193,121736,1,0,0:0:0:0:
125,180,122070,2,0,B|118:146|118:146|129:57,2,110
157,273,123070,1,0,0:0:0:0:
180,368,123403,6,0,P|216:372|256:360,1,55
279,349,123736,1,0,0:0:0:0:
361,293,124070,1,0,0:0:0:0:
453,327,124403,1,0,0:0:0:0:
505,243,124736,1,0,0:0:0:0:
352,116,125403,2,0,P|289:104|218:123,1,110
189,194,126070,5,0,0:0:0:0:
401,321,127403,2,0,P|351:330|266:311,1,110
205,274,128070,2,0,P|155:265|70:284,1,110
19,334,128736,5,0,0:0:0:0:
344,241,139403,6,0,B|356:182|356:182|347:113,1,110
313,40,140070,1,0,0:0:0:0:
255,120,140403,1,0,0:0:0:0:
255,120,140570,2,0,P|201:132|137:119,1,110
110,90,141070,1,0,0:0:0:0:
64,177,141403,2,0,L|77:293,1,110
86,334,141903,1,0,0:0:0:0:
86,334,142070,5,0,0:0:0:0:
172,285,142403,2,0,P|225:275|300:291,1,110
322,308,142903,1,0,0:0:0:0:
322,308,143070,1,0,0:0:0:0:
415,276,143403,2,0,L|428:148,1,110
380,78,144070,2,0,B|373:19,2,55
336,167,144737,5,0,0:0:0:0:
282,83,145070,2,0,P|224:70|156:86,1,110
134,107,145570,1,0,0:0:0:0:
134,107,145737,1,0,0:0:0:0:
170,199,146070,5,0,0:0:0:0:
138,292,146403,2,0,L|255:280,1,110
297,280,146903,1,0,0:0:0:0:
297,280,147070,1,0,0:0:0:0:
375,220,147403,6,0,L|484:231,2,110
282,182,148403,1,0,0:0:0:0:
192,225,148737,1,0,0:0:0:0:
192,225,148903,1,0,0:0:0:0:
151,315,149237,2,0,P|93:325|38:312,1,110
5,282,149737,1,0,0:0:0:0:
46,192,150070,6,0,L|34:82,1,110
91,1,150737,1,0,0:0:0:0:
131,91,151070,1,0,0:0:0:0:
131,91,151237,2,0,P|191:98|249:78,1,110
278,55,151737,1,0,0:0:0:0:
325,141,152070,2,0,B|336:177|336:177|325:252,1,110
245,306,152737,6,0,P|309:278|429:314,1,165
425,336,153403,1,0,0:0:0:0:
477,251,153737,1,0,0:0:0:0:
453,154,154070,2,0,P|389:126|269:162,1,165
264,178,154737,1,0,0:0:0:0:
170,211,155070,1,0,0:0:0:0:
80,168,155403,6,0,L|90:47,1,110
177,12,156070,2,0,L|187:133,1,110
217,159,156570,2,0,P|275:169|342:152,1,110
361,126,157070,2,0,P|419:116|486:133,2,110
376,223,158070,6,0,P|404:312|285:327,1,220
248,261,159070,1,0,0:0:0:0:
149,270,159403,1,0,0:0:0:0:
149,270,159570,2,0,P|89:275|15:244,1,110
7,170,160237,1,0,0:0:0:0:
7,170,160403,1,0,0:0:0:0:
64,88,160737,6,0,L|229:71,2,165
7,170,162070,2,0,P|64:187|129:166,1,110
182,106,162737,1,0,0:0:0:0:
280,107,163070,2,0,L|273:170,1,55
269,211,163403,6,0,B|207:242|207:242|57:216,1,220
23,123,164403,1,0,0:0:0:0:
79,41,164737,2,0,L|200:27,1,110
269,84,165403,2,0,L|390:97,1,110
472,64,166070,6,0,P|462:123|466:180,1,110
489,268,166737,2,0,L|414:260,1,55
388,242,167070,2,0,L|313:249,1,55
286,263,167403,2,0,L|185:251,2,82.5
318,224,168070,6,0,P|359:132|265:76,1,220
162,129,179403,6,0,P|209:118|276:145,1,110
334,209,180070,1,0,0:0:0:0:
334,209,180236,1,0,0:0:0:0:
315,306,180570,2,0,B|372:317|372:317|444:301,1,110
468,287,181070,1,0,0:0:0:0:
449,189,181403,2,0,L|455:116,1,55
456,84,181736,1,0,0:0:0:0:
370,34,182070,5,0,0:0:0:0:
279,74,182403,1,0,0:0:0:0:
200,13,182736,2,0,L|115:20,1,55
95,23,183070,1,0,0:0:0:0:
129,115,183403,2,0,B|140:156|140:156|128:236,1,110
86,312,184070,2,0,P|116:308|144:308,1,55
188,320,184403,2,0,P|246:331|316:319,1,110
368,257,185070,6,0,L|356:144,2,110
387,354,186070,1,0,0:0:0:0:
464,292,186403,2,0,L|475:179,2,110
368,257,187403,2,0,P|293:238|213:268,1,165
183,307,188070,1,0,0:0:0:0:
143,216,188403,1,0,0:0:0:0:
186,127,188736,6,0,B|241:109|241:109|377:134,1,165
381,162,189403,2,0,L|373:227,1,55
336,248,189736,2,0,L|343:313,1,55
352,351,190070,1,0,0:0:0:0:
507,120,191403,6,0,P|469:82|312:112,1,220
236,284,192736,6,0,B|186:301|186:301|60:282,1,165
26,273,193403,1,0,0:0:0:0:
0,175,193736,1,0,0:0:0:0:
64,99,194070,2,0,L|58:44,2,55
116,182,194736,2,0,L|110:236,2,55
163,95,195403,5,0,0:0:0:0:
218,176,195736,2,0,P|277:191|328:172,1,110
354,138,196236,1,0,0:0:0:0:
354,138,196403,1,0,0:0:0:0:
266,91,196736,1,0,0:0:0:0:
349,38,197069,2,0,L|458:49,1,110
507,57,197569,1,0,0:0:0:0:
507,57,197736,1,0,0:0:0:0:
466,147,198069,6,0,P|459:207|472:271,2,110
404,69,199069,1,0,0:0:0:0:
304,64,199403,1,0,0:0:0:0:
304,64,199569,1,0,0:0:0:0:
224,122,199903,2,0,P|212:188|226:257,1,110
252,265,200403,1,0,0:0:0:0:
311,185,200736,5,0,0:0:0:0:
238,118,201070,1,0,0:0:0:0:
151,168,201403,1,0,0:0:0:0:
172,264,201736,1,0,0:0:0:0:
172,264,201903,2,0,P|232:278|285:264,1,110
314,233,202403,1,0,0:0:0:0:
410,255,202736,2,0,L|396:382,1,110
299,371,203403,6,0,P|258:283|280:196,1,165
304,185,204069,1,0,0:0:0:0:
337,91,204403,1,0,0:0:0:0:
275,9,204736,2,0,P|183:-2|107:19,1,165
76,47,205402,1,0,0:0:0:0:
106,141,205736,1,0,0:0:0:0:
75,235,206069,6,0,P|133:225|192:229,1,110
260,290,206736,2,0,P|318:300|381:294,1,110
408,266,207236,2,0,P|418:208|412:145,1,110
391,113,207736,2,0,B|376:-23,2,110
317,179,208736,6,0,L|261:173,1,55
220,148,209070,2,0,L|164:153,1,55
127,185,209403,2,0,L|71:179,1,55
31,150,209736,1,0,0:0:0:0:
42,51,210069,1,0,0:0:0:0:
42,51,210236,2,0,P|97:40|158:49,1,110
213,122,210903,1,0,0:0:0:0:
213,122,211069,1,0,0:0:0:0:
295,66,211403,6,0,B|308:122|308:122|286:242,2,165
198,42,212736,2,0,P|135:35|74:44,1,110
38,125,213403,1,0,0:0:0:0:
68,219,213736,2,0,L|61:280,1,55
40,318,214069,6,0,P|133:285|265:322,1,220
325,373,215069,1,0,0:0:0:0:
417,336,215403,2,0,L|402:206,1,110
323,169,216070,2,0,L|308:298,1,110
230,336,216736,6,0,P|169:344|116:330,1,110
63,252,217403,2,0,L|70:181,1,55
107,166,217736,2,0,L|99:95,1,55
77,67,218069,1,0,0:0:0:0:
226,196,218736,6,0,P|351:221|459:178,1,220
