osu file format v14

[General]
AudioFilename: audio.mp3
AudioLeadIn: 0
PreviewTime: 64570
Countdown: 0
SampleSet: None
StackLeniency: 0.7
Mode: 0
LetterboxInBreaks: 0
WidescreenStoryboard: 1

[Editor]
Bookmarks: 737,11403,19403,30070,38070,40736,54070,64736,94070,104736,115403,128736,139403,168736,179403,190070,200736,219403
DistanceSpacing: 1
BeatDivisor: 2
GridSize: 16
TimelineZoom: 1.8

[Metadata]
Title:color
TitleUnicode:color
Artist:CHiCO with HoneyWorks
ArtistUnicode:CHiCO with HoneyWorks
Creator:celerih
Version:easy
Source:
Tags:世界は恋に落ちている sekai wa koi ni ochiteiru アオハライド ao haru ride
BeatmapID:1554579
BeatmapSetID:736607

[Difficulty]
HPDrainRate:2
CircleSize:2.5
OverallDifficulty:2
ApproachRate:3
SliderMultiplier:0.899999999999999
SliderTickRate:1

[Events]
//Background and Video events
0,0,"color BG.jpg",0,0
//Break Periods
2,30270,36630
2,54270,63296
2,104936,113963
2,128936,137963
2,168936,177963
//Storyboard Layer 0 (Background)
//Storyboard Layer 1 (Fail)
//Storyboard Layer 2 (Pass)
//Storyboard Layer 3 (Foreground)
//Storyboard Sound Samples

[TimingPoints]
737,333.333333333333,4,2,2,50,1,0
64736,-100,4,2,2,50,0,1
92736,-100,4,2,2,50,0,0
139403,-100,4,2,2,50,0,1
168070,-100,4,2,2,50,0,0
195403,-100,4,2,2,50,0,1
200736,-100,4,2,2,50,0,0
201570,-100,4,2,2,50,0,1
218070,-100,4,2,2,50,0,0

[Colours]
Combo1 : 97,151,184
Combo2 : 203,27,80
Combo3 : 238,203,176
Combo4 : 77,54,82

[HitObjects]
251,186,737,6,0,P|396:230|398:62,1,360
105,174,3403,5,0,0:0:0:0:
282,291,4736,2,0,P|355:305|460:266,2,180
230,93,7403,6,0,P|157:79|52:118,2,180
346,230,9403,1,0,0:0:0:0:
177,294,10070,6,0,B|160:259|160:259|172:145,1,135
292,105,11070,1,0,0:0:0:0:
324,188,11403,6,0,L|308:327,2,135
235,174,12736,2,0,L|133:184,1,89.9999999999999
89,253,13403,1,0,0:0:0:0:
122,336,13736,1,0,0:0:0:0:
211,326,14070,6,0,P|253:324|302:335,1,89.9999999999999
385,361,14736,2,0,P|394:317|393:272,1,89.9999999999999
353,191,15403,2,0,P|343:147|344:102,2,89.9999999999999
443,194,16403,1,0,0:0:0:0:
443,104,16736,6,0,P|378:73|263:106,1,180
229,172,17736,1,0,0:0:0:0:
185,92,18070,2,0,B|142:140|142:140|151:272,1,180
156,345,19070,1,0,0:0:0:0:
241,318,19403,6,0,L|248:209,2,89.9999999999999
370,280,20570,2,0,B|385:239|385:239|366:141,1,135
286,109,21403,2,0,L|181:99,1,89.9999999999999
120,148,22070,5,0,0:0:0:0:
120,148,22403,1,0,0:0:0:0:
177,216,22736,2,0,P|184:266|172:309,1,89.9999999999999
100,355,23403,1,0,0:0:0:0:
100,355,23736,1,0,0:0:0:0:
40,287,24070,2,0,P|33:237|45:194,1,89.9999999999999
100,130,24736,6,0,B|231:98|231:160|382:125,1,270
411,49,26070,2,0,P|459:140|336:215,1,270
268,163,27403,5,0,0:0:0:0:
168,253,27903,2,0,L|157:343,1,89.9999999999999
72,372,28570,1,0,0:0:0:0:
20,298,28903,2,0,B|10:265|10:265|23:158,1,135
38,76,29736,1,0,0:0:0:0:
38,76,30070,5,0,0:0:0:0:
259,345,38070,6,0,L|269:238,1,89.9999999999999
225,175,38736,2,0,B|216:130|216:130|224:68,1,89.9999999999999
297,37,39403,2,0,P|364:28|394:124,1,180
345,193,40403,1,0,0:0:0:0:
377,276,40736,6,0,B|317:293|317:293|191:275,1,180
154,198,41736,1,0,0:0:0:0:
199,119,42070,2,0,L|189:26,1,89.9999999999999
101,13,42736,2,0,B|92:65|92:65|99:108,1,89.9999999999999
136,183,43403,6,0,P|181:192|232:188,2,89.9999999999999
45,178,44403,1,0,0:0:0:0:
38,267,44736,2,0,P|95:313|201:295,1,180
242,221,45736,1,0,0:0:0:0:
287,298,46070,6,0,L|379:307,1,89.9999999999999
420,228,46736,2,0,L|327:218,1,89.9999999999999
261,160,47403,2,0,P|257:115|262:55,1,89.9999999999999
343,36,48070,2,0,P|347:81|342:141,1,89.9999999999999
332,214,48736,6,0,P|328:259|333:319,2,89.9999999999999
415,179,49736,1,0,0:0:0:0:
448,95,50070,2,0,P|421:38|310:38,1,180
253,99,51070,1,0,0:0:0:0:
253,99,51403,5,0,0:0:0:0:
349,283,52736,6,0,P|303:273|252:278,1,89.9999999999999
179,315,53403,2,0,P|134:317|90:307,1,89.9999999999999
35,235,54070,1,0,0:0:0:0:
319,231,64736,6,0,L|409:241,2,89.9999999999999
194,179,65903,2,0,L|87:190,1,89.9999999999999
86,322,66736,2,0,P|133:332|177:327,1,89.9999999999999
252,283,67403,5,0,0:0:0:0:
285,199,67736,2,0,P|286:158|275:105,1,89.9999999999999
218,41,68403,1,0,0:0:0:0:
306,26,68736,2,0,L|398:34,1,89.9999999999999
462,94,69403,2,0,B|473:142|473:142|458:183,1,89.9999999999999
398,247,70070,6,0,P|328:262|272:159,1,180
295,98,71070,1,0,0:0:0:0:
207,118,71403,2,0,B|163:132|163:132|23:109,1,180
20,20,72403,1,0,0:0:0:0:
108,34,72736,6,0,L|202:24,2,89.9999999999999
55,107,73736,1,0,0:0:0:0:
90,190,74070,2,0,L|78:296,1,89.9999999999999
152,332,74736,1,0,0:0:0:0:
235,297,75070,1,0,0:0:0:0:
309,346,75403,6,0,L|401:355,2,89.9999999999999
285,212,76570,2,0,P|349:187|419:199,1,135
491,240,77403,2,0,L|502:131,1,89.9999999999999
442,81,78070,6,0,B|396:56|396:56|259:77,1,180
181,95,79070,1,0,0:0:0:0:
242,160,79403,2,0,P|257:233|179:303,1,180
99,280,80403,1,0,0:0:0:0:
52,202,80736,6,0,L|65:96,1,89.9999999999999
151,93,81403,2,0,L|137:198,1,89.9999999999999
123,270,82070,1,0,0:0:0:0:
196,321,82403,2,0,P|241:330|310:325,2,89.9999999999999
208,231,83403,6,0,B|250:204|250:204|386:219,1,180
444,280,84403,1,0,0:0:0:0:
387,349,84736,2,0,P|328:363|255:341,1,135
214,214,85736,1,0,0:0:0:0:
135,257,86070,6,0,P|65:263|-8:244,2,135
136,166,87403,2,0,L|125:63,1,89.9999999999999
199,23,88070,1,0,0:0:0:0:
287,39,88403,1,0,0:0:0:0:
301,129,88736,6,0,P|227:172|125:161,1,180
67,106,89736,1,0,0:0:0:0:
51,194,90070,2,0,L|62:307,1,89.9999999999999
141,321,90736,2,0,L|152:207,1,89.9999999999999
208,162,91403,6,0,P|251:154|298:161,1,89.9999999999999
375,204,92070,1,0,0:0:0:0:
460,176,92403,1,0,0:0:0:0:
458,86,92736,1,0,0:0:0:0:
153,203,94070,6,0,P|111:205|42:188,2,89.9999999999999
275,145,95236,2,0,P|317:143|386:160,1,89.9999999999999
493,210,96070,2,0,L|506:88,1,89.9999999999999
465,39,96736,6,0,P|417:28|369:41,2,89.9999999999999
417,115,97736,1,0,0:0:0:0:
338,159,98070,2,0,P|257:172|188:103,1,180
139,34,99070,1,0,0:0:0:0:
103,116,99403,6,0,L|109:205,1,89.9999999999999
191,242,100070,2,0,L|185:331,1,89.9999999999999
271,355,100736,2,0,P|354:348|359:248,1,180
311,197,101736,1,0,0:0:0:0:
222,215,102070,6,0,L|81:200,1,135
36,127,102903,1,0,0:0:0:0:
145,48,103403,2,0,P|190:39|247:44,1,89.9999999999999
305,95,104070,2,0,P|349:97|393:88,1,89.9999999999999
468,38,104736,5,0,0:0:0:0:
101,276,115403,6,0,L|198:267,1,89.9999999999999
273,303,116070,2,0,L|370:312,1,89.9999999999999
432,254,116736,2,0,P|451:176|366:119,1,180
295,148,117736,1,0,0:0:0:0:
211,113,118070,6,0,L|201:21,1,89.9999999999999
118,56,118736,2,0,L|108:147,1,89.9999999999999
142,229,119403,2,0,P|192:236|250:224,1,89.9999999999999
307,182,120070,1,0,0:0:0:0:
396,178,120403,1,0,0:0:0:0:
456,244,120736,6,0,P|421:328|340:332,1,180
269,278,121736,1,0,0:0:0:0:
180,259,122070,2,0,L|89:268,2,89.9999999999999
242,193,123070,1,0,0:0:0:0:
172,135,123403,6,0,P|145:67|234:21,1,180
306,50,124403,1,0,0:0:0:0:
306,50,124736,1,0,0:0:0:0:
257,223,125403,2,0,L|263:335,1,89.9999999999999
329,372,126070,5,0,0:0:0:0:
409,94,127403,6,0,P|359:85|300:100,1,89.9999999999999
244,138,128070,2,0,P|199:144|155:135,1,89.9999999999999
91,71,128736,1,0,0:0:0:0:
363,230,139403,6,0,L|352:321,2,89.9999999999999
343,96,140570,2,0,P|293:86|231:99,1,89.9999999999999
143,167,141403,2,0,P|93:177|31:164,1,89.9999999999999
12,92,142070,5,0,0:0:0:0:
63,18,142403,2,0,L|163:28,1,89.9999999999999
207,99,143070,1,0,0:0:0:0:
283,146,143403,2,0,P|334:152|378:141,1,89.9999999999999
450,101,144070,2,0,B|461:145|461:145|449:194,1,89.9999999999999
397,261,144737,6,0,P|305:266|266:177,1,180
283,110,145737,1,0,0:0:0:0:
217,48,146070,2,0,B|161:32|161:32|27:51,1,180
4,131,147070,1,0,0:0:0:0:
36,214,147403,6,0,P|40:262|30:314,2,89.9999999999999
93,144,148403,1,0,0:0:0:0:
167,93,148737,2,0,L|274:104,1,89.9999999999999
295,183,149403,1,0,0:0:0:0:
260,266,149737,1,0,0:0:0:0:
306,343,150070,6,0,L|408:331,2,89.9999999999999
179,296,151236,2,0,L|32:280,1,135
6,200,152070,2,0,P|0:161|12:111,1,89.9999999999999
85,60,152737,6,0,B|173:32|173:83|262:59,1,180
332,3,153737,1,0,0:0:0:0:
343,92,154070,2,0,B|353:159|353:159|336:275,1,180
274,335,155070,1,0,0:0:0:0:
195,290,155403,6,0,P|152:283|89:288,1,89.9999999999999
25,326,156070,2,0,L|14:228,1,89.9999999999999
53,154,156737,1,0,0:0:0:0:
122,210,157070,2,0,L|109:321,2,89.9999999999999
143,122,158070,6,0,P|223:88|308:128,1,180
280,210,159070,1,0,0:0:0:0:
318,291,159403,2,0,P|390:301|474:267,1,135
504,160,160403,1,0,0:0:0:0:
417,132,160737,6,0,B|407:99|407:99|413:-10,2,135
434,220,162070,2,0,P|390:230|330:218,1,89.9999999999999
278,164,162737,1,0,0:0:0:0:
307,79,163070,1,0,0:0:0:0:
241,17,163403,6,0,B|180:3|180:3|64:19,1,180
14,94,164403,1,0,0:0:0:0:
58,172,164737,2,0,L|45:282,1,89.9999999999999
128,301,165403,2,0,L|140:190,1,89.9999999999999
180,131,166070,6,0,P|224:124|271:128,1,89.9999999999999
343,178,166737,1,0,0:0:0:0:
421,134,167070,1,0,0:0:0:0:
386,50,167403,2,0,L|197:28,1,180
96,171,168736,5,0,0:0:0:0:
204,135,179403,6,0,P|157:124|111:129,2,89.9999999999999
276,249,180570,2,0,P|350:266|420:243,1,135
469,183,181403,2,0,L|479:78,1,89.9999999999999
421,23,182070,5,0,0:0:0:0:
335,51,182403,1,0,0:0:0:0:
253,12,182736,2,0,L|158:21,1,89.9999999999999
120,100,183403,2,0,L|214:109,1,89.9999999999999
288,152,184070,2,0,B|297:201|297:201|283:251,1,89.9999999999999
121,313,185070,6,0,P|74:308|19:318,2,89.9999999999999
295,357,186403,2,0,P|342:362|397:352,2,89.9999999999999
137,230,187403,2,0,P|115:169|206:125,1,180
267,181,188403,1,0,0:0:0:0:
353,158,188736,6,0,B|371:213|371:213|351:345,1,180
268,366,189736,1,0,0:0:0:0:
268,366,190070,1,0,0:0:0:0:
139,143,191403,6,0,P|177:105|301:122,1,180
344,288,192736,6,0,B|296:310|296:310|151:286,1,180
112,219,193736,1,0,0:0:0:0:
149,137,194070,2,0,L|138:40,1,89.9999999999999
225,21,194736,2,0,L|234:110,1,89.9999999999999
302,169,195403,6,0,L|408:180,2,89.9999999999999
217,201,196403,1,0,0:0:0:0:
130,176,196736,2,0,P|104:235|171:330,1,180
250,326,197736,1,0,0:0:0:0:
331,288,198069,6,0,L|433:296,2,89.9999999999999
255,238,199069,1,0,0:0:0:0:
267,148,199403,2,0,L|254:37,1,89.9999999999999
167,43,200070,2,0,L|177:132,1,89.9999999999999
148,217,200736,5,0,0:0:0:0:
214,277,201070,2,0,P|261:282|304:274,1,89.9999999999999
358,151,201902,2,0,B|325:137|325:137|211:148,1,135
137,164,202736,2,0,P|128:212|134:261,1,89.9999999999999
191,320,203403,6,0,B|241:334|241:334|371:317,1,180
433,255,204403,1,0,0:0:0:0:
404,169,204736,2,0,P|307:130|226:165,1,180
187,226,205736,1,0,0:0:0:0:
151,143,206069,6,0,L|163:16,1,89.9999999999999
243,19,206736,2,0,L|255:145,1,89.9999999999999
303,182,207403,1,0,0:0:0:0:
379,134,207736,2,0,P|423:133|469:140,2,89.9999999999999
386,223,208736,6,0,P|364:308|278:303,1,180
221,243,209736,1,0,0:0:0:0:
134,266,210069,2,0,B|95:275|95:275|-10:261,1,135
33,131,211069,1,0,0:0:0:0:
105,76,211403,6,0,L|245:90,2,135
114,165,212736,2,0,P|154:187|204:191,1,89.9999999999999
283,163,213403,1,0,0:0:0:0:
361,207,213736,1,0,0:0:0:0:
336,293,214069,6,0,B|289:315|289:315|160:304,1,180
97,239,215069,1,0,0:0:0:0:
136,157,215403,2,0,L|233:167,1,89.9999999999999
306,206,216070,2,0,L|403:195,1,89.9999999999999
465,139,216736,6,0,P|476:93|464:31,1,89.9999999999999
393,4,217403,1,0,0:0:0:0:
393,4,217736,1,0,0:0:0:0:
309,39,218070,1,0,0:0:0:0:
311,218,218736,6,0,P|232:244|137:187,1,180
