osu file format v14

[General]
AudioFilename: audio.mp3
AudioLeadIn: 0
PreviewTime: 189949
Countdown: 0
SampleSet: Soft
StackLeniency: 0.7
Mode: 0
LetterboxInBreaks: 0
WidescreenStoryboard: 0

[Editor]
DistanceSpacing: 1.2
BeatDivisor: 4
GridSize: 8
TimelineZoom: 1.7

[Metadata]
Title:color
TitleUnicode:color
Artist:CHiCO with HoneyWorks
ArtistUnicode:CHiCO with HoneyWorks
Creator:Sotarks
Version:Shunao's Hard
Source:
Tags:世界は恋に落ちている sekai wa koi ni ochiteiru アオハライド ao haru ride blue spring ride shunao shogunmoon lasse
BeatmapID:1815291
BeatmapSetID:865497

[Difficulty]
HPDrainRate:5
CircleSize:3.7
OverallDifficulty:6
ApproachRate:8
SliderMultiplier:1.4
SliderTickRate:1

[Events]
//Background and Video events
0,0,"bg.jpg",0,0
//Break Periods
2,30233,37283
2,106233,114616
2,128899,130616
2,131566,133283
2,134233,137283
2,174233,178616
//Storyboard Layer 0 (Background)
//Storyboard Layer 1 (Fail)
//Storyboard Layer 2 (Pass)
//Storyboard Layer 3 (Foreground)
//Storyboard Sound Samples

[TimingPoints]
700,333.333333333333,4,2,22,42,1,0
700,-142.857142857143,4,2,22,42,0,0
11366,-100,4,2,22,42,0,0
30033,-125,4,2,22,42,0,0
40699,-100,4,2,22,72,0,0
51366,-125,4,2,22,72,0,0
64699,-83.3333333333333,4,2,22,72,0,1
92699,-100,4,2,22,72,0,0
93366,-100,4,2,22,32,0,0
94033,-100,4,2,22,72,0,0
104699,-142.857142857143,4,2,22,72,0,0
115366,-100,4,2,22,72,0,0
126033,-125,4,2,22,72,0,0
139366,-83.3333333333333,4,2,22,72,0,1
167366,-100,4,2,22,72,0,0
168699,-125,4,2,22,52,0,0
174033,-142.857142857143,4,2,22,72,0,0
179366,-90.9090909090909,4,2,22,72,0,0
190033,-100,4,2,22,72,0,0
195366,-83.3333333333333,4,2,22,72,0,1
218033,-100,4,2,22,72,0,0
218699,-100,4,2,22,32,0,0
219366,-142.857142857143,4,2,22,32,0,0

[Colours]
Combo1 : 55,208,51
Combo2 : 255,17,17
Combo3 : 252,255,130
Combo4 : 40,137,196

[HitObjects]
493,35,700,5,2,0:0:0:0:
481,55,2033,1,2,0:0:0:0:
467,79,3366,1,2,0:0:0:0:
449,104,4699,5,2,0:0:0:0:
173,291,5366,1,2,0:0:0:0:
495,376,6033,1,2,0:0:0:0:
473,360,7366,5,2,0:0:0:0:
246,115,8033,1,2,0:0:0:0:
25,364,8699,1,2,0:0:0:0:
25,114,9199,2,0,L|13:81,2,24.4999992523194,2|2|2,0:0|0:0|0:0,0:0:0:0:
83,174,9533,1,2,0:0:0:0:
83,174,9699,2,0,P|113:166|152:169,1,48.9999985046387,2|2,0:0|0:0,0:0:0:0:
209,136,10033,6,0,P|257:148|326:156,1,97.9999970092774,2|0,0:0|0:0,0:0:0:0:
386,173,10533,2,0,P|370:216|360:277,1,97.9999970092774,2|0,0:0|0:0,0:0:0:0:
282,297,11033,2,0,P|286:315|289:337,3,24.4999992523194,2|0|0|0,0:0|0:0|0:0|0:0,0:0:0:0:
295,361,11366,6,0,P|258:360|214:365,1,70,14|0,0:2|1:2,0:0:0:0:
134,371,11699,1,0,1:2:0:0:
134,371,11866,2,0,P|118:328|111:287,1,70,10|0,0:2|1:2,0:0:0:0:
169,232,12199,1,0,1:2:0:0:
169,232,12366,2,0,P|185:189|192:148,1,70,10|0,0:2|1:2,0:0:0:0:
121,105,12699,6,0,P|105:62|98:21,2,70,2|8|2,1:2|0:2|1:2,0:0:0:0:
189,165,13199,1,0,1:2:0:0:
265,116,13366,2,0,P|300:110|320:110,3,35,10|0|0|0,0:2|0:0|0:0|0:0,0:0:0:0:
342,125,13699,2,0,P|377:131|397:131,3,35,8|0|0|0,0:2|0:0|0:0|0:0,0:0:0:0:
422,133,14033,6,0,P|425:172|435:221,1,70,6|0,1:2|0:2,0:0:0:0:
502,258,14366,2,0,P|499:292|493:327,1,70,8|0,0:2|0:2,0:0:0:0:
410,365,14699,2,0,P|368:360|327:362,1,70,10|0,0:2|2:2,0:0:0:0:
248,365,15033,2,0,P|206:370|165:368,1,70,8|0,0:2|2:2,0:0:0:0:
88,354,15366,5,10,0:2:0:0:
46,272,15533,1,0,0:2:0:0:
91,193,15699,2,0,L|98:117,1,70,10|0,0:2|0:2,0:0:0:0:
7,141,16033,2,0,L|0:65,1,70,10|0,0:2|2:2,0:0:0:0:
80,26,16366,2,0,P|122:17|163:18,1,70,10|0,0:2|2:2,0:0:0:0:
232,52,16699,6,0,P|284:62|391:65,1,140,6|0,1:2|1:2,0:0:0:0:
460,50,17199,1,0,0:2:0:0:
460,50,17366,2,0,P|455:89|450:138,1,70,2|0,1:2|0:0,0:0:0:0:
372,163,17699,2,0,P|377:202|382:251,1,70,0|0,1:2|0:2,0:0:0:0:
324,305,18033,6,0,P|387:324|458:281,1,140,6|0,1:2|1:2,0:0:0:0:
495,213,18533,1,0,0:2:0:0:
495,213,18699,2,0,L|502:131,1,70,2|0,1:2|0:0,0:0:0:0:
459,61,19033,2,0,P|424:46|384:50,1,70,8|0,0:2|0:0,0:0:0:0:
306,77,19366,6,0,P|245:94|166:69,1,140,6|10,1:2|0:2,0:0:0:0:
27,184,20033,1,2,1:2:0:0:
27,184,20199,2,0,P|33:215|37:259,1,70,2|8,1:2|0:2,0:0:0:0:
128,246,20533,2,0,P|121:280|118:315,1,70,2|0,1:2|1:2,0:0:0:0:
192,367,20866,6,0,P|234:363|285:368,1,70,2|8,1:2|0:2,0:0:0:0:
344,325,21199,1,0,0:2:0:0:
344,325,21366,2,0,P|386:329|437:324,1,70,2|0,1:2|1:2,0:0:0:0:
489,277,21699,2,0,P|491:240|501:197,1,70,10|0,0:2|1:2,0:0:0:0:
406,221,22033,6,0,P|404:184|394:141,1,70,6|0,1:2|0:0,0:0:0:0:
314,188,22366,2,0,P|307:222|305:257,1,70,10|0,0:2|0:0,0:0:0:0:
219,227,22699,2,0,P|217:192|210:157,1,70,2|0,1:2|1:2,0:0:0:0:
128,198,23033,2,0,P|121:232|119:267,1,70,10|0,0:2|1:2,0:0:0:0:
99,356,23366,6,0,P|61:351|25:355,1,70,2|0,1:2|1:2,0:0:0:0:
8,265,23699,2,0,P|1:230|0:195,1,70,10|0,0:2|0:2,0:0:0:0:
2,104,24033,1,2,1:2:0:0:
61,35,24199,1,2,1:2:0:0:
151,45,24366,2,0,L|243:38,1,70,10|0,0:2|1:2,0:0:0:0:
309,18,24699,6,0,L|385:26,2,70,10|0|10,0:2|0:2|0:2,0:0:0:0:
285,106,25199,1,0,0:2:0:0:
285,106,25366,2,0,P|281:143|290:184,1,70,10|0,0:2|1:2,0:0:0:0:
366,218,25699,1,10,0:2:0:0:
446,175,25866,1,0,1:2:0:0:
504,244,26033,6,0,P|508:281|499:322,1,70,10|0,0:2|0:2,0:0:0:0:
435,375,26366,2,0,L|357:366,1,70,10|0,0:2|0:2,0:0:0:0:
278,340,26699,2,0,L|199:348,2,70,10|0|10,0:2|1:2|0:2,0:0:0:0:
355,287,27199,1,8,0:2:0:0:
355,287,27283,1,8,0:2:0:0:
355,287,27366,6,0,P|362:251|366:204,1,70,6|0,1:2|0:0,0:0:0:0:
318,139,27699,1,8,0:2:0:0:
318,139,27866,2,0,L|241:131,1,70,2|0,0:0|1:2,0:0:0:0:
207,50,28199,2,0,L|126:57,1,70,2|8,1:2|0:2,0:0:0:0:
80,128,28533,6,0,P|83:162|91:196,1,70,10|0,0:2|1:0,0:0:0:0:
166,249,28866,2,0,L|161:297,2,35,4|4|8,0:3|0:3|0:3,0:0:0:0:
240,195,29199,2,0,L|235:148,2,35,4|0|4,0:3|0:0|0:3,0:0:0:0:
313,250,29533,2,0,L|318:298,2,35,4|4|4,0:3|0:3|0:3,0:0:0:0:
384,193,29866,1,4,0:3:0:0:
470,236,30033,5,6,1:2:0:0:
60,42,38033,6,0,L|129:50,1,56,2|0,1:2|0:0,0:0:0:0:
197,86,38366,2,0,L|330:69,1,112,10|2,0:2|1:2,0:0:0:0:
392,40,38866,1,0,1:2:0:0:
392,40,39033,1,10,0:2:0:0:
452,105,39199,6,0,L|489:109,2,28,0|0|2,1:2|1:2|1:2,0:0:0:0:
383,163,39533,2,0,P|378:197|375:236,1,56,0|8,1:2|0:2,0:0:0:0:
289,192,39866,2,0,P|287:170|281:151,2,28,2|0|2,0:2|0:0|1:2,0:0:0:0:
223,253,40199,2,0,P|192:256|163:252,1,56,2|10,1:2|0:2,0:0:0:0:
82,222,40533,1,0,1:2:0:0:
82,222,40616,1,0,1:2:0:0:
82,222,40699,6,0,L|91:366,1,140,6|10,1:2|0:2,0:0:0:0:
181,372,41199,1,0,0:0:0:0:
181,372,41366,2,0,P|216:363|254:369,1,70,2|0,1:2|1:2,0:0:0:0:
340,374,41699,2,0,L|348:288,1,70,10|0,0:2|0:2,0:0:0:0:
411,240,42033,6,0,P|343:261|280:229,1,140,2|8,1:2|0:2,0:0:0:0:
220,166,42533,1,0,1:2:0:0:
220,166,42699,2,0,L|231:82,1,70,2|0,1:2|1:2,0:0:0:0:
158,37,43033,2,0,P|123:29|81:37,1,70,10|0,0:2|0:2,0:0:0:0:
25,98,43366,6,0,L|41:258,2,140,2|10|2,1:2|0:2|1:2,0:0:0:0:
89,33,44199,1,0,1:2:0:0:
89,33,44366,2,0,L|165:37,1,70,10|2,0:2|1:2,0:0:0:0:
248,55,44699,6,0,P|254:123|268:213,1,140,0|8,1:2|0:2,0:0:0:0:
359,231,45199,1,0,3:2:0:0:
359,231,45283,1,0,3:2:0:0:
359,231,45366,2,0,P|367:194|372:155,1,70,2|0,1:2|1:2,0:0:0:0:
459,138,45699,2,0,P|463:172|471:206,1,70,10|0,0:2|0:2,0:0:0:0:
474,298,46033,6,0,B|398:280|413:334|331:312,1,140,2|8,1:2|0:2,0:0:0:0:
260,266,46533,1,0,1:2:0:0:
260,266,46616,1,0,1:2:0:0:
260,266,46699,2,0,P|225:260|185:267,1,70,2|0,1:2|1:2,0:0:0:0:
114,315,47033,2,0,P|79:321|39:314,1,70,10|0,0:2|0:2,0:0:0:0:
13,230,47366,6,0,P|9:157|-4:63,1,140,2|10,1:2|0:2,0:0:0:0:
64,25,47866,1,0,0:2:0:0:
64,25,48033,2,0,P|101:33|148:30,1,70,2|0,1:2|1:2,0:0:0:0:
212,77,48366,2,0,P|246:69|280:69,1,70,10|0,0:2|3:2,0:0:0:0:
369,90,48699,6,0,L|360:249,1,140,2|10,1:2|0:2,0:0:0:0:
451,242,49199,1,0,0:0:0:0:
451,242,49366,2,0,L|456:162,1,70,2|0,1:2|1:2,0:0:0:0:
510,99,49699,2,0,L|498:17,1,70,10|0,0:2|0:2,0:0:0:0:
410,8,50033,5,2,1:2:0:0:
319,16,50199,1,0,1:2:0:0:
229,30,50366,2,0,L|148:21,1,70,8|0,0:2|1:2,0:0:0:0:
69,36,50699,2,0,P|59:70|71:115,1,70,10|4,0:3|0:3,0:0:0:0:
116,179,51033,1,6,0:3:0:0:
203,201,51199,1,4,0:3:0:0:
297,186,51366,5,6,1:2:0:0:
297,186,52699,6,0,L|307:311,2,112,2|2|2,0:0|0:0|0:0,0:0:0:0:
281,18,53699,1,2,0:0:0:0:
165,140,54033,5,8,0:0:0:0:
49,261,54366,2,0,L|56:211,3,37.3333333333333,0|0|0|8,3:0|3:0|3:0|0:0,0:0:0:0:
7,63,55033,2,0,L|14:113,3,37.3333333333333,0|0|0|8,3:0|3:0|3:0|0:0,0:0:0:0:
158,181,55699,6,0,P|181:175|211:169,2,37.3333333333333,0|0|0,3:0|3:0|3:0,0:0:0:0:
207,248,56033,2,0,P|230:254|261:256,2,37.3333333333333,0|0|0,3:0|3:0|3:0,0:0:0:0:
272,177,56366,2,0,P|295:171|328:166,2,37.3333333333333,0|0|0,3:0|3:0|3:0,0:0:0:0:
233,101,56699,5,12,0:0:0:0:
394,43,57033,2,0,L|388:97,3,37.3333333333333,0|0|0|8,3:0|3:0|3:0|0:0,0:0:0:0:
329,237,57699,2,0,L|334:285,3,37.3333333333333,0|0|0|8,3:0|3:0|3:0|0:0,0:0:0:0:
494,329,58366,6,0,L|486:375,2,37.3333333333333,0|0|0,3:0|3:0|3:0,0:0:0:0:
445,261,58700,2,0,L|436:208,2,37.3333333333333,0|0|0,3:0|3:0|3:0,0:0:0:0:
393,325,59033,2,0,L|388:366,2,37.3333333333333,0|0|0,3:0|3:0|3:0,0:0:0:0:
332,274,59366,5,8,0:0:0:0:
172,330,59699,2,0,L|124:322,3,37.3333333333333,0|0|0|8,3:0|3:0|3:0|0:0,0:0:0:0:
245,197,60366,2,0,L|292:190,3,37.3333333333333,0|0|0|8,3:0|3:0|3:0|0:0,0:0:0:0:
117,156,61033,6,0,L|72:151,2,37.3333333333333,0|0|0,3:0|3:0|3:0,0:0:0:0:
190,115,61367,2,0,L|237:109,2,37.3333333333333,0|0|0,3:0|3:0|3:0,0:0:0:0:
118,73,61700,2,0,L|77:65,2,37.3333333333333,0|0|0,3:0|3:0|3:0,0:0:0:0:
189,28,62033,5,8,0:0:0:0:
316,136,62366,2,0,L|321:184,2,37.3333333333333,0|0|0,3:0|3:0|3:0,0:0:0:0:
398,126,62699,2,0,L|403:177,2,37.3333333333333,0|0|8,3:0|3:0|3:3,0:0:0:0:
481,116,63033,2,0,L|487:163,2,37.3333333333333,4|4|4,3:0|3:0|3:0,0:0:0:0:
464,34,63366,5,6,1:2:0:0:
119,367,64699,6,0,P|161:355|217:362,1,83.9999974365235,6|0,1:2|0:2,0:0:0:0:
301,371,65033,2,0,L|310:276,1,83.9999974365235,10|0,0:2|0:2,0:0:0:0:
214,250,65366,2,0,P|131:250|59:172,1,167.999994873047,2|10,1:2|0:2,0:0:0:0:
18,109,65866,6,0,L|28:15,1,83.9999974365235,2|0,1:2|1:2,0:0:0:0:
127,12,66199,2,0,L|135:95,1,83.9999974365235,2|8,1:2|0:2,0:0:0:0:
233,124,66533,1,0,0:2:0:0:
328,94,66699,2,0,P|368:86|421:99,1,83.9999974365235,2|0,1:2|1:2,0:0:0:0:
492,152,67033,2,0,L|483:247,1,83.9999974365235,10|0,0:2|1:2,0:0:0:0:
457,333,67366,6,0,B|374:363|384:295|276:334,1,167.999994873047,6|10,1:2|1:2,0:0:0:0:
199,366,67866,1,0,0:0:0:0:
109,320,68033,2,0,P|99:278|111:232,1,83.9999974365235,2|0,1:2|1:2,0:0:0:0:
178,166,68366,2,0,P|187:125|179:84,1,83.9999974365235,10|0,0:2|1:2,0:0:0:0:
89,39,68699,6,0,L|-13:30,1,83.9999974365235,2|0,1:2|0:2,0:0:0:0:
16,132,69033,2,0,L|117:123,1,83.9999974365235,10|0,0:2|0:2,0:0:0:0:
183,67,69366,1,2,1:2:0:0:
283,60,69533,1,2,1:2:0:0:
357,127,69699,2,0,P|350:175|347:230,1,83.9999974365235,10|0,0:2|0:2,0:0:0:0:
256,256,70033,6,0,P|263:304|266:359,1,83.9999974365235,4|0,1:2|0:0,0:0:0:0:
360,374,70366,2,0,P|401:364|465:374,1,83.9999974365235,10|0,0:2|0:2,0:0:0:0:
486,275,70699,2,0,P|489:233|495:191,1,83.9999974365235,2|0,1:2|1:2,0:0:0:0:
407,141,71033,2,0,P|403:99|397:57,1,83.9999974365235,10|0,0:2|0:2,0:0:0:0:
302,24,71366,6,0,P|214:27|161:94,1,167.999994873047,0|10,1:2|0:2,0:0:0:0:
143,183,71866,1,0,0:0:0:0:
147,283,72033,2,0,L|55:274,1,83.9999974365235,2|0,1:2|1:2,0:0:0:0:
24,181,72366,2,0,L|116:173,1,83.9999974365235,10|0,0:2|1:2,0:0:0:0:
190,116,72699,6,0,P|158:188|206:272,1,167.999994873047,2|8,1:2|0:3,0:0:0:0:
270,330,73199,1,4,0:3:0:0:
361,372,73366,2,0,P|400:362|465:364,1,83.9999974365235,4|4,0:3|0:3,0:0:0:0:
491,272,73699,2,0,P|502:231|507:170,1,83.9999974365235,10|0,0:3|0:0,0:0:0:0:
441,111,74033,5,6,0:3:0:0:
344,135,74199,2,0,P|301:131|245:118,1,83.9999974365235,6|8,0:3|0:3,0:0:0:0:
185,54,74533,1,6,0:3:0:0:
179,47,74616,1,4,0:3:0:0:
172,39,74699,2,0,L|117:45,3,41.9999987182618,4|0|0|0,0:3|1:0|1:0|1:0,0:0:0:0:
82,24,75033,2,0,L|30:17,3,41.9999987182618,0|0|0|0,1:0|1:0|1:0|1:0,0:0:0:0:
23,65,75366,6,0,P|13:107|27:158,1,83.9999974365235,6|0,1:2|0:0,0:0:0:0:
98,211,75699,2,0,P|107:251|100:292,1,83.9999974365235,10|0,0:2|0:0,0:0:0:0:
164,371,76033,2,0,P|205:361|256:365,1,83.9999974365235,2|0,1:2|1:2,0:0:0:0:
346,375,76366,1,10,0:2:0:0:
446,369,76533,2,0,P|436:328|431:286,1,83.9999974365235,2|0,1:2|1:2,0:0:0:0:
488,202,76866,6,0,P|497:161|502:119,1,83.9999974365235,2|8,1:2|0:0,0:0:0:0:
462,27,77199,1,0,0:0:0:0:
360,41,77366,2,0,P|318:49|275:40,1,83.9999974365235,2|0,1:2|1:2,0:0:0:0:
184,79,77699,2,0,P|141:72|102:79,1,83.9999974365235,10|0,0:2|0:2,0:0:0:0:
9,121,78033,6,0,P|21:192|29:298,1,167.999994873047,2|8,1:2|0:2,0:0:0:0:
92,366,78533,1,0,1:2:0:0:
192,359,78699,2,0,P|236:348|295:349,2,83.9999974365235,2|0|8,1:2|0:2|0:2,0:0:0:0:
92,366,79199,1,0,0:2:0:0:
131,273,79366,6,0,P|117:233|112:191,1,83.9999974365235,2|0,1:2|0:0,0:0:0:0:
15,168,79699,2,0,P|28:132|33:77,1,83.9999974365235,8|0,0:2|1:2,0:0:0:0:
112,22,80033,2,0,P|152:11|194:9,1,83.9999974365235,2|0,1:2|1:2,0:0:0:0:
281,60,80366,2,0,P|321:70|363:72,1,83.9999974365235,8|0,0:2|0:2,0:0:0:0:
444,11,80699,6,0,P|408:84|474:165,1,167.999994873047,6|8,1:2|0:2,0:0:0:0:
504,236,81199,1,0,1:2:0:0:
487,335,81366,2,0,P|444:327|396:324,1,83.9999974365235,0|0,1:2|0:2,0:0:0:0:
307,353,81699,1,8,0:2:0:0:
225,293,81866,1,0,0:2:0:0:
139,347,82033,6,0,P|96:345|56:338,1,83.9999974365235,0|0,1:2|1:2,0:0:0:0:
4,250,82366,2,0,P|46:244|87:242,1,83.9999974365235,10|0,0:2|0:2,0:0:0:0:
33,156,82699,2,0,P|22:115|18:65,1,83.9999974365235,2|0,1:2|1:2,0:0:0:0:
99,12,83033,1,10,0:2:0:0:
199,19,83199,1,0,1:2:0:0:
238,112,83366,6,0,B|327:81|313:151|405:127,1,167.999994873047,2|8,1:2|0:2,0:0:0:0:
463,50,83866,1,0,0:2:0:0:
509,139,84033,2,0,P|506:186|508:237,1,83.9999974365235,0|0,1:2|1:2,0:0:0:0:
475,318,84366,2,0,P|435:328|392:317,1,83.9999974365235,10|0,0:2|0:2,0:0:0:0:
335,237,84699,6,0,P|291:223|249:232,1,83.9999974365235,2|2,1:2|1:2,0:0:0:0:
181,300,85033,1,10,0:2:0:0:
262,358,85199,2,0,P|301:371|342:365,1,83.9999974365235,2|8,1:2|0:3,0:0:0:0:
418,296,85533,1,2,1:2:0:0:
418,296,85616,1,0,1:2:0:0:
418,296,85699,2,0,L|426:203,1,83.9999974365235,10|0,0:2|0:2,0:0:0:0:
313,171,86033,6,0,L|305:78,1,83.9999974365235,14|0,0:2|1:2,0:0:0:0:
241,9,86366,1,0,1:2:0:0:
150,53,86533,2,0,P|108:62|67:51,1,83.9999974365235,10|0,0:2|1:2,0:0:0:0:
10,134,86866,1,0,1:2:0:0:
53,225,87033,2,0,P|60:269|63:317,1,83.9999974365235,10|0,0:2|1:2,0:0:0:0:
157,272,87366,6,0,P|160:230|166:188,2,83.9999974365235,0|10|2,1:2|0:2|1:2,0:0:0:0:
219,350,87866,1,2,1:2:0:0:
318,364,88033,1,10,0:2:0:0:
412,330,88199,1,2,1:2:0:0:
419,319,88283,1,0,1:2:0:0:
426,309,88366,2,0,P|429:288|432:256,3,41.9999987182618,2|0|2|0,1:2|1:2|1:2|1:2,0:0:0:0:
392,235,88700,6,0,P|385:193|381:151,1,83.9999974365235,6|0,1:2|0:2,0:0:0:0:
292,105,89033,2,0,P|289:139|280:191,1,83.9999974365235,8|0,0:2|0:2,0:0:0:0:
202,252,89366,2,0,L|108:258,1,83.9999974365235,10|0,0:2|2:2,0:0:0:0:
26,214,89699,2,0,P|18:172|14:130,1,83.9999974365235,8|0,0:2|2:2,0:0:0:0:
61,40,90033,5,2,1:2:0:0:
161,27,90200,1,0,1:2:0:0:
255,59,90366,2,0,P|250:100|243:142,1,83.9999974365235,10|0,0:2|0:2,0:0:0:0:
177,218,90699,2,0,P|181:259|188:301,1,83.9999974365235,2|0,1:2|2:2,0:0:0:0:
263,370,91033,2,0,P|305:361|356:365,1,83.9999974365235,10|2,0:2|0:2,0:0:0:0:
446,371,91366,6,0,P|449:347|450:325,3,41.9999987182618,2|0|8|8,1:2|1:0|1:0|1:0,0:0:0:0:
414,293,91699,2,0,P|411:269|410:247,3,41.9999987182618,8|8|8|8,0:0|0:3|0:3|0:3,0:0:0:0:
450,219,92033,2,0,P|452:198|453:177,3,41.9999987182618,10|8|8|8,0:3|0:3|0:3|0:3,0:0:0:0:
458,127,92366,2,0,P|414:131|369:117,1,83.9999974365235,4|4,0:3|0:3,0:0:0:0:
295,65,92699,5,10,0:0:0:0:
58,341,93366,2,0,B|174:310|151:385|277:357,1,210,2|0,0:0|0:0,0:0:0:0:
373,339,94033,6,0,P|360:280|348:193,1,140,2|10,1:2|0:2,0:0:0:0:
247,50,94699,1,2,1:2:0:0:
247,50,94866,2,0,P|209:44|157:38,1,70,2|8,1:2|0:2,0:0:0:0:
102,91,95199,6,0,P|64:97|12:103,1,70,2|0,1:2|1:2,0:0:0:0:
15,190,95533,2,0,P|6:228|16:269,2,70,2|8|0,1:2|0:2|0:2,0:0:0:0:
95,233,96033,2,0,P|130:230|168:220,1,70,2|0,1:2|0:2,0:0:0:0:
251,196,96366,2,0,P|286:199|324:209,1,70,10|0,0:2|0:2,0:0:0:0:
387,268,96699,6,0,L|399:358,1,70,2|0,1:2|1:2,0:0:0:0:
483,309,97033,2,0,L|493:227,1,70,10|0,0:2|0:2,0:0:0:0:
425,176,97366,2,0,L|415:94,1,70,10|0,0:2|1:2,0:0:0:0:
360,34,97700,2,0,P|324:28|289:34,1,70,10|0,0:2|1:2,0:0:0:0:
229,100,98033,6,0,L|219:182,1,70,2|0,1:2|0:2,0:0:0:0:
137,207,98366,1,10,0:2:0:0:
53,170,98533,2,0,L|46:118,2,35,2|2|10,1:2|1:2|0:2,0:0:0:0:
117,234,98866,2,0,L|110:322,1,70,6|4,0:3|0:3,0:0:0:0:
192,365,99199,1,0,1:0:0:0:
192,365,99366,6,0,P|226:372|270:365,1,70,4|4,0:3|0:3,0:0:0:0:
343,329,99699,1,10,0:0:0:0:
343,329,99866,2,0,L|351:253,2,70,4|4|6,0:3|0:3|0:3,0:0:0:0:
262,286,100366,2,0,L|253:208,1,70,8|4,0:0|0:3,0:0:0:0:
223,130,100699,5,6,0:3:0:0:
280,59,100866,1,4,0:3:0:0:
280,59,101033,2,0,P|316:47|363:53,1,70,8|0,0:0|0:0,0:0:0:0:
438,59,101366,2,0,L|443:103,3,35,0|0|2|0,1:3|1:3|1:3|1:3,0:0:0:0:
473,126,101699,2,0,L|466:167,3,35,8|8|10|8,0:3|0:3|0:3|0:3,0:0:0:0:
461,205,102033,6,0,B|389:177|399:238|309:215,1,140,6|8,1:2|0:2,0:0:0:0:
252,165,102533,2,0,P|216:158|175:166,1,70,2|8,1:2|0:2,0:0:0:0:
116,225,102866,2,0,L|123:313,1,70,2|0,1:2|1:2,0:0:0:0:
184,360,103199,1,8,0:2:0:0:
184,360,103366,6,0,P|223:369|264:361,2,70,2|10|6,1:3|0:3|0:3,0:0:0:0:
225,278,103866,1,6,0:3:0:0:
225,278,104033,2,0,L|233:199,1,70,10|6,0:3|0:3,0:0:0:0:
311,163,104366,2,0,L|303:93,1,70,10|0,0:3|0:0,0:0:0:0:
245,28,104699,5,4,1:2:0:0:
256,192,104783,12,0,106033,0:0:0:0:
23,36,115366,6,0,P|37:108|46:179,1,140,6|10,1:2|0:2,0:0:0:0:
45,265,115866,1,0,1:2:0:0:
45,265,116033,2,0,P|36:295|31:348,1,70,2|0,1:2|1:2,0:0:0:0:
113,372,116366,2,0,P|148:362|201:366,1,70,10|0,0:2|1:2,0:0:0:0:
271,344,116700,6,0,P|213:333|165:262,1,140,2|8,1:2|0:2,0:0:0:0:
163,179,117200,1,8,0:2:0:0:
163,179,117366,2,0,L|174:95,1,70,2|0,1:2|1:2,0:0:0:0:
256,76,117699,2,0,L|267:160,1,70,10|0,0:2|1:2,0:0:0:0:
314,222,118033,6,0,B|389:207|380:254|472:235,1,140,2|10,1:2|0:2,0:0:0:0:
507,167,118533,2,0,L|501:112,2,35,8|0|2,0:2|0:0|1:2,0:0:0:0:
423,130,118866,2,0,L|431:53,1,70,0|10,1:2|0:2,0:0:0:0:
346,24,119199,1,10,0:2:0:0:
346,24,119366,6,0,P|277:17|219:55,1,140,0|8,1:2|0:2,0:0:0:0:
167,128,119866,2,0,L|129:124,2,35,0|0|2,3:2|3:2|1:2,0:0:0:0:
204,211,120199,1,0,1:2:0:0:
204,211,120366,2,0,L|196:294,1,70,10|0,0:2|0:2,0:0:0:0:
154,360,120699,6,0,P|97:369|22:298,1,140,6|8,1:2|0:2,0:0:0:0:
11,234,121200,1,0,1:2:0:0:
11,234,121366,2,0,L|17:151,1,70,2|0,1:2|1:2,0:0:0:0:
91,112,121699,2,0,L|85:42,1,70,10|0,0:2|1:2,0:0:0:0:
176,26,122033,6,0,B|249:4|240:57|322:34,1,140,2|10,1:2|0:2,0:0:0:0:
403,34,122533,1,0,0:0:0:0:
403,34,122700,2,0,P|411:69|402:113,1,70,2|0,1:2|1:2,0:0:0:0:
337,162,123033,2,0,P|329:197|338:241,1,70,10|0,0:2|0:2,0:0:0:0:
407,284,123366,6,0,P|335:279|283:324,1,140,2|10,1:2|0:2,0:0:0:0:
204,363,123866,1,0,0:2:0:0:
204,363,124033,2,0,L|123:354,1,70,2|0,1:2|1:2,0:0:0:0:
103,269,124366,2,0,L|189:261,1,70,10|0,0:2|0:2,0:0:0:0:
233,194,124699,6,0,P|246:158|237:111,1,70,2|0,1:2|0:0,0:0:0:0:
246,35,125033,2,0,L|309:27,2,46.6666666666667,8|0|0,0:0|1:0|1:0,0:0:0:0:
173,78,125366,2,0,L|117:69,2,46.6666666666667,10|4|4,0:3|0:3|0:3,0:0:0:0:
243,126,125699,2,0,L|300:117,2,46.6666666666667,6|4|4,0:3|0:3|0:3,0:0:0:0:
187,210,126033,5,6,1:2:0:0:
256,192,126116,12,2,128699,0:0:0:0:
255,332,131366,5,6,0:0:0:0:
255,308,134033,5,6,0:0:0:0:
256,277,138033,5,2,1:0:0:0:
279,256,138699,2,0,L|284:188,1,56,12|0,0:0|1:0,0:0:0:0:
292,110,139033,1,8,0:0:0:0:
48,180,139366,6,0,L|57:268,1,83.9999974365235,6|0,1:2|0:2,0:0:0:0:
148,306,139700,2,0,L|161:223,1,83.9999974365235,10|0,0:2|0:2,0:0:0:0:
154,122,140033,2,0,P|66:147|1:95,1,167.999994873047,2|10,1:2|0:2,0:0:0:0:
87,44,140533,6,0,L|188:37,1,83.9999974365235,2|0,1:2|1:2,0:0:0:0:
259,87,140866,2,0,L|369:78,1,83.9999974365235,2|8,1:2|0:2,0:0:0:0:
430,29,141200,1,0,0:2:0:0:
484,113,141366,2,0,P|492:160|480:208,1,83.9999974365235,2|0,1:2|1:2,0:0:0:0:
401,252,141700,2,0,L|306:244,1,83.9999974365235,10|0,0:2|1:2,0:0:0:0:
246,173,142033,6,0,P|216:225|258:328,1,167.999994873047,6|10,1:2|1:2,0:0:0:0:
317,244,142533,1,0,0:0:0:0:
370,158,142700,2,0,L|361:71,1,83.9999974365235,2|0,1:2|1:2,0:0:0:0:
271,27,143033,2,0,L|262:110,1,83.9999974365235,10|0,0:2|1:2,0:0:0:0:
174,159,143366,6,0,P|132:168|72:150,1,83.9999974365235,2|0,1:2|0:2,0:0:0:0:
23,235,143700,2,0,L|31:329,1,83.9999974365235,10|0,0:2|0:2,0:0:0:0:
117,369,144033,1,2,1:2:0:0:
217,365,144200,1,2,1:2:0:0:
304,316,144366,2,0,L|311:232,1,83.9999974365235,10|0,0:2|1:2,0:0:0:0:
225,178,144699,6,0,L|217:94,1,83.9999974365235,4|0,1:2|0:0,0:0:0:0:
293,26,145033,2,0,P|334:16|398:26,1,83.9999974365235,10|0,0:2|0:2,0:0:0:0:
473,43,145366,2,0,L|465:126,1,83.9999974365235,2|0,1:2|1:2,0:0:0:0:
386,189,145699,2,0,L|393:272,1,83.9999974365235,10|0,0:2|0:2,0:0:0:0:
296,303,146033,6,0,P|208:306|155:373,1,167.999994873047,0|10,1:2|0:2,0:0:0:0:
87,290,146533,1,0,0:0:0:0:
10,355,146699,2,0,L|3:304,3,41.9999987182618,10|8|4|12,3:2|3:0|3:0|3:0,0:0:0:0:
42,279,147033,2,0,L|49:232,3,41.9999987182618,10|0|0|0,0:2|1:0|1:2|1:0,0:0:0:0:
56,187,147366,6,0,B|142:162|127:230|238:198,1,167.999994873047,2|8,1:2|0:3,0:0:0:0:
318,186,147866,1,4,0:3:0:0:
378,105,148033,2,0,L|370:10,1,83.9999974365235,4|4,0:3|0:3,0:0:0:0:
270,25,148366,2,0,L|261:116,1,83.9999974365235,10|0,0:3|0:0,0:0:0:0:
197,186,148700,5,6,0:3:0:0:
202,286,148866,2,0,P|240:304|283:310,1,83.9999974365235,6|8,0:3|0:3,0:0:0:0:
382,290,149200,1,6,0:3:0:0:
387,281,149283,1,4,0:3:0:0:
392,272,149366,2,0,L|396:229,3,41.9999987182618,4|0|0|0,0:3|0:0|1:0|1:0,0:0:0:0:
432,194,149700,2,0,L|423:142,3,41.9999987182618,0|0|0|0,1:0|0:0|0:0|1:0,0:0:0:0:
415,103,150033,6,0,P|376:108|322:86,1,83.9999974365235,6|0,1:2|0:0,0:0:0:0:
263,21,150366,2,0,P|220:13|177:22,1,83.9999974365235,10|0,0:2|0:0,0:0:0:0:
120,101,150699,2,0,P|77:109|34:100,1,83.9999974365235,2|0,1:2|1:2,0:0:0:0:
8,198,151033,1,10,0:2:0:0:
40,293,151200,2,0,P|52:335|57:380,1,83.9999974365235,2|0,1:2|1:2,0:0:0:0:
156,361,151533,6,0,P|196:351|237:359,1,83.9999974365235,2|8,1:2|0:2,0:0:0:0:
282,269,151865,1,0,0:2:0:0:
221,187,152033,2,0,P|224:145|236:84,1,83.9999974365235,2|0,1:2|1:2,0:0:0:0:
329,75,152366,2,0,P|369:84|410:76,1,83.9999974365235,10|0,0:2|1:2,0:0:0:0:
492,140,152700,6,0,P|479:227|474:315,1,167.999994873047,2|8,1:2|0:2,0:0:0:0:
389,361,153200,1,0,0:0:0:0:
291,337,153366,2,0,P|248:333|195:347,2,83.9999974365235,2|0|8,1:2|1:2|0:2,0:0:0:0:
345,251,153866,1,0,0:2:0:0:
389,160,154033,6,0,P|398:117|402:65,1,83.9999974365235,2|0,1:2|0:0,0:0:0:0:
305,45,154366,2,0,P|259:28|210:27,1,83.9999974365235,8|0,0:2|1:2,0:0:0:0:
133,70,154700,2,0,P|93:84|49:82,1,83.9999974365235,2|0,1:2|1:2,0:0:0:0:
9,174,155033,2,0,P|49:188|93:186,1,83.9999974365235,8|0,0:2|0:2,0:0:0:0:
191,186,155366,6,0,P|167:264|236:335,1,167.999994873047,6|8,1:2|0:2,0:0:0:0:
310,362,155866,1,0,0:0:0:0:
407,336,156033,2,0,P|447:325|511:323,1,83.9999974365235,0|0,1:2|0:2,0:0:0:0:
456,226,156366,1,8,0:2:0:0:
445,125,156533,1,0,0:2:0:0:
471,26,156700,6,0,P|430:35|372:31,1,83.9999974365235,0|0,1:2|1:2,0:0:0:0:
288,19,157033,2,0,P|300:61|307:118,1,83.9999974365235,10|0,0:2|0:2,0:0:0:0:
368,179,157366,2,0,P|356:221|349:278,1,83.9999974365235,2|0,1:2|1:2,0:0:0:0:
315,355,157699,2,0,P|273:365|227:357,1,83.9999974365235,10|0,0:2|1:2,0:0:0:0:
156,296,158033,6,0,P|79:254|2:287,1,167.999994873047,2|8,1:2|0:2,0:0:0:0:
76,355,158533,1,0,0:2:0:0:
156,296,158699,2,0,L|146:234,3,41.9999987182618,8|0|0|0,1:2|1:0|1:0|1:0,0:0:0:0:
176,212,159033,2,0,L|181:170,3,41.9999987182618,8|0|0|0,1:2|1:0|1:0|1:0,0:0:0:0:
198,122,159366,6,0,P|156:128|117:114,1,83.9999974365235,0|0,1:0|1:0,0:0:0:0:
66,26,159700,1,0,1:0:0:0:
15,112,159866,2,0,L|21:171,2,41.9999987182618,4|4|8,0:3|0:3|0:3,0:0:0:0:
87,41,160200,1,4,0:3:0:0:
184,66,160366,2,0,P|225:68|273:57,1,83.9999974365235,4|4,0:3|0:3,0:0:0:0:
360,20,160700,6,0,L|367:103,1,83.9999974365235,14|0,0:2|1:2,0:0:0:0:
459,61,161033,1,0,1:2:0:0:
466,162,161199,2,0,L|458:245,1,83.9999974365235,10|0,0:2|1:2,0:0:0:0:
494,340,161533,1,0,1:2:0:0:
398,373,161700,2,0,P|358:365|311:361,1,83.9999974365235,10|0,0:2|1:2,0:0:0:0:
221,323,162033,6,0,P|181:332|123:336,2,83.9999974365235,0|10|2,1:2|0:2|1:2,0:0:0:0:
297,257,162533,1,2,1:2:0:0:
310,157,162699,1,10,0:2:0:0:
271,76,162866,1,2,1:2:0:0:
259,80,162949,1,0,1:2:0:0:
247,84,163033,2,0,P|228:86|204:83,3,41.9999987182618,2|0|2|0,1:2|1:0|1:2|1:2,0:0:0:0:
155,77,163366,6,0,P|113:71|72:83,1,83.9999974365235,6|0,1:2|0:2,0:0:0:0:
18,167,163700,2,0,L|29:262,1,83.9999974365235,8|0,0:2|0:2,0:0:0:0:
72,340,164033,2,0,P|113:352|165:339,1,83.9999974365235,10|0,0:2|2:2,0:0:0:0:
245,303,164366,2,0,L|254:219,1,83.9999974365235,8|0,0:2|2:2,0:0:0:0:
275,120,164700,5,2,1:2:0:0:
369,84,164867,1,0,1:2:0:0:
454,137,165033,2,0,L|465:232,1,83.9999974365235,10|0,0:2|0:2,0:0:0:0:
478,320,165366,2,0,P|437:329|389:320,1,83.9999974365235,2|0,1:2|2:2,0:0:0:0:
305,278,165699,2,0,P|264:269|216:278,1,83.9999974365235,10|2,0:2|0:2,0:0:0:0:
123,296,166033,6,0,L|116:249,3,41.9999987182618,2|0|8|8,1:2|0:0|0:0|0:0,0:0:0:0:
75,224,166366,2,0,L|81:182,3,41.9999987182618,8|8|8|8,0:0|0:3|0:3|0:3,0:0:0:0:
124,156,166699,2,0,L|117:109,3,41.9999987182618,10|8|8|8,0:3|0:3|0:3|0:3,0:0:0:0:
111,64,167033,2,0,P|151:74|192:70,1,83.9999974365235,4|4,0:3|0:3,0:0:0:0:
285,36,167366,6,0,P|333:22|394:43,2,105,10|8|8,0:0|0:3|0:3,0:0:0:0:
334,113,168033,1,12,0:0:0:0:
65,358,168699,6,0,L|49:231,2,112,0|0|2,1:0|1:2|1:2,0:0:0:0:
153,373,169533,1,2,0:2:0:0:
153,373,169699,2,0,P|183:364|221:369,1,56,2|2,1:2|0:2,0:0:0:0:
297,367,170033,6,0,L|309:239,1,112,2|2,1:2|1:2,0:0:0:0:
370,191,170533,2,0,L|360:116,1,56,2|0,0:2|1:2,0:0:0:0:
372,46,170866,2,0,P|406:40|439:44,2,56,2|0|0,0:2|0:0|0:2,0:0:0:0:
290,84,171366,6,0,P|240:98|178:80,1,112,2|0,1:2|1:2,0:0:0:0:
105,37,171866,2,0,P|77:35|49:41,1,56,2|0,0:2|1:2,0:0:0:0:
16,125,172199,2,0,L|23:187,1,56,2|0,0:2|1:2,0:0:0:0:
91,239,172533,1,0,0:2:0:0:
171,201,172699,6,0,L|178:147,2,37.3333333333333,2|2|2,1:2|0:2|0:2,0:0:0:0:
234,268,173033,2,0,L|238:305,2,37.3333333333333,2|2|2,1:2|0:2|0:2,0:0:0:0:
287,194,173366,2,0,L|294:140,2,37.3333333333333,2|2|2,1:2|0:2|0:2,0:0:0:0:
350,261,173700,2,0,L|354:298,2,37.3333333333333,2|2|2,1:2|0:2|0:2,0:0:0:0:
423,209,174033,5,4,1:2:0:0:
423,209,179366,6,0,P|416:249|411:296,1,77.0000023498536,6|0,1:2|0:2,0:0:0:0:
326,321,179699,2,0,P|321:282|314:244,1,77.0000023498536,10|0,0:2|0:2,0:0:0:0:
284,156,180033,1,2,1:2:0:0:
284,156,180199,2,0,P|245:164|189:153,1,77.0000023498536,2|8,1:2|0:2,0:0:0:0:
118,136,180533,6,0,P|111:176|106:223,1,77.0000023498536,2|0,0:2|1:2,0:0:0:0:
85,302,180866,2,0,P|47:294|9:298,2,77.0000023498536,2|8|0,1:2|0:2|0:2,0:0:0:0:
154,363,181366,2,0,P|192:366|229:359,1,77.0000023498536,2|0,1:2|1:2,0:0:0:0:
316,326,181699,2,0,P|354:322|391:329,1,77.0000023498536,10|0,0:2|1:2,0:0:0:0:
479,360,182033,6,0,P|489:284|495:192,1,154.000004699707,2|10,1:2|0:2,0:0:0:0:
462,119,182533,1,0,0:0:0:0:
462,119,182699,2,0,P|454:79|450:26,1,77.0000023498536,2|0,1:2|1:2,0:0:0:0:
359,23,183033,2,0,P|320:20|269:39,1,77.0000023498536,10|0,0:2|0:2,0:0:0:0:
201,71,183366,6,0,P|209:111|213:164,1,77.0000023498536,2|0,1:2|1:2,0:0:0:0:
162,224,183699,2,0,P|226:182|306:227,1,154.000004699707,10|2,0:2|1:2,0:0:0:0:
338,288,184199,1,2,1:2:0:0:
338,288,184366,2,0,L|328:380,1,77.0000023498536,10|0,0:2|1:2,0:0:0:0:
241,337,184699,6,0,L|231:241,1,77.0000023498536,6|0,1:2|0:0,0:0:0:0:
139,257,185033,2,0,P|101:266|56:257,1,77.0000023498536,10|0,0:2|0:2,0:0:0:0:
8,185,185366,1,2,1:2:0:0:
8,185,185533,2,0,L|15:108,1,77.0000023498536,0|10,1:2|0:2,0:0:0:0:
75,37,185866,1,0,0:0:0:0:
75,37,186033,6,0,P|111:26|161:38,2,77.0000023498536,0|0|10,1:2|1:2|0:2,0:0:0:0:
119,117,186533,1,0,0:2:0:0:
119,117,186699,2,0,P|127:153|134:202,1,77.0000023498536,2|0,1:2|1:2,0:0:0:0:
224,177,187033,2,0,P|216:213|209:262,1,77.0000023498536,10|0,0:2|0:2,0:0:0:0:
131,301,187366,6,0,B|219:278|197:340|290:317,1,154.000004699707,6|8,1:2|0:2,0:0:0:0:
331,243,187866,1,0,0:0:0:0:
331,243,188033,2,0,P|323:202|321:155,2,77.0000023498536,2|0|8,1:2|1:2|0:2,0:0:0:0:
371,326,188533,1,12,0:2:0:0:
456,361,188699,5,2,1:2:0:0:
504,282,188866,2,0,P|507:259|515:225,2,38.5000011749268,4|4|4,0:3|0:3|0:3,0:0:0:0:
426,231,189199,1,4,0:3:0:0:
426,231,189366,2,0,P|421:194|411:146,1,77.0000023498536,6|4,0:3|0:3,0:0:0:0:
372,72,189699,1,4,0:3:0:0:
279,63,189866,1,4,0:3:0:0:
227,144,190033,5,6,1:2:0:0:
227,144,191366,6,0,L|112:134,2,93.3333333333333,8|8|8,3:3|0:3|0:3,0:0:0:0:
183,30,192033,1,4,1:2:0:0:
486,224,192699,6,0,P|508:288|488:366,1,140,2|2,1:2|0:2,0:0:0:0:
402,351,193199,1,0,1:2:0:0:
402,351,193366,2,0,B|329:335|343:383|261:367,1,140,14|14,0:2|0:2,0:0:0:0:
175,362,193866,1,0,0:2:0:0:
175,362,194033,6,0,L|167:277,1,70,6|4,0:3|0:3,0:0:0:0:
78,279,194366,2,0,L|88:197,1,70,6|4,0:3|0:3,0:0:0:0:
24,142,194699,2,0,L|16:69,1,70,6|6,0:3|0:3,0:0:0:0:
95,25,195033,1,6,0:3:0:0:
183,45,195199,1,0,1:0:0:0:
279,95,195366,6,0,P|323:97|372:75,1,83.9999974365235,4|0,1:2|0:0,0:0:0:0:
458,56,195700,2,0,L|467:146,1,83.9999974365235,10|0,0:2|0:0,0:0:0:0:
500,235,196033,2,0,L|490:330,1,83.9999974365235,2|0,1:2|1:2,0:0:0:0:
403,368,196366,2,0,P|364:353|311:359,1,83.9999974365235,10|0,0:2|1:2,0:0:0:0:
221,369,196700,6,0,P|206:299|193:198,1,167.999994873047,0|10,1:2|0:2,0:0:0:0:
282,155,197200,1,0,1:2:0:0:
373,197,197366,2,0,P|383:153|390:106,1,83.9999974365235,2|0,1:2|1:2,0:0:0:0:
329,33,197699,2,0,P|286:29|242:50,1,83.9999974365235,14|0,0:2|0:2,0:0:0:0:
168,106,198033,6,0,P|105:135|13:106,1,167.999994873047,6|8,1:2|0:2,0:0:0:0:
0,207,198533,1,0,1:2:0:0:
13,307,198700,2,0,P|58:296|117:299,1,83.9999974365235,0|8,1:2|0:2,0:0:0:0:
189,333,199033,2,0,P|234:344|293:341,1,83.9999974365235,2|0,1:2|1:2,0:0:0:0:
366,309,199367,5,10,0:2:0:0:
357,208,199533,2,0,P|312:197|253:200,1,83.9999974365235,0|0,0:2|1:2,0:0:0:0:
178,230,199867,1,2,1:2:0:0:
89,183,200033,2,0,P|77:141|73:88,1,83.9999974365235,8|0,0:2|1:2,0:0:0:0:
168,69,200366,2,0,P|206:73|269:60,1,83.9999974365235,12|0,0:2|0:0,0:0:0:0:
331,5,200699,5,2,0:2:0:0:
475,146,201033,2,0,L|483:48,1,83.9999974365235,14|0,0:2|0:0,0:0:0:0:
381,77,201366,2,0,L|374:160,1,83.9999974365235,2|0,1:2|1:2,0:0:0:0:
277,192,201699,1,10,0:2:0:0:
189,141,201866,6,0,P|146:133|100:141,1,83.9999974365235,2|0,0:2|1:2,0:0:0:0:
24,198,202200,1,2,1:2:0:0:
79,281,202366,2,0,P|87:323|90:369,1,83.9999974365235,8|0,0:2|1:2,0:0:0:0:
190,376,202699,2,0,P|232:373|294:342,1,83.9999974365235,2|0,1:2|1:2,0:0:0:0:
367,325,203033,2,0,P|370:283|377:241,1,83.9999974365235,10|0,0:2|0:2,0:0:0:0:
318,160,203366,6,0,P|382:207|475:186,1,167.999994873047,6|8,1:2|0:2,0:0:0:0:
501,98,203866,1,0,1:2:0:0:
423,33,204033,2,0,L|330:25,1,83.9999974365235,2|0,1:2|1:2,0:0:0:0:
239,43,204366,2,0,P|235:84|227:135,1,83.9999974365235,8|0,0:2|0:2,0:0:0:0:
142,178,204699,5,2,1:2:0:0:
115,275,204866,1,0,1:2:0:0:
157,366,205033,2,0,P|198:358|242:364,1,83.9999974365235,8|0,0:2|1:2,0:0:0:0:
340,370,205366,1,2,1:2:0:0:
440,357,205533,1,0,1:2:0:0:
489,269,205700,2,0,P|480:227|476:169,1,83.9999974365235,12|0,0:2|0:2,0:0:0:0:
377,165,206033,6,0,P|319:186|223:127,1,167.999994873047,6|8,1:2|0:2,0:0:0:0:
155,70,206533,1,0,0:0:0:0:
61,107,206699,2,0,L|68:195,1,83.9999974365235,0|0,1:2|1:2,0:0:0:0:
160,231,207033,1,8,0:2:0:0:
251,272,207199,6,0,L|242:367,1,83.9999974365235,0|0,1:2|1:2,0:0:0:0:
142,371,207533,1,0,1:2:0:0:
41,358,207700,2,0,L|30:258,1,83.9999974365235,10|0,0:2|1:2,0:0:0:0:
4,176,208033,2,0,L|9:126,3,41.9999987182618,6|4|4|4,0:3|0:3|0:3|0:3,0:0:0:0:
48,103,208366,2,0,L|43:53,3,41.9999987182618,10|0|0|0,0:2|1:0|1:2|1:0,0:0:0:0:
85,32,208699,6,0,P|126:22|169:34,1,83.9999974365235,0|0,1:2|1:2,0:0:0:0:
266,46,209033,2,0,L|365:38,1,83.9999974365235,0|0,1:2|1:2,0:0:0:0:
450,29,209366,2,0,P|461:79|465:128,1,83.9999974365235
495,208,209700,2,0,P|491:230|488:263,3,41.9999987182618,2|0|0|0,1:2|0:0|0:0|1:2,0:0:0:0:
483,299,210033,6,0,P|441:286|381:296,1,83.9999974365235,6|2,1:2|1:2,0:0:0:0:
327,357,210366,1,10,0:2:0:0:
226,367,210533,1,6,0:3:0:0:
196,271,210699,2,0,L|185:174,1,83.9999974365235,4|6,0:3|0:3,0:0:0:0:
99,239,211033,2,0,L|90:331,1,83.9999974365235,10|4,0:3|0:3,0:0:0:0:
8,263,211366,6,0,L|-3:166,1,83.9999974365235,14|0,0:0|1:0,0:0:0:0:
6,78,211699,1,0,1:0:0:0:
86,17,211866,2,0,P|129:8|176:23,1,83.9999974365235,10|0,0:0|1:0,0:0:0:0:
245,83,212199,1,0,1:0:0:0:
323,146,212366,2,0,L|313:245,1,83.9999974365235,10|0,0:0|1:0,0:0:0:0:
216,254,212699,6,0,L|204:168,2,83.9999974365235,0|10|2,1:0|0:0|1:0,0:0:0:0:
245,350,213199,1,2,1:0:0:0:
343,370,213365,1,10,0:0:0:0:
443,350,213533,1,2,1:2:0:0:
438,339,213616,1,0,1:2:0:0:
433,327,213699,2,0,P|428:305|427:286,3,41.9999987182618,2|0|2|0,1:2|1:2|1:2|1:2,0:0:0:0:
463,250,214033,6,0,P|472:207|477:162,1,83.9999974365235,6|0,1:2|0:2,0:0:0:0:
462,67,214366,2,0,P|423:53|377:59,1,83.9999974365235,8|0,0:2|0:2,0:0:0:0:
293,107,214699,2,0,L|206:98,1,83.9999974365235,10|0,0:2|2:2,0:0:0:0:
125,40,215033,2,0,L|38:49,1,83.9999974365235,8|0,0:2|2:2,0:0:0:0:
3,142,215366,5,2,1:2:0:0:
31,238,215533,1,0,1:2:0:0:
121,282,215699,2,0,P|129:326|133:377,1,83.9999974365235,10|0,0:2|0:2,0:0:0:0:
233,352,216033,2,0,P|236:310|244:268,1,83.9999974365235,2|0,1:2|2:2,0:0:0:0:
343,250,216366,2,0,P|339:208|331:166,1,83.9999974365235,10|2,0:2|0:2,0:0:0:0:
309,68,216699,6,0,P|285:64|261:62,3,41.9999987182618,2|0|8|8,1:2|0:0|0:0|0:0,0:0:0:0:
225,91,217033,2,0,P|201:95|177:97,3,41.9999987182618,8|8|8|8,0:0|0:3|0:3|0:3,0:0:0:0:
138,73,217366,2,0,P|114:69|90:67,3,41.9999987182618,10|8|8|8,0:3|0:3|0:3|0:3,0:0:0:0:
53,94,217699,2,0,P|62:137|67:185,1,83.9999974365235,4|0,0:3|0:0,0:0:0:0:
74,272,218033,5,10,0:0:0:0:
429,346,218699,2,0,B|377:191|489:228|428:65,1,280,2|2,0:0|0:0,0:0:0:0:
